Tags
Language
Tags
July 2024
Su Mo Tu We Th Fr Sa
30 1 2 3 4 5 6
7 8 9 10 11 12 13
14 15 16 17 18 19 20
21 22 23 24 25 26 27
28 29 30 31 1 2 3

Stuff - Albums Collection 1976-1980 (5CD) [Japanese SHM-CD 2012]

Posted By: Designol
Stuff - Albums Collection 1976-1980 (5CD) [Japanese SHM-CD 2012]

Stuff - Albums Collection 1976-1980 (5CD) [Japanese SHM-CD 2012]
EAC | FLAC | Image (Cue&Log) ~ 1.36 Gb | Scans included | Time: 03:25:40
Jazz-Funk, Fusion, Funk, R&B | Label: Warner | # WPCR-14403~14407

Stuff was an American, New York City-based jazz-funk band active in the late 1970s and early 1980s. The members were Gordon Edwards (bass), Richard Tee (keyboards), Eric Gale (guitar), Cornell Dupree (guitar), Chris Parker (drums), and later Steve Gadd (drums). Collection includes: Stuff (1976); More Staff (1977); Live Staff (1978); Staff It (1979); Live in New York (1980).

Under the leadership of bassist Gordon Edwards, several of the most prolific studio players around teamed together to form an all-star rhythm section that on a part-time basis operated as an independent group. Back around 1967, Edwards put together the Encyclopedia of Soul and during the next decade, the group (which just played together on an occasional basis) evolved into Stuff. Such musicians as drummer Billy Cobham and Jimmy Johnson and altoist David Sanborn passed through the group. By the time of its initial recording in 1975, the lineup was set: Richard Tee on organ, electric piano, and acoustic pianos, both Eric Gale and Cornell Dupree on guitars, bassist Edwards, and drummer Steve Gadd; Christopher Parker was occasionally with the group on second drums and percussion. Although the band, which consisted of masterful accompanists, often sounded like a "music minus one" ensemble (as if they were waiting for the main soloist to show up), Stuff were quite popular for a few years, recording four albums for Warner Bros. and having occasional reunions in the '80s.

Scott Yanow, Allmusic.com

Stuff - Albums Collection 1976-1980 (5CD) [Japanese SHM-CD 2012]






Stuff - Albums Collection 1976-1980 (5CD) [Japanese SHM-CD 2012]

Stuff - Stuff (1976) [Japanese SHM-CD 2012]
EAC | FLAC | Image (Cue&Log) ~ 249 Mb | Scans included
Label: Warner | # WPCR-14403 | Time: 00:41:53

Stuff never won the respect of bop snobs, but that isn't what they were going for. The band's specialty was an accessible, groove-oriented blend of jazz, R&B, and pop, and not everyone who bought their records was a jazz expert. Though some of Stuff's fans knew a lot about jazz, others were Average White Band or Chaka Khan fans who bought the occasional Grover Washington, Jr. album. Stuff's LPs weren't amazing, but they were generally likable. That is the case with this self-titled debut album, which was produced by Herb Lovelle and Tommy LiPuma and earned the band a loyal following in 1976. While congenial tunes like "Reflections of Divine Love" and "Foots" aren't breathtaking, they're pleasant and easy to like. Guitarist Eric Gale, drummer Steve Gadd, and other Stuff members were capable of a lot more. Nonetheless, the band's recording career was off to a decent, if unremarkable, start with this 1976 LP.

Alex Henderson, Allmusic.com

Tracklist:

01. Foots (04:00)
02. My Sweetness (03:23)
03. (Do You) Want Some of This (05:59)
04. Looking for the Juice (03:54)
05. Reflections of Divine Love (05:02)
06. How Long Will It Last (04:18)
07. Sun Song (04:28)
08. Happy Farms (03:43)
09. Dixie/Up on the Roof (06:42)


Exact Audio Copy V1.0 beta 3 from 29. August 2011

Отчёт EAC об извлечении, выполненном 12. мая 2014, 12:14

Stuff / Stuff

Дисковод: Optiarc DVD RW AD-7203S Adapter: 5 ID: 0

Режим чтения : Достоверность
Использование точного потока : Да
Отключение кэша аудио : Да
Использование указателей C2 : Нет

Коррекция смещения при чтении : 48
Способность читать области Lead-in и Lead-out : Нет
Заполнение пропущенных сэмплов тишиной : Да
Удаление блоков с тишиной в начале и конце : Нет
При вычислениях CRC использовались нулевые сэмплы : Да
Интерфейс : Встроенный Win32-интерфейс для Win NT/2000

Выходной формат : Пользовательский кодировщик
Выбранный битрейт : 128 kBit/s
Качество : Высокий
Добавление ID3-тега : Нет
Утилита сжатия : C:\Program Files (x86)\Exact Audio Copy\Flac\flac.exe
Дополнительные параметры : -V -8 -T "Date=%year%" -T "Genre=%genre%" %source%


TOC извлечённого CD

Трек | Старт | Длительность | Начальный сектор | Конечный сектор
––––––––––––––––––––––––––––––––––-
1 | 0:00.00 | 4:03.02 | 0 | 18226
2 | 4:03.02 | 3:28.24 | 18227 | 33850
3 | 7:31.26 | 6:01.36 | 33851 | 60961
4 | 13:32.62 | 3:56.54 | 60962 | 78715
5 | 17:29.41 | 5:02.49 | 78716 | 101414
6 | 22:32.15 | 4:21.48 | 101415 | 121037
7 | 26:53.63 | 4:30.21 | 121038 | 141308
8 | 31:24.09 | 3:46.39 | 141309 | 158297
9 | 35:10.48 | 6:42.50 | 158298 | 188497


Характеристики диапазона извлечения и сообщения об ошибках

Выбранный диапазон

Имя файла E:\Моя музыка\_FLAC\Stuff\Stuff - Stuff (1976)\Stuff - Stuff (1976).wav

Пиковый уровень 100.0 %
Скорость извлечения 3.6 X
Качество диапазона 100.0 %
CRC теста 1B898E44
CRC копии 1B898E44
Копирование… OK

Ошибок не произошло


AccurateRip: сводка

Трек 1 : извлечено точно (доверие 1) [BDBB5AAC] (AR v1)
Трек 2 : извлечено точно (доверие 1) [04B4ECFD] (AR v1)
Трек 3 : извлечено точно (доверие 1) [D2B412A3] (AR v1)
Трек 4 : извлечено точно (доверие 1) [1226F2DD] (AR v1)
Трек 5 : извлечено точно (доверие 1) [F4A5E57C] (AR v1)
Трек 6 : извлечено точно (доверие 1) [C5B8F125] (AR v1)
Трек 7 : извлечено точно (доверие 1) [4072A2B0] (AR v1)
Трек 8 : извлечено точно (доверие 1) [4023BE61] (AR v1)
Трек 9 : извлечено точно (доверие 1) [4B54F358] (AR v1)

Все треки извлечены точно

Конец отчёта

==== Контрольная сумма отчёта 1F747939479786EBB47F14070730B9F4E25C416359D3073A937655E5B1F862CB ====

foobar2000 1.2 / Dynamic Range Meter 1.1.1
log date: 2014-05-26 14:24:07

––––––––––––––––––––––––––––––––––––––––
Analyzed: Stuff / Stuff
––––––––––––––––––––––––––––––––––––––––

DR Peak RMS Duration Track
––––––––––––––––––––––––––––––––––––––––
DR9 0.00 dB -11.23 dB 4:03 01-Foots
DR8 0.00 dB -12.19 dB 3:28 02-My Sweetness
DR7 0.00 dB -9.74 dB 6:01 03-(Do You) Want Some of This
DR8 0.00 dB -11.54 dB 3:57 04-Looking for the Juice
DR9 0.00 dB -11.86 dB 5:03 05-Reflections of Divine Love
DR7 0.00 dB -9.68 dB 4:22 06-How Long Will It Last
DR8 0.00 dB -10.14 dB 4:30 07-Sun Song
DR9 0.00 dB -11.30 dB 3:47 08-Happy Farms
DR14 0.00 dB -17.81 dB 6:43 09-Dixie/Up on the Roof
––––––––––––––––––––––––––––––––––––––––

Number of tracks: 9
Official DR value: DR9

Samplerate: 44100 Hz
Channels: 2
Bits per sample: 16
Bitrate: 759 kbps
Codec: FLAC
================================================================================




Stuff - Albums Collection 1976-1980 (5CD) [Japanese SHM-CD 2012]

Stuff - More Staff (1977) [Japanese SHM-CD 2012]
EAC | FLAC | Image (Cue&Log) ~ 237 Mb | Scans included
Label: Warner | # WPCR-14404 | Time: 00:36:53

Stuff's sophomore album More Stuff was quite similar to its first LP. Once again, the band offered a pleasant and good-natured, if unremarkable, blend of jazz, R&B, and pop. Many jazz critics gave this record negative reviews, attacking it for being commercial and groove-oriented. But Stuff never claimed to be Art Blakey & the Jazz Messengers and tunes like Eric Gale's "Honey Coral Rock" and Cornell Dupree's "Subway" weren't meant to be straight-ahead bop. Stuff wanted to attract R&B and pop fans as well as jazz fans, and its members would have been happy to learn that someone who was into Marvin Gaye and Tyrone Davis also appreciated More Stuff. The fact that Stuff produced this LP with Charlie Kipps and the late Van McCoy says a lot; McCoy enjoyed one of disco's definitive smashes with 1975's "The Hustle," and he was also the guy who wrote Gladys Knight & the Pips' 1964 hit "Giving Up." So there was no way that an album McCoy co-produced was going to be a serious bop record. More Stuff isn't a masterpiece, although it's a decent LP that fared well in the crossover/NAC market.

Alex Henderson, Allmusic.com

Tracklist:

01. This One's for You (05:09)
02. And Here You Are (05:01)
03. Subway (03:33)
04. Love of Mine (04:06)
05. Honey Coral Rock (05:10)
06. Sometimes Bubba Gets Down (03:37)
07. As (03:25)
08. Need Somebody (06:32)


Exact Audio Copy V1.0 beta 3 from 29. August 2011

Отчёт EAC об извлечении, выполненном 12. мая 2014, 12:48

Stuff / More Stuff

Дисковод: Optiarc DVD RW AD-7203S Adapter: 5 ID: 0

Режим чтения : Достоверность
Использование точного потока : Да
Отключение кэша аудио : Да
Использование указателей C2 : Нет

Коррекция смещения при чтении : 48
Способность читать области Lead-in и Lead-out : Нет
Заполнение пропущенных сэмплов тишиной : Да
Удаление блоков с тишиной в начале и конце : Нет
При вычислениях CRC использовались нулевые сэмплы : Да
Интерфейс : Встроенный Win32-интерфейс для Win NT/2000

Выходной формат : Пользовательский кодировщик
Выбранный битрейт : 128 kBit/s
Качество : Высокий
Добавление ID3-тега : Нет
Утилита сжатия : C:\Program Files (x86)\Exact Audio Copy\Flac\flac.exe
Дополнительные параметры : -V -8 -T "Date=%year%" -T "Genre=%genre%" %source%


TOC извлечённого CD

Трек | Старт | Длительность | Начальный сектор | Конечный сектор
––––––––––––––––––––––––––––––––––-
1 | 0:00.00 | 5:13.47 | 0 | 23521
2 | 5:13.47 | 5:02.45 | 23522 | 46216
3 | 10:16.17 | 3:33.74 | 46217 | 62265
4 | 13:50.16 | 4:07.18 | 62266 | 80808
5 | 17:57.34 | 5:13.11 | 80809 | 104294
6 | 23:10.45 | 3:39.48 | 104295 | 120767
7 | 26:50.18 | 3:30.52 | 120768 | 136569
8 | 30:20.70 | 6:32.07 | 136570 | 165976


Характеристики диапазона извлечения и сообщения об ошибках

Выбранный диапазон

Имя файла E:\Моя музыка\_FLAC\Stuff\Stuff - More Stuff (1977)\Stuff - More Stuff (1977).wav

Пиковый уровень 100.0 %
Скорость извлечения 3.5 X
Качество диапазона 100.0 %
CRC теста 6B40D881
CRC копии 6B40D881
Копирование… OK

Ошибок не произошло


AccurateRip: сводка

Трек 1 : извлечено точно (доверие 2) [6A5AF95B] (AR v2)
Трек 2 : извлечено точно (доверие 2) [2D3D0531] (AR v2)
Трек 3 : извлечено точно (доверие 2) [BBE18CE8] (AR v2)
Трек 4 : извлечено точно (доверие 2) [CCFA071D] (AR v2)
Трек 5 : извлечено точно (доверие 2) [E8B1C4F8] (AR v2)
Трек 6 : извлечено точно (доверие 2) [B0D4182B] (AR v2)
Трек 7 : извлечено точно (доверие 2) [71A9DE2C] (AR v2)
Трек 8 : извлечено точно (доверие 2) [9E719824] (AR v2)

Все треки извлечены точно

Конец отчёта

==== Контрольная сумма отчёта 8F2FC72D47798BA60058A5F71FF0F7B63D50F6D5F2FFB5CD8D7A09136DB29391 ====

foobar2000 1.2 / Dynamic Range Meter 1.1.1
log date: 2014-05-26 14:24:42

––––––––––––––––––––––––––––––––––––––––
Analyzed: Stuff / More Stuff
––––––––––––––––––––––––––––––––––––––––

DR Peak RMS Duration Track
––––––––––––––––––––––––––––––––––––––––
DR8 0.00 dB -9.80 dB 5:14 01-This One's for You
DR12 0.00 dB -14.76 dB 5:03 02-And Here You Are
DR7 0.00 dB -8.81 dB 3:34 03-Subway
DR8 0.00 dB -9.72 dB 4:07 04-Love of Mine
DR8 0.00 dB -10.32 dB 5:13 05-Honey Coral Rock
DR10 0.00 dB -12.25 dB 3:40 06-Sometimes Bubba Gets Down
DR8 0.00 dB -10.61 dB 3:31 07-As
DR9 0.00 dB -12.41 dB 6:32 08-Need Somebody
––––––––––––––––––––––––––––––––––––––––

Number of tracks: 8
Official DR value: DR9

Samplerate: 44100 Hz
Channels: 2
Bits per sample: 16
Bitrate: 803 kbps
Codec: FLAC
================================================================================




Stuff - Albums Collection 1976-1980 (5CD) [Japanese SHM-CD 2012]

Stuff - Live Staff (1978) [Japanese SHM-CD 2012]
EAC | FLAC | Image (Cue&Log) ~ 326 Mb | Scans included
Label: Warner | # WPCR-14406 | Time: 00:46:19


Tracklist:

01. Foots (05:09)
02. Junior Walker Medley: Road Runner/Pucker Up Buttercup (06:59)
03. Need Somebody (09:20)
04. Signed, Sealed, Delivered I'm Yours/Stuff's Theme (14:22)
05. Love of Mine (04:40)
06. Dixie (05:46)


Exact Audio Copy V1.0 beta 3 from 29. August 2011

Отчёт EAC об извлечении, выполненном 12. мая 2014, 14:04

Stuff / Live Stuff

Дисковод: Optiarc DVD RW AD-7203S Adapter: 5 ID: 0

Режим чтения : Достоверность
Использование точного потока : Да
Отключение кэша аудио : Да
Использование указателей C2 : Нет

Коррекция смещения при чтении : 48
Способность читать области Lead-in и Lead-out : Нет
Заполнение пропущенных сэмплов тишиной : Да
Удаление блоков с тишиной в начале и конце : Нет
При вычислениях CRC использовались нулевые сэмплы : Да
Интерфейс : Встроенный Win32-интерфейс для Win NT/2000

Выходной формат : Пользовательский кодировщик
Выбранный битрейт : 128 kBit/s
Качество : Высокий
Добавление ID3-тега : Нет
Утилита сжатия : C:\Program Files (x86)\Exact Audio Copy\Flac\flac.exe
Дополнительные параметры : -V -8 -T "Date=%year%" -T "Genre=%genre%" %source%


TOC извлечённого CD

Трек | Старт | Длительность | Начальный сектор | Конечный сектор
––––––––––––––––––––––––––––––––––-
1 | 0:00.00 | 5:09.52 | 0 | 23226
2 | 5:09.52 | 6:59.21 | 23227 | 54672
3 | 12:08.73 | 9:20.15 | 54673 | 96687
4 | 21:29.13 | 14:22.38 | 96688 | 161375
5 | 35:51.51 | 4:40.46 | 161376 | 182421
6 | 40:32.22 | 5:46.28 | 182422 | 208399


Характеристики диапазона извлечения и сообщения об ошибках

Выбранный диапазон

Имя файла E:\Моя музыка\_FLAC\Stuff\Stuff - Live Stuff (1978)\Stuff - Live Stuff (1978).wav

Пиковый уровень 100.0 %
Скорость извлечения 3.7 X
Качество диапазона 100.0 %
CRC теста 486EDE29
CRC копии 486EDE29
Копирование… OK

Ошибок не произошло


AccurateRip: сводка

Трек 1 : извлечено точно (доверие 4) [EF6D5F5F] (AR v2)
Трек 2 : извлечено точно (доверие 4) [21661C37] (AR v2)
Трек 3 : извлечено точно (доверие 4) [433C4B3D] (AR v2)
Трек 4 : извлечено точно (доверие 4) [9E51E434] (AR v2)
Трек 5 : извлечено точно (доверие 4) [14A20D45] (AR v2)
Трек 6 : извлечено точно (доверие 4) [43644C68] (AR v2)

Все треки извлечены точно

Конец отчёта

==== Контрольная сумма отчёта 165349B11E9FA95647653C38C41777FF3C44478A002D2777B709D31DA60077E6 ====

foobar2000 1.2 / Dynamic Range Meter 1.1.1
log date: 2014-05-26 14:25:00

––––––––––––––––––––––––––––––––––––––––
Analyzed: Stuff / Live Stuff
––––––––––––––––––––––––––––––––––––––––

DR Peak RMS Duration Track
––––––––––––––––––––––––––––––––––––––––
DR8 0.00 dB -10.00 dB 5:10 01-Foots
DR9 0.00 dB -10.69 dB 6:59 02-Junior Walker Medley: Road Runner/Pucker Up Buttercup
DR11 0.00 dB -14.62 dB 9:20 03-Need Somebody
DR8 0.00 dB -10.75 dB 14:23 04-Signed, Sealed, Delivered I'm Yours/Stuff's Theme
DR10 0.00 dB -11.65 dB 4:41 05-Love of Mine
DR12 0.00 dB -17.24 dB 5:46 06-Dixie
––––––––––––––––––––––––––––––––––––––––

Number of tracks: 6
Official DR value: DR10

Samplerate: 44100 Hz
Channels: 2
Bits per sample: 16
Bitrate: 833 kbps
Codec: FLAC
================================================================================




Stuff - Albums Collection 1976-1980 (5CD) [Japanese SHM-CD 2012]

Stuff - Staff It (1979) [Japanese SHM-CD 2012]
EAC | FLAC | Image (Cue&Log) ~ 303 Mb | Scans included
Label: Warner | # WPCR-14405 | Time: 00:42:55

The fact that there is a dozen people credited for backing vocals on this album, but no one for lead, says a lot. There is actually only one song, "Talkin' About My Love for You," with solo vocals, and the rest are instrumental, sometimes with vocal choruses. This could give a feeling of a karaoke record, but getting used to it one will find the tracks with backing vocals the album's strongest; for example, the introductory "Mighty Love," with the groove slowly building up to an irresistible frenzy. And the extremely skilled ensemble manages to do this trick even when conditions seem really bad, like in "Dance With Me," starting out with lazy synth strings, a bossa rhythm, and quiet backing vocals. When listeners dance to the funky beat at the end of the song, they are likely to have forgotten what it sounded like in the beginning. And Stuff is obviously not about writing durable songs, but doing party music with a highly competent band, and this time including a whole lot of gospel in the jazz-funk. The only time Stuff is disappointing is when they don't raise the tempo. "Rainbows" and "Gordon's Theme" may be important for the balance of the album, but are actually a bit boring, though the latter has some comic ingredients. But that is followed up by the magnificent "Talkin' About My Love for You." And it has been said before, but this will make everyone dance.

Lars Lovén, Allmusic.com

Tracklist:

01. Mighty Love (04:49)
02. Dance with Me (04:19)
03. Since You've Been Gone (Baby, Baby, Sweet Baby) (04:54)
04. Always (05:47)
05. Stuff It (00:46)
06. Love Having You Around (03:55)
07. Rainbows (03:58)
08. Gordon's Theme (06:49)
09. Talkin' About My Love for You (04:52)
10. Do It Again (02:26)


Exact Audio Copy V1.0 beta 3 from 29. August 2011

Отчёт EAC об извлечении, выполненном 12. мая 2014, 11:38

Stuff / Stuff It!

Дисковод: Optiarc DVD RW AD-7203S Adapter: 5 ID: 0

Режим чтения : Достоверность
Использование точного потока : Да
Отключение кэша аудио : Да
Использование указателей C2 : Нет

Коррекция смещения при чтении : 48
Способность читать области Lead-in и Lead-out : Нет
Заполнение пропущенных сэмплов тишиной : Да
Удаление блоков с тишиной в начале и конце : Нет
При вычислениях CRC использовались нулевые сэмплы : Да
Интерфейс : Встроенный Win32-интерфейс для Win NT/2000

Выходной формат : Пользовательский кодировщик
Выбранный битрейт : 128 kBit/s
Качество : Высокий
Добавление ID3-тега : Нет
Утилита сжатия : C:\Program Files (x86)\Exact Audio Copy\Flac\flac.exe
Дополнительные параметры : -V -8 -T "Date=%year%" -T "Genre=%genre%" %source%


TOC извлечённого CD

Трек | Старт | Длительность | Начальный сектор | Конечный сектор
––––––––––––––––––––––––––––––––––-
1 | 0:00.00 | 4:51.00 | 0 | 21824
2 | 4:51.00 | 4:21.17 | 21825 | 41416
3 | 9:12.17 | 4:55.25 | 41417 | 63566
4 | 14:07.42 | 5:47.56 | 63567 | 89647
5 | 19:55.23 | 0:47.14 | 89648 | 93186
6 | 20:42.37 | 3:57.43 | 93187 | 111004
7 | 24:40.05 | 4:02.45 | 111005 | 129199
8 | 28:42.50 | 6:52.21 | 129200 | 160120
9 | 35:34.71 | 4:52.73 | 160121 | 182093
10 | 40:27.69 | 2:26.56 | 182094 | 193099


Характеристики диапазона извлечения и сообщения об ошибках

Выбранный диапазон

Имя файла E:\Моя музыка\_FLAC\Stuff\Stuff - Stuff It! (1979)\Stuff - Stuff It! (1979).wav

Пиковый уровень 100.0 %
Скорость извлечения 3.6 X
Качество диапазона 99.9 %
CRC теста B27E5921
CRC копии B27E5921
Копирование… OK

Ошибок не произошло


AccurateRip: сводка

Трек 1 : извлечено точно (доверие 1) [5E11D638] (AR v2)
Трек 2 : извлечено точно (доверие 1) [87A7D027] (AR v2)
Трек 3 : извлечено точно (доверие 1) [59E59A88] (AR v2)
Трек 4 : извлечено точно (доверие 1) [7C58D130] (AR v2)
Трек 5 : извлечено точно (доверие 1) [2BFC07E2] (AR v2)
Трек 6 : извлечено точно (доверие 1) [FA68288E] (AR v2)
Трек 7 : извлечено точно (доверие 1) [A6CB90CC] (AR v2)
Трек 8 : извлечено точно (доверие 1) [56443CD9] (AR v2)
Трек 9 : извлечено точно (доверие 1) [5AE06C7A] (AR v2)
Трек 10 : извлечено точно (доверие 1) [B0483BBC] (AR v2)

Все треки извлечены точно

Конец отчёта

==== Контрольная сумма отчёта 9ACF58A7417857DC8C2F3138A74AF85A36B0888722C50FE500BC507AFD6371C8 ====

foobar2000 1.2 / Dynamic Range Meter 1.1.1
log date: 2014-05-26 14:25:12

––––––––––––––––––––––––––––––––––––––––
Analyzed: Stuff / Stuff It
––––––––––––––––––––––––––––––––––––––––

DR Peak RMS Duration Track
––––––––––––––––––––––––––––––––––––––––
DR9 0.00 dB -10.92 dB 4:51 01-Mighty Love
DR8 0.00 dB -10.36 dB 4:21 02-Dance with Me
DR8 0.00 dB -10.43 dB 4:55 03-Since You've Been Gone (Baby, Baby, Sweet Baby)
DR8 0.00 dB -10.55 dB 5:48 04-Always
DR10 0.00 dB -13.97 dB 0:47 05-Stuff It
DR9 0.00 dB -10.91 dB 3:58 06-Love Having You Around
DR11 0.00 dB -13.06 dB 4:03 07-Rainbows
DR12 0.00 dB -14.49 dB 6:52 08-Gordon's Theme
DR9 0.00 dB -10.59 dB 4:53 09-Talkin' About My Love for You
DR9 0.00 dB -11.31 dB 2:27 10-Do It Again
––––––––––––––––––––––––––––––––––––––––

Number of tracks: 10
Official DR value: DR9

Samplerate: 44100 Hz
Channels: 2
Bits per sample: 16
Bitrate: 894 kbps
Codec: FLAC
================================================================================




Stuff - Albums Collection 1976-1980 (5CD) [Japanese SHM-CD 2012]

Stuff - Live in New York (1980) [Japanese SHM-CD 2012]
EAC | FLAC | Image (Cue&Log) ~ 280 Mb | Scans included
Label: Warner | # WPCR-14407 | Time: 00:37:40

After releasing their last studio album in 1978, Stuff released three live albums in only two years. Wisely enough, they concentrated on up- and mid-tempo songs for this, the last one – wisely, because in their slick instrumental ballads, Stuff was often dangerously close to playing background music (they actually never ran totally clear of that risk). But on the whole, the instrumental funk found on this album has more in common with the first studio album than with later gospel- and soul-influenced releases. There are no horns, for example, which is unlucky because the horns did do a lot to lift the music on Stuff It, and the same can be said about the lack of vocals. There is more percussion than before though, as skilfully played as can be expected, and overall the band proves to be just as tight live as in the studio, and even more groovy. This may have been the band's last album ever, but the music is still intensely happy, though in the case of Stuff, that is more of a generic statement than a statement about mode. Happiest is the live version of "The Real McCoy," actually happy enough to position itself on an imaginary Stuff Top Five list, but the energetic medley "Love the Stuff – Ain't No Mountain High Enough" isn't far behind.

Lars Lovén, Allmusic.com

Tracklist:

01. Sometimes Bubba Gets Down (04:51)
02. You Make It Easy (04:27)
03. You're a Great Girl (04:58)
04. Shuffle (05:19)
05. Love the Stuff/Ain't No Mountain High Enough (06:40)
06. Duck Soup (05:59)
07. The Real McCoy (05:24)


Exact Audio Copy V1.0 beta 3 from 29. August 2011

Отчёт EAC об извлечении, выполненном 12. мая 2014, 13:35

Stuff / Live In New York

Дисковод: Optiarc DVD RW AD-7203S Adapter: 5 ID: 0

Режим чтения : Достоверность
Использование точного потока : Да
Отключение кэша аудио : Да
Использование указателей C2 : Нет

Коррекция смещения при чтении : 48
Способность читать области Lead-in и Lead-out : Нет
Заполнение пропущенных сэмплов тишиной : Да
Удаление блоков с тишиной в начале и конце : Нет
При вычислениях CRC использовались нулевые сэмплы : Да
Интерфейс : Встроенный Win32-интерфейс для Win NT/2000

Выходной формат : Пользовательский кодировщик
Выбранный битрейт : 128 kBit/s
Качество : Высокий
Добавление ID3-тега : Нет
Утилита сжатия : C:\Program Files (x86)\Exact Audio Copy\Flac\flac.exe
Дополнительные параметры : -V -8 -T "Date=%year%" -T "Genre=%genre%" %source%


TOC извлечённого CD

Трек | Старт | Длительность | Начальный сектор | Конечный сектор
––––––––––––––––––––––––––––––––––-
1 | 0:00.00 | 4:51.43 | 0 | 21867
2 | 4:51.43 | 4:27.51 | 21868 | 41943
3 | 9:19.19 | 4:58.06 | 41944 | 64299
4 | 14:17.25 | 5:19.00 | 64300 | 88224
5 | 19:36.25 | 6:40.05 | 88225 | 118229
6 | 26:16.30 | 5:59.41 | 118230 | 145195
7 | 32:15.71 | 5:24.28 | 145196 | 169523


Характеристики диапазона извлечения и сообщения об ошибках

Выбранный диапазон

Имя файла E:\Моя музыка\_FLAC\Stuff\Stuff - Live In New York (1980)\Stuff - Live In New York (1980).wav

Пиковый уровень 100.0 %
Скорость извлечения 3.5 X
Качество диапазона 100.0 %
CRC теста 40ABF37F
CRC копии 40ABF37F
Копирование… OK

Ошибок не произошло


AccurateRip: сводка

Трек 1 : извлечено точно (доверие 4) [4E4EB350] (AR v2)
Трек 2 : извлечено точно (доверие 4) [9184E448] (AR v2)
Трек 3 : извлечено точно (доверие 4) [59926933] (AR v2)
Трек 4 : извлечено точно (доверие 4) [C906D2EC] (AR v2)
Трек 5 : извлечено точно (доверие 4) [AA4803D6] (AR v2)
Трек 6 : извлечено точно (доверие 4) [BE680590] (AR v2)
Трек 7 : извлечено точно (доверие 4) [6D270E18] (AR v2)

Все треки извлечены точно

Конец отчёта

==== Контрольная сумма отчёта 8A97453837AFEEDBB4B951593037205B1874A0BDCF27AA5706A573C9AF5ABF77 ====

foobar2000 1.2 / Dynamic Range Meter 1.1.1
log date: 2014-05-26 14:25:30

––––––––––––––––––––––––––––––––––––––––
Analyzed: Stuff / Live in New York
––––––––––––––––––––––––––––––––––––––––

DR Peak RMS Duration Track
––––––––––––––––––––––––––––––––––––––––
DR9 0.00 dB -10.60 dB 4:52 01-Sometimes Bubba Gets Down
DR10 0.00 dB -12.12 dB 4:28 02-You Make It Easy
DR9 0.00 dB -10.95 dB 4:58 03-You're a Great Girl
DR9 0.00 dB -10.58 dB 5:19 04-Shuffle
DR9 0.00 dB -11.72 dB 6:40 05-Love the Stuff/Ain't No Mountain High Enough
DR10 0.00 dB -11.46 dB 6:00 06-Duck Soup
DR8 0.00 dB -10.34 dB 5:24 07-The Real McCoy
––––––––––––––––––––––––––––––––––––––––

Number of tracks: 7
Official DR value: DR9

Samplerate: 44100 Hz
Channels: 2
Bits per sample: 16
Bitrate: 955 kbps
Codec: FLAC
================================================================================




All thanks to original releaser

More interesting music in My Blog