Tags
Language
Tags
July 2024
Su Mo Tu We Th Fr Sa
30 1 2 3 4 5 6
7 8 9 10 11 12 13
14 15 16 17 18 19 20
21 22 23 24 25 26 27
28 29 30 31 1 2 3

Paul McCreesh, Gabrieli Consort & Players - Henry Purcell: King Arthur 1691 (2019)

Posted By: ArlegZ
Paul McCreesh, Gabrieli Consort & Players - Henry Purcell: King Arthur 1691 (2019)

Paul McCreesh, Gabrieli Consort & Players - Henry Purcell: King Arthur 1691 (2019)
EAC | FLAC | Image (Cue & Log) ~ 442 Mb | Total time: 97:38 | Scans included
Classical | Label: Signum | # SIGCD589 | Recorded: 2019

The great patriotic opera of the 17th century, recorded here in a lively new performing edition after two decades in the Gabrieli’s touring repertoire. Notoriously difficult to present on disc or in concert, this version presented by Gabrieli was created to allow an obvious musical narrative, despite Purcell’s music often being completely dislocated from much of the original theatre context.
Gabrieli have been performing the music from King Arthur for nearly a quarter of a century, evolving their interpretation over time. With the score having to be pieced together using separate versions (due to Purcell’s originals being lost), and with Gabrieli’s evolved interpretation of the music, the end product of this recording is truly unique. Their next release on Signum will be with the semi-opera by Purcell, Fairy Queen, in April next year, which is an adaptation of A Midsummer Nights Dream.

Performer:
Anna Dennis, soprano
Mhairi Lawson, soprano
Rowan Pierce, soprano
Carolyn Sampson, soprano
Jeremy Budd, high tenor
James Way, tenor
Roderick Williams, baritone
Ashley Riches, bass-baritone
Gabrieli Consort & Players
Paul McCreesh, conductor

Tracklist:
Henry Purcell (1659-1695)
King Arthur 1691
CD1:
01. First Music – Aire
02. First Music – Minuett
03. Second Music – Hornpipe
04. Second Music – Scotch Tune
05. Overture
06. Aire
07. Woden, first to thee / We have sacrific’d
08. The white horse neigh’d aloud / To Woden thanks we render
09. The lot is cast / Brave Souls
10. I call you all to Woden’s hall
11. Come if you dare, our trumepts sound
12. Prelude – Aire
13. Hither this way
14. Come follow me
15. Hither this way
16. Come follow me
17. How blest are shepherds
18. Shepherd, shepherd, leave decoying
19. Come, shepherds, lead up a lively measure
20. Second Act Tune – Rondeau
21. What ho, thou Genius of this isle!
22. What power art thou
23. Thou doting fool, forbear
24. Great Love, I know thee now
25. No part of my dominion shall be waste
26. See, see, we assemble
27. ‘Tis I that have warm’d ye / ‘Tis Love that has warm’d us
28. Sound a parley
29. ‘Tis Love that has warm’d us
30. Third Act Tune – Aire
CD2:
01. Aire
02. Two daughters of this aged stream are we
03. How happy the lover / For love every creature
04. You say, ‘tis Love creates the pain
05. Fourth Act Tune – Hornpipe
06. Prelude – Rondeau
07. Ye blust’ ring bethren / Serene and calm
08. Soft Tune
09. Round thy coasts
10. For folded flocks
11. Your hay it is mow’d
12. Fairest Isle
13. Tune for Trumpets
14. Sound Heroes, your brazen trumpets sound! / Let all rehearse
15. Grand Dance – Chaconne


Exact Audio Copy V1.2 from 12. August 2016

EAC extraction logfile from 22. December 2019, 12:57

Paul McCreesh, Gabrieli Consort & Players / King Arthur 1691 (Disc 1 of 2)

Used drive : MATSHITADVD-RAM UJ8G6 Adapter: 1 ID: 0

Read mode : Secure
Utilize accurate stream : Yes
Defeat audio cache : Yes
Make use of C2 pointers : No

Read offset correction : 103
Overread into Lead-In and Lead-Out : No
Fill up missing offset samples with silence : Yes
Delete leading and trailing silent blocks : No
Null samples used in CRC calculations : Yes
Used interface : Native Win32 interface for Win NT & 2000

Used output format : User Defined Encoder
Selected bitrate : 768 kBit/s
Quality : High
Add ID3 tag : No
Command line compressor : C:\Program Files (x86)\Exact Audio Copy\Flac\flac.exe
Additional command line options : -6 -V -T "ARTIST=%artist%" -T "TITLE=%title%" -T "ALBUM=%albumtitle%" -T "DATE=%year%" -T "TRACKNUMBER=%tracknr%" -T "GENRE=%genre%" -T "COMMENT=%comment%" -T "BAND=%albuminterpret%" -T "ALBUMARTIST=%albuminterpret%" -T "DISCNUMBER=%cdnumber%" -T "TOTALDISCS=%totalcds%" -T "TOTALTRACKS=%numtracks%" %hascover%–picture="%coverfile%"%hascover% %source% -o %dest% -T "RIPPER=Roy@Susato"


TOC of the extracted CD

Track | Start | Length | Start sector | End sector
––––––––––––––––––––––––––––-
1 | 0:00.00 | 1:03.50 | 0 | 4774
2 | 1:03.50 | 1:04.41 | 4775 | 9615
3 | 2:08.16 | 1:09.62 | 9616 | 14852
4 | 3:18.03 | 0:57.59 | 14853 | 19186
5 | 4:15.62 | 1:48.18 | 19187 | 27304
6 | 6:04.05 | 1:36.11 | 27305 | 34515
7 | 7:40.16 | 2:33.41 | 34516 | 46031
8 | 10:13.57 | 1:16.55 | 46032 | 51786
9 | 11:30.37 | 2:42.20 | 51787 | 63956
10 | 14:12.57 | 2:02.26 | 63957 | 73132
11 | 16:15.08 | 3:18.62 | 73133 | 88044
12 | 19:33.70 | 0:41.03 | 88045 | 91122
13 | 20:14.73 | 2:11.55 | 91123 | 101002
14 | 22:26.53 | 1:17.37 | 101003 | 106814
15 | 23:44.15 | 0:37.05 | 106815 | 109594
16 | 24:21.20 | 2:11.49 | 109595 | 119468
17 | 26:32.69 | 5:24.27 | 119469 | 143795
18 | 31:57.21 | 1:56.62 | 143796 | 152557
19 | 33:54.08 | 1:27.37 | 152558 | 159119
20 | 35:21.45 | 0:53.05 | 159120 | 163099
21 | 36:14.50 | 1:20.35 | 163100 | 169134
22 | 37:35.10 | 2:18.46 | 169135 | 179530
23 | 39:53.56 | 0:49.56 | 179531 | 183261
24 | 40:43.37 | 0:59.04 | 183262 | 187690
25 | 41:42.41 | 0:55.21 | 187691 | 191836
26 | 42:37.62 | 2:31.62 | 191837 | 203223
27 | 45:09.49 | 2:48.29 | 203224 | 215852
28 | 47:58.03 | 2:28.65 | 215853 | 227017
29 | 50:26.68 | 1:46.74 | 227018 | 235041
30 | 52:13.67 | 1:12.36 | 235042 | 240477


Range status and errors

Selected range

Filename C:\Users\Roy\Music\PURCELL - King Arthur 1691 (2019) [McCreesh; Signum Classics]\CD (FLAC + CUE)\CD 1\Henry Purcell - King Arthur 1691 (Disc 1 of 2).wav

Peak level 86.3 %
Extraction speed 2.5 X
Range quality 100.0 %
Test CRC 4439EFE0
Copy CRC 4439EFE0
Copy OK

No errors occurred


AccurateRip summary

Track 1 not present in database
Track 2 not present in database
Track 3 not present in database
Track 4 not present in database
Track 5 not present in database
Track 6 not present in database
Track 7 not present in database
Track 8 not present in database
Track 9 not present in database
Track 10 not present in database
Track 11 not present in database
Track 12 not present in database
Track 13 not present in database
Track 14 not present in database
Track 15 not present in database
Track 16 not present in database
Track 17 not present in database
Track 18 not present in database
Track 19 not present in database
Track 20 not present in database
Track 21 not present in database
Track 22 not present in database
Track 23 not present in database
Track 24 not present in database
Track 25 not present in database
Track 26 not present in database
Track 27 not present in database
Track 28 not present in database
Track 29 not present in database
Track 30 not present in database

None of the tracks are present in the AccurateRip database

End of status report

–– CUETools DB Plugin V2.1.6

[CTDB TOCID: 3FzbFVo9ipiJUGqS7FXDiPptPFA-] found
Submit result: 3FzbFVo9ipiJUGqS7FXDiPptPFA- has been confirmed
Track | CTDB Status
1 | (2/2) Accurately ripped
2 | (2/2) Accurately ripped
3 | (2/2) Accurately ripped
4 | (2/2) Accurately ripped
5 | (2/2) Accurately ripped
6 | (2/2) Accurately ripped
7 | (2/2) Accurately ripped
8 | (2/2) Accurately ripped
9 | (2/2) Accurately ripped
10 | (2/2) Accurately ripped
11 | (2/2) Accurately ripped
12 | (2/2) Accurately ripped
13 | (2/2) Accurately ripped
14 | (2/2) Accurately ripped
15 | (2/2) Accurately ripped
16 | (2/2) Accurately ripped
17 | (2/2) Accurately ripped
18 | (2/2) Accurately ripped
19 | (2/2) Accurately ripped
20 | (2/2) Accurately ripped
21 | (2/2) Accurately ripped
22 | (2/2) Accurately ripped
23 | (2/2) Accurately ripped
24 | (2/2) Accurately ripped
25 | (2/2) Accurately ripped
26 | (2/2) Accurately ripped
27 | (2/2) Accurately ripped
28 | (2/2) Accurately ripped
29 | (2/2) Accurately ripped
30 | (2/2) Accurately ripped


==== Log checksum 423DAA95A6FB801F52F9ABECCDACB3CA5FF66110A88C59FDB52A6F7E8BC40E10 ====


Exact Audio Copy V1.2 from 12. August 2016

EAC extraction logfile from 22. December 2019, 15:20

Paul McCreesh, Gabrieli Consort & Players / King Arthur 1691 (Disc 2 of 2)

Used drive : MATSHITADVD-RAM UJ8G6 Adapter: 1 ID: 0

Read mode : Secure
Utilize accurate stream : Yes
Defeat audio cache : Yes
Make use of C2 pointers : No

Read offset correction : 103
Overread into Lead-In and Lead-Out : No
Fill up missing offset samples with silence : Yes
Delete leading and trailing silent blocks : No
Null samples used in CRC calculations : Yes
Used interface : Native Win32 interface for Win NT & 2000

Used output format : User Defined Encoder
Selected bitrate : 768 kBit/s
Quality : High
Add ID3 tag : No
Command line compressor : C:\Program Files (x86)\Exact Audio Copy\Flac\flac.exe
Additional command line options : -6 -V -T "ARTIST=%artist%" -T "TITLE=%title%" -T "ALBUM=%albumtitle%" -T "DATE=%year%" -T "TRACKNUMBER=%tracknr%" -T "GENRE=%genre%" -T "COMMENT=%comment%" -T "BAND=%albuminterpret%" -T "ALBUMARTIST=%albuminterpret%" -T "DISCNUMBER=%cdnumber%" -T "TOTALDISCS=%totalcds%" -T "TOTALTRACKS=%numtracks%" %hascover%–picture="%coverfile%"%hascover% %source% -o %dest% -T "RIPPER=Roy@Susato"


TOC of the extracted CD

Track | Start | Length | Start sector | End sector
––––––––––––––––––––––––––––-
1 | 0:00.00 | 2:55.23 | 0 | 13147
2 | 2:55.23 | 3:12.10 | 13148 | 27557
3 | 6:07.33 | 5:06.20 | 27558 | 50527
4 | 11:13.53 | 5:09.15 | 50528 | 73717
5 | 16:22.68 | 0:53.12 | 73718 | 77704
6 | 17:16.05 | 0:41.07 | 77705 | 80786
7 | 17:57.12 | 3:04.24 | 80787 | 94610
8 | 21:01.36 | 2:04.18 | 94611 | 103928
9 | 23:05.54 | 2:22.05 | 103929 | 114583
10 | 25:27.59 | 2:56.53 | 114584 | 127836
11 | 28:24.37 | 2:37.59 | 127837 | 139670
12 | 31:02.21 | 3:36.04 | 139671 | 155874
13 | 34:38.25 | 0:41.74 | 155875 | 159023
14 | 35:20.24 | 5:37.35 | 159024 | 184333
15 | 40:57.59 | 3:17.30 | 184334 | 199138


Range status and errors

Selected range

Filename C:\Users\Roy\Music\PURCELL - King Arthur 1691 (2019) [McCreesh; Signum Classics]\CD (FLAC + CUE)\CD 2\Henry Purcell - King Arthur 1691 (Disc 2 of 2).wav

Peak level 92.2 %
Extraction speed 3.9 X
Range quality 100.0 %
Test CRC 121FDB9A
Copy CRC 121FDB9A
Copy OK

No errors occurred


AccurateRip summary

Track 1 not present in database
Track 2 not present in database
Track 3 not present in database
Track 4 not present in database
Track 5 not present in database
Track 6 not present in database
Track 7 not present in database
Track 8 not present in database
Track 9 not present in database
Track 10 not present in database
Track 11 not present in database
Track 12 not present in database
Track 13 not present in database
Track 14 not present in database
Track 15 not present in database

None of the tracks are present in the AccurateRip database

End of status report

–– CUETools DB Plugin V2.1.6

[CTDB TOCID: LFe9kUkHeamEcQ0tN0qlIcVpqco-] found
Submit result: LFe9kUkHeamEcQ0tN0qlIcVpqco- has been confirmed
Track | CTDB Status
1 | (3/3) Accurately ripped
2 | (3/3) Accurately ripped
3 | (3/3) Accurately ripped
4 | (3/3) Accurately ripped
5 | (3/3) Accurately ripped
6 | (3/3) Accurately ripped
7 | (3/3) Accurately ripped
8 | (3/3) Accurately ripped
9 | (3/3) Accurately ripped
10 | (3/3) Accurately ripped
11 | (3/3) Accurately ripped
12 | (3/3) Accurately ripped
13 | (3/3) Accurately ripped
14 | (3/3) Accurately ripped
15 | (3/3) Accurately ripped


==== Log checksum 201E2BA084B559F432A58C31D667E90F0BC31F04A3E4808B87C93676E4AC3AFE ====

Paul McCreesh, Gabrieli Consort & Players - Henry Purcell: King Arthur 1691 (2019)

Thanks to the original releaser