Tags
Language
Tags
July 2024
Su Mo Tu We Th Fr Sa
30 1 2 3 4 5 6
7 8 9 10 11 12 13
14 15 16 17 18 19 20
21 22 23 24 25 26 27
28 29 30 31 1 2 3

Paul Rodgers - Live In Glasgow (2007)

Posted By: popsakov
Paul Rodgers - Live In Glasgow (2007)

Paul Rodgers - Live In Glasgow (2007)
EAC Rip | FLAC (Img) + Cue + Log ~ 531 Mb | MP3 CBR320 ~ 206 Mb
Full Scans | 01:13:41 | RAR 5% Recovery
Blues Rock, Hard Rock | Eagle Records #EAGCD347 / GAS 00000347 EAG

The first question one has to ask upon even gazing at the album sleeve of Paul Rodgers' Live in Glasgow in 2006 is, of course, has he still got it? That's like asking if Bob Dylan still has it, or Jimmy Page or Brian May or Ian Hunter. Hell yes he does! Recorded on the final night of a European tour, Rodgers and his bandmates, guitarists Howard Leese and Kurtis Dengler, bassist Lynn Sorensen and drummer Ryan Hoyle, lay down a tough, big sounding set of classics and more recent songs – including one new one – from his entire career and give them life, breath and fire again. We haven't heard live guitars sound like this in a long time, probably since the early '80s, nor have we heard blues-based hard rock in this way since the Cult's Electric album. Impeccably recorded – both audio discs and DVD – Rodgers and crew rip through "The Stealer," "Bad Company," "All Right Now," Muddy Waters' "Louisiana Blues," "Feel Like Makin' Love," "Can't Get Enough," "The Hunter," and "Warboys (A Prayer for Peace)" with fire, intensity and plenty of feeling. The guitarists are not slouches or merely hired guns, they know the music and more importantly, they know the artist. "Warboys," begins acoustically and turns into a dual guitar freak-out, lending an air of chaos to the proceedings, but not too much. The early songs all sound fresh and hungry, and the band supports Rodgers as if he were the greatest rock singer on earth (and he just might be) and pushes him hard to deliver.

~ Thom Jurek, All Music

***************

Track List:

01. I'll Be Creepin' [4:28]
02. The Stealer [3:33]
03. Rider On A Pony [4:21]
04. Radioactive [3:45]
05. Be My Friend [6:22]
06. Warboys (A Prayer For Peace) [3:46]
07. Feel Like Makin' Love [4:53]
08. Bad Company [5:22]
09. I Just Want To See You Smile [3:36]
10. Louisiana Blues [3:29]
11. Fire And Water [4:18]
12. Wishing Well [3:30]
13. All Right Now [6:27]
14. I'm A Mover [3:07]
15. The Hunter [4:25]
16. Can't Get Enough [4:35]
17. Seagull [3:46]

Exact Audio Copy V1.1 from 23. June 2015

EAC extraction logfile from 7. October 2017, 21:19

Paul Rodgers / Live In Glasgow

Used drive : Optiarc DVD RW AD-7283S Adapter: 1 ID: 0

Read mode : Secure
Utilize accurate stream : Yes
Defeat audio cache : Yes
Make use of C2 pointers : No

Read offset correction : 48
Overread into Lead-In and Lead-Out : No
Fill up missing offset samples with silence : Yes
Delete leading and trailing silent blocks : No
Null samples used in CRC calculations : Yes
Used interface : Native Win32 interface for Win NT & 2000

Used output format : User Defined Encoder
Selected bitrate : 128 kBit/s
Quality : High
Add ID3 tag : No
Command line compressor : C:\Program Files (x86)\Exact Audio Copy\Flac\flac.exe
Additional command line options : -V -8 -T "Genre=%genre%" -T "Artist=%artist%" -T "Title=%title%" -T "Album=%albumtitle%" -T "Date=%year%" -T "Tracknumber=%tracknr%" -T "Comment=%comment%" %source%


TOC of the extracted CD

Track | Start | Length | Start sector | End sector
––––––––––––––––––––––––––––-
1 | 0:00.00 | 4:27.39 | 0 | 20063
2 | 4:27.39 | 3:32.48 | 20064 | 36011
3 | 8:00.12 | 4:21.03 | 36012 | 55589
4 | 12:21.15 | 3:44.60 | 55590 | 72449
5 | 16:06.00 | 6:22.03 | 72450 | 101102
6 | 22:28.03 | 3:46.11 | 101103 | 118063
7 | 26:14.14 | 4:52.42 | 118064 | 140005
8 | 31:06.56 | 5:21.54 | 140006 | 164134
9 | 36:28.35 | 3:36.21 | 164135 | 180355
10 | 40:04.56 | 3:28.41 | 180356 | 195996
11 | 43:33.22 | 4:17.44 | 195997 | 215315
12 | 47:50.66 | 3:29.38 | 215316 | 231028
13 | 51:20.29 | 6:27.25 | 231029 | 260078
14 | 57:47.54 | 3:06.40 | 260079 | 274068
15 | 60:54.19 | 4:25.01 | 274069 | 293944
16 | 65:19.20 | 4:35.28 | 293945 | 314597
17 | 69:54.48 | 3:46.25 | 314598 | 331572


Range status and errors

Selected range

Filename F:\alexbras\2007 Paul Rodgers - Live In Glasgow (2007 Germany Eagle EAGCD347)\Paul Rodgers - Live In Glasgow.wav

Peak level 100.0 %
Extraction speed 4.5 X
Range quality 100.0 %
Test CRC 7493392D
Copy CRC 7493392D
Copy OK

No errors occurred


AccurateRip summary

Track 1 accurately ripped (confidence 15) [F15E4415] (AR v2)
Track 2 accurately ripped (confidence 15) [06374611] (AR v2)
Track 3 accurately ripped (confidence 15) [7A997DCF] (AR v2)
Track 4 accurately ripped (confidence 15) [B17677E5] (AR v2)
Track 5 accurately ripped (confidence 15) [C3248722] (AR v2)
Track 6 accurately ripped (confidence 16) [87E347DE] (AR v2)
Track 7 accurately ripped (confidence 16) [910CBD21] (AR v2)
Track 8 accurately ripped (confidence 16) [1D0019BF] (AR v2)
Track 9 accurately ripped (confidence 16) [38E57D59] (AR v2)
Track 10 accurately ripped (confidence 16) [13619FE5] (AR v2)
Track 11 accurately ripped (confidence 16) [7F42AF1E] (AR v2)
Track 12 accurately ripped (confidence 16) [7C44579A] (AR v2)
Track 13 accurately ripped (confidence 16) [05287AE4] (AR v2)
Track 14 accurately ripped (confidence 16) [4955388E] (AR v2)
Track 15 accurately ripped (confidence 16) [D61D5195] (AR v2)
Track 16 accurately ripped (confidence 16) [552F9CF2] (AR v2)
Track 17 accurately ripped (confidence 16) [37BF8837] (AR v2)

All tracks accurately ripped

End of status report

==== Log checksum FC787B96F2E2FEFCEF435B746565BB7AAFD99EC1DFCA64E6ACCD9420AC7DAFE2 ====

[CUETools log; Date: 19.10.2017 1:14:17; Version: 2.1.5]
[CTDB TOCID: hOYyScJ.At_Xle_yLejtvuL_dpc-] found.
Track | CTDB Status
1 | (33/33) Accurately ripped
2 | (33/33) Accurately ripped
3 | (33/33) Accurately ripped
4 | (33/33) Accurately ripped
5 | (33/33) Accurately ripped
6 | (33/33) Accurately ripped
7 | (33/33) Accurately ripped
8 | (33/33) Accurately ripped
9 | (33/33) Accurately ripped
10 | (33/33) Accurately ripped
11 | (33/33) Accurately ripped
12 | (33/33) Accurately ripped
13 | (33/33) Accurately ripped
14 | (33/33) Accurately ripped
15 | (33/33) Accurately ripped
16 | (33/33) Accurately ripped
17 | (33/33) Accurately ripped
[AccurateRip ID: 002dd7e2-02451405-0d114411] found.
Track [ CRC | V2 ] Status
01 [09414253|f15e4415] (21+15/40) Accurately ripped
02 [0dec5914|06374611] (21+15/40) Accurately ripped
03 [e7345c7c|7a997dcf] (21+15/40) Accurately ripped
04 [3416c568|b17677e5] (21+15/40) Accurately ripped
05 [08ad060b|c3248722] (21+15/40) Accurately ripped
06 [9525ad32|87e347de] (21+16/41) Accurately ripped
07 [cff41db0|910cbd21] (21+16/41) Accurately ripped
08 [7d2b5f93|1d0019bf] (21+16/41) Accurately ripped
09 [69c4f9e6|38e57d59] (21+16/41) Accurately ripped
10 [f63d8fd3|13619fe5] (21+16/41) Accurately ripped
11 [306a5abd|7f42af1e] (20+16/40) Accurately ripped
12 [7c865c7b|7c44579a] (21+16/41) Accurately ripped
13 [1fac113a|05287ae4] (21+16/41) Accurately ripped
14 [c26706ee|4955388e] (20+16/40) Accurately ripped
15 [fd479f49|d61d5195] (21+16/41) Accurately ripped
16 [ece4853a|552f9cf2] (21+16/41) Accurately ripped
17 [b2e1bc68|37bf8837] (21+16/41) Accurately ripped
Offsetted by -24:
01 [23ccea25] (00/40) No match (V2 was not tested)
02 [f6cc5298] (00/40) No match (V2 was not tested)
03 [772856de] (00/40) No match (V2 was not tested)
04 [e16f2472] (00/40) No match (V2 was not tested)
05 [8d395da7] (00/40) No match (V2 was not tested)
06 [a57b4ff3] (00/41) No match (V2 was not tested)
07 [b79eb029] (00/41) No match (V2 was not tested)
08 [6e884998] (00/41) No match (V2 was not tested)
09 [cbf1e621] (00/41) No match (V2 was not tested)
10 [fe79d0f8] (00/41) No match (V2 was not tested)
11 [f8d83df7] (00/40) No match (V2 was not tested)
12 [db4003e0] (00/41) No match (V2 was not tested)
13 [fce0cd3d] (00/41) No match (V2 was not tested)
14 [b1bdf27b] (00/40) No match (V2 was not tested)
15 [a7fb2929] (00/41) No match (V2 was not tested)
16 [50577d47] (00/41) No match (V2 was not tested)
17 [2b20e8e3] (00/41) No match (V2 was not tested)
Offsetted by 24:
01 [920bf395] (00/40) No match (V2 was not tested)
02 [efda7c65] (00/40) No match (V2 was not tested)
03 [bbb4307f] (00/40) No match (V2 was not tested)
04 [4c9e266f] (00/40) No match (V2 was not tested)
05 [77f64ed4] (00/40) No match (V2 was not tested)
06 [6fa2fb98] (00/41) No match (V2 was not tested)
07 [69c8fc1f] (00/41) No match (V2 was not tested)
08 [93f4a3eb] (00/41) No match (V2 was not tested)
09 [6290187a] (00/41) No match (V2 was not tested)
10 [484ec778] (00/41) No match (V2 was not tested)
11 [ebcc9a25] (00/40) No match (V2 was not tested)
12 [bf295fa8] (00/41) No match (V2 was not tested)
13 [c20f184a] (00/41) No match (V2 was not tested)
14 [f0c3986e] (00/40) No match (V2 was not tested)
15 [b35c1abe] (00/41) No match (V2 was not tested)
16 [64970de5] (00/41) No match (V2 was not tested)
17 [0a69172f] (00/41) No match (V2 was not tested)

Track Peak [ CRC32 ] [W/O NULL] [ LOG ]
– 100,0 [7493392D] [904FCB42] CRC32
01 100,0 [7860BB76] [8BF5CB8B]
02 100,0 [C193061A] [BD4B8E71]
03 100,0 [00FB3910] [34EB86E9]
04 100,0 [D9016336] [D9100659]
05 100,0 [C6831A83] [0F59DEAB]
06 100,0 [7E84C6FD] [229F2FA6]
07 100,0 [EABBF36B] [1FB7CE07]
08 100,0 [B8F7367F] [3972CB3C]
09 100,0 [B6062B78] [523A5888]
10 100,0 [274AF136] [E32BB5DC]
11 100,0 [B199684F] [E001F51D]
12 100,0 [073FC5A9] [5CA0E7AF]
13 100,0 [842B7C60] [1737FD67]
14 100,0 [FDBEABE1] [3D488C2B]
15 100,0 [8298C919] [0A118E76]
16 100,0 [2F31F1CF] [9AADFE68]
17 99,5 [AEFE0DA2] [85BCA104]

All thanks go to alex1248

>>> Paul Rodgers in my Blog <<<

DOWNLOAD: