Tags
Language
Tags
July 2024
Su Mo Tu We Th Fr Sa
30 1 2 3 4 5 6
7 8 9 10 11 12 13
14 15 16 17 18 19 20
21 22 23 24 25 26 27
28 29 30 31 1 2 3

Isabelle Faust, Akademie für Alte Musik Berlin - Johann Sebastian Bach: Violin Concertos; Sinfonias; Overture; Sonatas (2019)

Posted By: ArlegZ
Isabelle Faust, Akademie für Alte Musik Berlin - Johann Sebastian Bach: Violin Concertos; Sinfonias; Overture; Sonatas (2019)

Isabelle Faust, Akademie für Alte Musik Berlin - Johann Sebastian Bach: Violin Concertos; Sinfonias; Overture; Sonatas (2019)
EAC | FLAC | Image (Cue & Log) ~ 714 Mb | Total time: 143:48 | Scans included
Classical | Label: Harmonia Mundi | HMM90233536 | Recorded: 2017, 2018

After the double album of the violin and harpsichord sonatas with Kristian Bezuidenhout, a bestseller in 2018, here is the next instalment in the Bach recording adventure that began nine years ago with a set of the sonatas and partitas now regarded as a benchmark. Isabelle Faust and Bernhard Forck and his partners at the Akademie für Alte Musik Berlin have explored patiently a multitude of other works by Bach: harpsichord concertos, trio sonatas for organ, instrumental movements from sacred cantatas… All are revealed here as direct or indirect relatives of the three monumental concertos BWV 1041-43.
This fascinating achievement is a timely reminder that the master of The Well-Tempered Clavier was also a virtuoso violinist.

Performer:
Isabelle Faust, violin
Bernhard Forck, violin
Xenia Löffler, oboe, recorder
Akademie für Alte Musik Berlin

Tracklist:
Johann Sebastian Bach (1685-1750)
Concerto for Violin, Strings and Basso Continuo BWV 1052R in D minor
01. I. (no tempo marking)
02. II. Adagio
03. III. Allegro
04. Sinfonia from the Cantata 'Ich liebe den Höchsten von ganzem Gemüte' BWV 174 in G major
Concerto for Violin, Strings and Basso Continuo BWV 1042 in E major
05. I. Allegro
06. II. Adagio
07. III. Allegro assai
Cantata 'Ich hatte viel Bekümmernis' BWV 21 in C minor
08. Sinfonia
Trio Sonata for 2 Violins and Basso Continuo BWV 529 in C major
09. I. Allegro
10. II. Largo
11. III. Allegro
Concerto for Oboe, Violin, Strings and Basso Continuo BWV 1060R in C minor
12. I. Allegro
13. II. Adagio
14. III. Allegro
CD2:
Overture [Suite No. 2] for Violin and Strings BWV 1067 in A minor
01. I. Ouverture
02. II. Rondeau
03. III. Sarabande
04. IV. Bourrées I & II
05. V. Polonaise. Moderato e staccato. Double
06. VI. Menuet
07. VII. Badinerie
Trio Sonata for Oboe, Violin and Basso Continuo BWV 527 in D minor
08. I. Andante
09. II. Adagio e dolce
10. III. Vivace
Concerto for Violin, Strings and Basso Continuo BWV 1056R in G minor
11. I. [No tempo marking]
12. II. Largo
13. III. Presto
Cantata 'Himmelskönig, sei willkommen' BWV 182 in G major
14. Sonata
Concerto for Violin, Strings and Basso Continuo BWV 1041 in A minor
15. I. [No tempo marking]
16. II. Andante
17. III. Allegro assai
18. Sinfonia BWV 1045 in D major for Violin, 3 Trumpets, 2 Oboes, Timpani, Strings and Basso Continuo
Concerto for 2 Violins, Strings and Basso Continuo BWV 1043 in D minor
19. I. Vivace
20. II. Largo ma non tanto
21. III. Allegro


Exact Audio Copy V1.3 from 2. September 2016

EAC extraction logfile from 5. January 2020, 13:02

Isabelle Faust, Akademie Für Alte Musik Berlin, Bernhard Forck And Xenia Loeffler / J.S. Bach: Violin Concertos (Disc 1)

Used drive : HL-DT-STDVDRAM GH24NSD5 Adapter: 1 ID: 0

Read mode : Secure
Utilize accurate stream : Yes
Defeat audio cache : Yes
Make use of C2 pointers : No

Read offset correction : 6
Overread into Lead-In and Lead-Out : No
Fill up missing offset samples with silence : Yes
Delete leading and trailing silent blocks : No
Null samples used in CRC calculations : Yes
Used interface : Native Win32 interface for Win NT & 2000

Used output format : User Defined Encoder
Selected bitrate : 896 kBit/s
Quality : High
Add ID3 tag : No
Command line compressor : C:\Program Files (x86)\Exact Audio Copy\FLAC\FLAC.EXE
Additional command line options : -6 -V -T "ARTIST=%artist%" -T "TITLE=%title%" -T "ALBUM=%albumtitle%" -T "DATE=%year%" -T "TRACKNUMBER=%tracknr%" -T "GENRE=%genre%" -T "COMMENT=%comment%" -T "BAND=%albuminterpret%" -T "ALBUMARTIST=%albuminterpret%" -T "COMPOSER=%composer%" %haslyrics%–tag-from-file=LYRICS="%lyricsfile%"%haslyrics% -T "DISCNUMBER=%cdnumber%" -T "TOTALDISCS=%totalcds%" -T "TOTALTRACKS=%numtracks%" %hascover%–picture="%coverfile%"%hascover% %source% -o %dest%


TOC of the extracted CD

Track | Start | Length | Start sector | End sector
––––––––––––––––––––––––––––-
1 | 0:00.00 | 6:54.30 | 0 | 31079
2 | 6:54.30 | 5:49.53 | 31080 | 57307
3 | 12:44.08 | 6:52.04 | 57308 | 88211
4 | 19:36.12 | 5:12.18 | 88212 | 111629
5 | 24:48.30 | 7:06.30 | 111630 | 143609
6 | 31:54.60 | 5:33.09 | 143610 | 168593
7 | 37:27.69 | 2:35.39 | 168594 | 180257
8 | 40:03.33 | 3:05.14 | 180258 | 194146
9 | 43:08.47 | 3:53.65 | 194147 | 211686
10 | 47:02.37 | 4:56.42 | 211687 | 233928
11 | 51:59.04 | 2:47.63 | 233929 | 246516
12 | 54:46.67 | 4:28.11 | 246517 | 266627
13 | 59:15.03 | 4:50.53 | 266628 | 288430
14 | 64:05.56 | 3:07.50 | 288431 | 302505


Range status and errors

Selected range

Filename I:\Rips\Bach JS - Violin Concertos - Faust, Forck\CD1\Isabelle Faust, Akademie Für Alte Musik Berlin, Bernhard Forck And Xenia Loeffler - J.S. Bach- Violin Concertos (Disc 1).wav

Peak level 89.0 %
Extraction speed 7.9 X
Range quality 100.0 %
Test CRC 0CAEED0A
Copy CRC 0CAEED0A
Copy OK

No errors occurred


AccurateRip summary

Track 1 accurately ripped (confidence 31) [7737BFDE] (AR v2)
Track 2 accurately ripped (confidence 32) [7A615BC3] (AR v2)
Track 3 accurately ripped (confidence 32) [010B9787] (AR v2)
Track 4 accurately ripped (confidence 32) [C63C60F3] (AR v2)
Track 5 accurately ripped (confidence 32) [218141DC] (AR v2)
Track 6 accurately ripped (confidence 31) [3C7B070C] (AR v2)
Track 7 accurately ripped (confidence 32) [6C970123] (AR v2)
Track 8 accurately ripped (confidence 32) [6CF781BC] (AR v2)
Track 9 accurately ripped (confidence 32) [B2F190F2] (AR v2)
Track 10 accurately ripped (confidence 32) [EE563A80] (AR v2)
Track 11 accurately ripped (confidence 32) [4BA3B61B] (AR v2)
Track 12 accurately ripped (confidence 32) [5B3239AD] (AR v2)
Track 13 accurately ripped (confidence 32) [897117DF] (AR v2)
Track 14 accurately ripped (confidence 32) [D8A16D43] (AR v2)

All tracks accurately ripped

End of status report

–– CUETools DB Plugin V2.1.6

[CTDB TOCID: WRkMFkv.dkl0.abGD.mYr2tYVP4-] found
Submit result: WRkMFkv.dkl0.abGD.mYr2tYVP4- has been confirmed
Track | CTDB Status
1 | (96/96) Accurately ripped
2 | (96/96) Accurately ripped
3 | (96/96) Accurately ripped
4 | (96/96) Accurately ripped
5 | (96/96) Accurately ripped
6 | (96/96) Accurately ripped
7 | (96/96) Accurately ripped
8 | (96/96) Accurately ripped
9 | (96/96) Accurately ripped
10 | (96/96) Accurately ripped
11 | (96/96) Accurately ripped
12 | (96/96) Accurately ripped
13 | (96/96) Accurately ripped
14 | (96/96) Accurately ripped


==== Log checksum 5662FA355440F25DE7611C5D1EE07B33DC7DA5148A8736EBF9F0869FECE74146 ====


Exact Audio Copy V1.3 from 2. September 2016

EAC extraction logfile from 5. January 2020, 13:23

Isabelle Faust, Akademie Für Alte Musik Berlin, Bernhard Forck And Xenia Loeffler / J.S. Bach: Violin Concertos (Disc 2)

Used drive : HL-DT-STDVDRAM GH24NSD5 Adapter: 1 ID: 0

Read mode : Secure
Utilize accurate stream : Yes
Defeat audio cache : Yes
Make use of C2 pointers : No

Read offset correction : 6
Overread into Lead-In and Lead-Out : No
Fill up missing offset samples with silence : Yes
Delete leading and trailing silent blocks : No
Null samples used in CRC calculations : Yes
Used interface : Native Win32 interface for Win NT & 2000

Used output format : User Defined Encoder
Selected bitrate : 896 kBit/s
Quality : High
Add ID3 tag : No
Command line compressor : C:\Program Files (x86)\Exact Audio Copy\FLAC\FLAC.EXE
Additional command line options : -6 -V -T "ARTIST=%artist%" -T "TITLE=%title%" -T "ALBUM=%albumtitle%" -T "DATE=%year%" -T "TRACKNUMBER=%tracknr%" -T "GENRE=%genre%" -T "COMMENT=%comment%" -T "BAND=%albuminterpret%" -T "ALBUMARTIST=%albuminterpret%" -T "COMPOSER=%composer%" %haslyrics%–tag-from-file=LYRICS="%lyricsfile%"%haslyrics% -T "DISCNUMBER=%cdnumber%" -T "TOTALDISCS=%totalcds%" -T "TOTALTRACKS=%numtracks%" %hascover%–picture="%coverfile%"%hascover% %source% -o %dest%


TOC of the extracted CD

Track | Start | Length | Start sector | End sector
––––––––––––––––––––––––––––-
1 | 0:00.00 | 10:04.38 | 0 | 45337
2 | 10:04.38 | 1:37.21 | 45338 | 52633
3 | 11:41.59 | 2:27.32 | 52634 | 63690
4 | 14:09.16 | 1:55.44 | 63691 | 72359
5 | 16:04.60 | 3:37.47 | 72360 | 88681
6 | 19:42.32 | 1:02.25 | 88682 | 93356
7 | 20:44.57 | 1:20.57 | 93357 | 99413
8 | 22:05.39 | 4:18.41 | 99414 | 118804
9 | 26:24.05 | 4:40.24 | 118805 | 139828
10 | 31:04.29 | 3:12.39 | 139829 | 154267
11 | 34:16.68 | 3:11.39 | 154268 | 168631
12 | 37:28.32 | 2:52.55 | 168632 | 181586
13 | 40:21.12 | 3:16.39 | 181587 | 196325
14 | 43:37.51 | 2:16.01 | 196326 | 206526
15 | 45:53.52 | 3:21.67 | 206527 | 221668
16 | 49:15.44 | 4:49.42 | 221669 | 243385
17 | 54:05.11 | 3:21.36 | 243386 | 258496
18 | 57:26.47 | 5:30.23 | 258497 | 283269
19 | 62:56.70 | 3:20.38 | 283270 | 298307
20 | 66:17.33 | 5:51.04 | 298308 | 324636
21 | 72:08.37 | 4:23.60 | 324637 | 344421


Range status and errors

Selected range

Filename I:\Rips\Bach JS - Violin Concertos - Faust, Forck\CD2\Isabelle Faust, Akademie Für Alte Musik Berlin, Bernhard Forck And Xenia Loeffler - J.S. Bach- Violin Concertos (Disc 2).wav

Peak level 89.0 %
Extraction speed 8.1 X
Range quality 100.0 %
Test CRC 0ED1B1ED
Copy CRC 0ED1B1ED
Copy OK

No errors occurred


AccurateRip summary

Track 1 accurately ripped (confidence 30) [0CE352A6] (AR v2)
Track 2 accurately ripped (confidence 31) [64FA5C7C] (AR v2)
Track 3 accurately ripped (confidence 31) [6BF315C1] (AR v2)
Track 4 accurately ripped (confidence 31) [41C5AE58] (AR v2)
Track 5 accurately ripped (confidence 31) [DAA0AA86] (AR v2)
Track 6 accurately ripped (confidence 31) [4521B57A] (AR v2)
Track 7 accurately ripped (confidence 31) [9AE3FC63] (AR v2)
Track 8 accurately ripped (confidence 30) [B478FC2A] (AR v2)
Track 9 accurately ripped (confidence 31) [48CFF3F4] (AR v2)
Track 10 accurately ripped (confidence 31) [A44B9C0B] (AR v2)
Track 11 accurately ripped (confidence 31) [D3D405C4] (AR v2)
Track 12 accurately ripped (confidence 30) [A260B41D] (AR v2)
Track 13 accurately ripped (confidence 30) [6F44FFD5] (AR v2)
Track 14 accurately ripped (confidence 30) [A0962076] (AR v2)
Track 15 accurately ripped (confidence 30) [358783CB] (AR v2)
Track 16 accurately ripped (confidence 30) [9E08F3E8] (AR v2)
Track 17 accurately ripped (confidence 30) [94FDCDAC] (AR v2)
Track 18 accurately ripped (confidence 30) [8B3D527E] (AR v2)
Track 19 accurately ripped (confidence 30) [ACD086A8] (AR v2)
Track 20 accurately ripped (confidence 30) [52270D85] (AR v2)
Track 21 accurately ripped (confidence 30) [31D176D1] (AR v2)

All tracks accurately ripped

End of status report

–– CUETools DB Plugin V2.1.6

[CTDB TOCID: RcU7.q_vWOM5qU1kI4SI1QJxGCA-] found
Submit result: RcU7.q_vWOM5qU1kI4SI1QJxGCA- has been confirmed
Track | CTDB Status
1 | (90/91) Accurately ripped
2 | (91/91) Accurately ripped
3 | (91/91) Accurately ripped
4 | (91/91) Accurately ripped
5 | (91/91) Accurately ripped
6 | (91/91) Accurately ripped
7 | (91/91) Accurately ripped
8 | (91/91) Accurately ripped
9 | (90/91) Accurately ripped
10 | (91/91) Accurately ripped
11 | (91/91) Accurately ripped
12 | (91/91) Accurately ripped
13 | (90/91) Accurately ripped
14 | (91/91) Accurately ripped
15 | (91/91) Accurately ripped
16 | (91/91) Accurately ripped
17 | (91/91) Accurately ripped
18 | (91/91) Accurately ripped
19 | (91/91) Accurately ripped
20 | (91/91) Accurately ripped
21 | (89/91) Accurately ripped


==== Log checksum 11BA7EB8D4E8592BDB1E7921C6BFF2A51ECD555D119C402D666FDAA15C9F12D8 ====

Isabelle Faust, Akademie für Alte Musik Berlin - Johann Sebastian Bach: Violin Concertos; Sinfonias; Overture; Sonatas (2019)

Thanks to the original releaser