Tags
Language
Tags
July 2024
Su Mo Tu We Th Fr Sa
30 1 2 3 4 5 6
7 8 9 10 11 12 13
14 15 16 17 18 19 20
21 22 23 24 25 26 27
28 29 30 31 1 2 3

Isabelle Faust, Giovanni Antonini, Il Giardino Armonico - Pietro Antonio Locatelli: Il Virtuoso, Il Poeta (2023)

Posted By: ArlegZ
Isabelle Faust, Giovanni Antonini, Il Giardino Armonico - Pietro Antonio Locatelli: Il Virtuoso, Il Poeta (2023)

Isabelle Faust, Giovanni Antonini, Il Giardino Armonico - Pietro Antonio Locatelli: Il Virtuoso, Il Poeta (2023)
EAC | FLAC | Image (Cue & Log) ~ 349 Mb | Total time: 68:22 | Scans included
Classical | Label: Harmonia Mundi | # HMM902398 | Recorded: 2022

Locatelli was one of the most impressive violin virtuosos of the first half of the eighteenth century. Considered today as a sort of Baroque Paganini, he left picturesque, colourful, strikingly modern pieces for his instrument. A few years after a Mozart collaboration that earned them worldwide acclaim, Isabelle Faust and the musicians of Il Giardino Armonico bring out the full narrative intensity of these concertos, worthy of the operatic stage!

Performer:
Isabelle Faust, violin
Il Giardino Armonico
Giovanni Antonini, conducting

Tracklist:
Pietro Antonio Locatelli (1695-1764)
il virtuoso, il poeta
Concerto grosso in C minor Op. 1 No. 11
01. I. Largo
02. II. Allemanda. Allegro
03. III. Sarabanda. Largo
04. IV. Giga. Allegro
Violin Concerto in A major Op. 3 No. 11
05. I. Allegro
06. II. Largo
07. III. Andante
Concerto grosso in E-flat major "Il pianto d'Arianna" Op. 7 No. 6
08. I. Andante - Allegro - Adagio - Andante - Allegro
09. II. Largo
10. III. Largo andante
11. IV. Grave
12. V. Allegro
13. VI. Largo
Violin Concerto in C minor Op. 3 No. 2
14. I. Andante
15. II. Largo
16. III. Andante
17. Concerto grosso in F minor Op. 1 No. 8: Pastorale


Exact Audio Copy V1.3 from 2. September 2016

EAC extraction logfile from 15. June 2024, 23:22

Isabelle Faust / Locatelli - il virtuoso, il poeta

Used drive : hp DVDRW UJ8FBA Adapter: 1 ID: 0

Read mode : Secure
Utilize accurate stream : Yes
Defeat audio cache : Yes
Make use of C2 pointers : No

Read offset correction : 6
Overread into Lead-In and Lead-Out : No
Fill up missing offset samples with silence : Yes
Delete leading and trailing silent blocks : No
Null samples used in CRC calculations : Yes
Used interface : Native Win32 interface for Win NT & 2000

Used output format : User Defined Encoder
Selected bitrate : 1024 kBit/s
Quality : High
Add ID3 tag : No
Command line compressor : C:\Program Files (x86)\Exact Audio Copy\FLAC\FLAC.EXE
Additional command line options : -6 -V -T "ARTIST=%artist%" -T "TITLE=%title%" -T "ALBUM=%albumtitle%" -T "DATE=%year%" -T "TRACKNUMBER=%tracknr%" -T "GENRE=%genre%" -T "COMMENT=%comment%" -T "BAND=%albuminterpret%" -T "ALBUMARTIST=%albuminterpret%" -T "COMPOSER=%composer%" %haslyrics%–tag-from-file=LYRICS="%lyricsfile%"%haslyrics% -T "DISCNUMBER=%cdnumber%" -T "TOTALDISCS=%totalcds%" -T "TOTALTRACKS=%numtracks%" %hascover%–picture="%coverfile%"%hascover% %source% -o %dest%


TOC of the extracted CD

Track | Start | Length | Start sector | End sector
––––––––––––––––––––––––––––-
1 | 0:00.00 | 2:48.31 | 0 | 12630
2 | 2:48.31 | 2:38.04 | 12631 | 24484
3 | 5:26.35 | 3:14.66 | 24485 | 39100
4 | 8:41.26 | 2:26.11 | 39101 | 50061
5 | 11:07.37 | 6:03.14 | 50062 | 77300
6 | 17:10.51 | 3:40.32 | 77301 | 93832
7 | 20:51.08 | 6:24.38 | 93833 | 122670
8 | 27:15.46 | 4:14.54 | 122671 | 141774
9 | 31:30.25 | 3:02.24 | 141775 | 155448
10 | 34:32.49 | 3:29.29 | 155449 | 171152
11 | 38:02.03 | 2:45.35 | 171153 | 183562
12 | 40:47.38 | 0:40.58 | 183563 | 186620
13 | 41:28.21 | 3:19.20 | 186621 | 201565
14 | 44:47.41 | 8:56.22 | 201566 | 241787
15 | 53:43.63 | 3:16.29 | 241788 | 256516
16 | 57:00.17 | 7:19.37 | 256517 | 289478
17 | 64:19.54 | 4:00.35 | 289479 | 307513


Range status and errors

Selected range

Filename C:\rips\Locatelli - il virtuoso, il poeta - Isabelle Faust\Isabelle Faust - Locatelli - il virtuoso, il poeta.wav

Peak level 98.5 %
Extraction speed 4.7 X
Range quality 99.9 %
Test CRC 57FCEEDE
Copy CRC 57FCEEDE
Copy OK

No errors occurred


AccurateRip summary

Track 1 accurately ripped (confidence 9) [83A0BA4B] (AR v2)
Track 2 accurately ripped (confidence 9) [14B1B936] (AR v2)
Track 3 accurately ripped (confidence 9) [390DE255] (AR v2)
Track 4 accurately ripped (confidence 10) [E3A4A4E3] (AR v2)
Track 5 accurately ripped (confidence 10) [898AD606] (AR v2)
Track 6 accurately ripped (confidence 9) [14EAC466] (AR v2)
Track 7 accurately ripped (confidence 9) [943D7B51] (AR v2)
Track 8 accurately ripped (confidence 9) [53C3DB74] (AR v2)
Track 9 accurately ripped (confidence 9) [AF6075E4] (AR v2)
Track 10 accurately ripped (confidence 9) [ABFAF8BA] (AR v2)
Track 11 accurately ripped (confidence 9) [E025F0F9] (AR v2)
Track 12 accurately ripped (confidence 9) [AFCC7D35] (AR v2)
Track 13 accurately ripped (confidence 9) [ED2A37E0] (AR v2)
Track 14 accurately ripped (confidence 10) [78B100B3] (AR v2)
Track 15 accurately ripped (confidence 9) [4833EB81] (AR v2)
Track 16 accurately ripped (confidence 10) [3394B3C8] (AR v2)
Track 17 accurately ripped (confidence 10) [EE619640] (AR v2)

All tracks accurately ripped

End of status report

–– CUETools DB Plugin V2.1.6

[CTDB TOCID: ybvL7E_1aams87gcSyjyfg_84rM-] found
Submit result: ybvL7E_1aams87gcSyjyfg_84rM- has been confirmed
Track | CTDB Status
1 | (44/44) Accurately ripped
2 | (44/44) Accurately ripped
3 | (43/44) Accurately ripped
4 | (44/44) Accurately ripped
5 | (44/44) Accurately ripped
6 | (44/44) Accurately ripped
7 | (44/44) Accurately ripped
8 | (43/44) Accurately ripped
9 | (43/44) Accurately ripped
10 | (43/44) Accurately ripped
11 | (43/44) Accurately ripped
12 | (43/44) Accurately ripped
13 | (42/44) Accurately ripped
14 | (43/44) Accurately ripped
15 | (42/44) Accurately ripped
16 | (43/44) Accurately ripped
17 | (44/44) Accurately ripped


==== Log checksum 9A72F655799789EDAEA335167B8B1981C4A0227B80DCCE9EE21543A958D1DA71 ====

Isabelle Faust, Giovanni Antonini, Il Giardino Armonico - Pietro Antonio Locatelli: Il Virtuoso, Il Poeta (2023)

Thanks to the original releaser