Tags
Language
Tags
July 2024
Su Mo Tu We Th Fr Sa
30 1 2 3 4 5 6
7 8 9 10 11 12 13
14 15 16 17 18 19 20
21 22 23 24 25 26 27
28 29 30 31 1 2 3

Hervé Niquet, Le Concert Spirituel - Marc-Antoine Charpentier: Vêpres à la Vierge (1995)

Posted By: ArlegZ
Hervé Niquet, Le Concert Spirituel - Marc-Antoine Charpentier: Vêpres à la Vierge (1995)

Hervé Niquet, Le Concert Spirituel - Marc-Antoine Charpentier: Sacred Music Vol. 2 - Vêpres à la Vierge (1995)
EAC | FLAC | Image (Cue & Log) ~ 281 Mb | Total time: 61:18 | Scans included
Classical | Label: Naxos | # 8.553174 | Recorded: 1995

This release offers a liturgical reconstruction of the Vespers office. The five Vesper psalms and Magnificat belong to different periods in Charpentier's life and the six antiphons are by his organist-composer contemporary, Nivers. The reconstruction works well and Le Concert Spirituel, under Hervé Niquet, demonstrates its rapport with Charpentier's music. The vocal sound is fresh and the wide range of musical Affekt shows off a greater diversity of tonal colour.
Tenors and basses incline towards a roughness of timbre here and there yet, overall, the bright and full-blooded choral sound is pleasing and vital. Some may find the recording balance of the psalms and canticle a fraction too close, creating the atmosphere of a drawing-room Vespers rather than one in more spacious, ecclesiastical surroundings. The antiphons fare much better in this respect, having a deeper aural perspective.
This is a richly rewarding programme of music which never disappoints.
–Gramophone

Performer:
Le Concert Spirituel
Hervé Niquet, conductor

Tracklist:
Marc-Antoine Charpentier (1643-1704)
01. Antienne (Antiphon)
02. Motet: Beatus vir, H 221
03. Antienne (Antiphon)
04. Motet: Laudate pueri, H 149
05. Antienne (Antiphon)
06. Motet: Laetatus sum
07. Antienne (Antiphon)
08. Motet: Nisi Dominus
09. Antienne (Antiphon)
10. Motet: Lauda Jerusalem, H 210
11. Ave maris stella, H 60
12. Antienne (Antiphon)
13. Magnificat, H 72
14. Salve Regina, à trois chœurs, H 24


Exact Audio Copy V1.5 from 20. February 2020

EAC extraction logfile from 3. March 2021, 1:07

Hervé Niquet / Vespres à la Vierge (Vespers of the Blessed Virgin)

Used drive : ATAPI iHAS124 F Adapter: 1 ID: 0

Read mode : Secure
Utilize accurate stream : Yes
Defeat audio cache : Yes
Make use of C2 pointers : No

Read offset correction : 6
Overread into Lead-In and Lead-Out : No
Fill up missing offset samples with silence : Yes
Delete leading and trailing silent blocks : No
Null samples used in CRC calculations : Yes
Used interface : Native Win32 interface for Win NT & 2000

Used output format : User Defined Encoder
Selected bitrate : 1024 kBit/s
Quality : High
Add ID3 tag : No
Command line compressor : C:\Program Files (x86)\Exact Audio Copy\FLAC\FLAC.EXE
Additional command line options : -6 -V -T "ARTIST=%artist%" -T "TITLE=%title%" -T "ALBUM=%albumtitle%" -T "DATE=%year%" -T "TRACKNUMBER=%tracknr%" -T "GENRE=%genre%" -T "COMMENT=%comment%" -T "BAND=%albuminterpret%" -T "ALBUMARTIST=%albuminterpret%" -T "COMPOSER=%composer%" %haslyrics%–tag-from-file=LYRICS="%lyricsfile%"%haslyrics% -T "DISCNUMBER=%cdnumber%" -T "TOTALDISCS=%totalcds%" -T "TOTALTRACKS=%numtracks%" %hascover%–picture="%coverfile%"%hascover% %source% -o %dest%


TOC of the extracted CD

Track | Start | Length | Start sector | End sector
––––––––––––––––––––––––––––-
1 | 0:00.00 | 1:11.05 | 0 | 5329
2 | 1:11.05 | 7:55.50 | 5330 | 41004
3 | 9:06.55 | 1:05.07 | 41005 | 45886
4 | 10:11.62 | 6:21.13 | 45887 | 74474
5 | 16:33.00 | 0:59.07 | 74475 | 78906
6 | 17:32.07 | 6:36.38 | 78907 | 108644
7 | 24:08.45 | 0:47.27 | 108645 | 112196
8 | 24:55.72 | 5:46.23 | 112197 | 138169
9 | 30:42.20 | 0:54.45 | 138170 | 142264
10 | 31:36.65 | 6:23.55 | 142265 | 171044
11 | 38:00.45 | 6:34.07 | 171045 | 200601
12 | 44:34.52 | 1:44.20 | 200602 | 208421
13 | 46:18.72 | 8:31.38 | 208422 | 246784
14 | 54:50.35 | 6:29.10 | 246785 | 275969


Range status and errors

Selected range

Filename C:\EACRip\VARIOUS\Charpentier - Vespres a la Vierge (Vespers of the Blessed Virgin) [Vol. 2] (Herve Niquet) (1995)\Charpentier - Vespres a la Vierge (Vespers of the Blessed Virgin) - Herve Niquet.wav

Peak level 97.6 %
Extraction speed 8.7 X
Range quality 100.0 %
Test CRC 9A72B860
Copy CRC 9A72B860
Copy OK

No errors occurred


AccurateRip summary

Track 1 accurately ripped (confidence 14) [AD2AE16B] (AR v2)
Track 2 accurately ripped (confidence 14) [98442BD3] (AR v2)
Track 3 accurately ripped (confidence 14) [55555705] (AR v2)
Track 4 accurately ripped (confidence 14) [935C0160] (AR v2)
Track 5 accurately ripped (confidence 14) [132C8B1E] (AR v2)
Track 6 accurately ripped (confidence 14) [11092AB1] (AR v2)
Track 7 accurately ripped (confidence 14) [224750D0] (AR v2)
Track 8 accurately ripped (confidence 14) [3691FE98] (AR v2)
Track 9 accurately ripped (confidence 14) [DD2A0641] (AR v2)
Track 10 accurately ripped (confidence 14) [A7FFF9CB] (AR v2)
Track 11 accurately ripped (confidence 14) [126025E2] (AR v2)
Track 12 accurately ripped (confidence 14) [51B16C83] (AR v2)
Track 13 accurately ripped (confidence 14) [450EBA8E] (AR v2)
Track 14 accurately ripped (confidence 14) [7A864360] (AR v2)

All tracks accurately ripped

End of status report

–– CUETools DB Plugin V2.1.6

[CTDB TOCID: AhLxmeaXiZiP0B2Q54W_SeM3eyY-] found
Submit result: AhLxmeaXiZiP0B2Q54W_SeM3eyY- has been confirmed
Track | CTDB Status
1 | (63/63) Accurately ripped
2 | (63/63) Accurately ripped
3 | (63/63) Accurately ripped
4 | (63/63) Accurately ripped
5 | (63/63) Accurately ripped
6 | (63/63) Accurately ripped
7 | (63/63) Accurately ripped
8 | (63/63) Accurately ripped
9 | (63/63) Accurately ripped
10 | (63/63) Accurately ripped
11 | (63/63) Accurately ripped
12 | (63/63) Accurately ripped
13 | (63/63) Accurately ripped
14 | (51/63) Accurately ripped, or (12/63) differs in 10495 samples @06:28:63-06:28:74


==== Log checksum 5BBC3FE437C4F83E30D42457CFDC2AF855B4B922BC75C28A1F29B7E4A81802E8 ====

Hervé Niquet, Le Concert Spirituel - Marc-Antoine Charpentier: Vêpres à la Vierge (1995)

Thanks to the original releaser