Tags
Language
Tags
July 2024
Su Mo Tu We Th Fr Sa
30 1 2 3 4 5 6
7 8 9 10 11 12 13
14 15 16 17 18 19 20
21 22 23 24 25 26 27
28 29 30 31 1 2 3

Françoise Hardy - La Collection 62-66 (Remastered) (2009)

Posted By: Rtax
Françoise Hardy - La Collection 62-66 (Remastered) (2009)

Françoise Hardy - La Collection 62-66 (Remastered) (2009)
EAC Rip | FLAC (tracks, cue, log) - 1.4 GB | MP3 CBR 320 kbps - 540 MB
3:39:52 | Pop, Chanson | Label: Disques Vogue / Legacy

Delicious European seulement six coffret CD comprend des albums rares de ses années sur Vogue Records (1962-66.). Les albums comprennent; Tous Les Gar ‡ ons Et Les Filles (long épuisé sur CD), En anglais (première fois sur CD et comprend trois titres bonus), Le Premier Bonheur du Jour (première fois sur CD), Mon Amie La Rose (avec sept bonus exclusifs), L'Amitie (longtemps épuisé sur CD et comprend cinq titres bonus) et La Maison Ou J'ai Grandi (long épuisé sur CD et comprend deux titres bonus).

Tracklist
CD 1 Françoise Hardy (1962)

01. Tous Les Garçons Et Les Filles (3:08)
02. Ça A Raté (2:00)
03. La Fille Avec Toi (2:39)
04. Oh Oh Chéri (2:22)
05. Le Temps De L'amour (2:26)
06. Il Est Tout Pour Moi (1:58)
07. On Se Plait (2:09)
08. Ton Meilleur Ami (2:10)
09. J'ai Jeté Mon Cœur (2:32)
10. Il Est Parti Un Jour (1:48)
11. J'suis D'accord (2:04)
12. C'est À L'amour Auquel Je Pense (3:14)

CD 2 Le Premier Bonheur Du Jour (1963)

01. Le Premier Bonheur Du Jour (1:52)
02. Va Pas Prendre Un Tambour (2:46)
03. Saurai-je (2:03)
04. Toi Je Ne T'oublierai Pas (2:26)
05. Avant De T'en Aller (1:55)
06. Comme Tant D'autres (2:35)
07. J'aurais Voulu (2:09)
08. Nous Tous (1:43)
09. L'amour D'un Garçon (2:11)
10. Le Sais-tu? (1:44)
11. L'amour Ne Dure Pas Toujours (1:43)
12. On Dit De Lui (2:45)
13. L'amour S'en Va (2:28)
14. Je Pense À Lui (2:23)
15. Qui Aime T'il Vraiment? (2:17)
16. Bien Longtemps (1:59)

CD 3 Mon Amie La Rose (1964)

01. Je Veux Qu'il Revienne (2:47)
02. Tu N'as Qu'un Mot À Dire (2:44)
03. Tu Ne Dis Rien (2:17)
04. Et Même (2:19)
05. Pourtant Tu M'aimes (2:30)
06. Pars (2:16)
07. Je N'attends Plus Personne (3:19)
08. La Nuit Est Sur La Ville (2:16)
09. Pas Gentille (2:25)
10. Dans Le Monde Entier (2:32)
11. Nous Étions Amies (2:43)
12. Mon Amie La Rose (2:18)
13. Jaloux (2:11)
14. On Se Quitte Toujours (2:24)
15. C'est La Première Fois (1:57)
16. Et Même (Version 1) (2:01)
17. Tout Me Ramène À Toi (2:36)
18. C'est Le Passé (1:47)
19. Apprends Le Moi (1:49)

CD 4 L'amitié (1965)

01. Ce Petit Cœur (2:09)
02. Il Se Fait Tard (1:41)
03. Tout Ce Qu'on Dit (2:12)
04. L'amitié (2:24)
05. En T'attendant (1:47)
06. Je T'aime (1:59)
07. Ce N'est Pas Un Rêve (3:07)
08. Quel Mal Y A-t-il À Ça? (2:43)
09. Tu Peux Bien (1:47)
10. Le Temps Des Souvenirs (2:30)
11. Je Pensais (2:05)
12. Dis Lui Non (2:37)
13. Tu Es Venu À Moi (2:18)
14. Son Amour S'est Endormi (2:40)
15. J'ai Bien Du Chagrin (3:06)
16. Tu Ne M'attendras Pas (3:02)
17. Bout De Lune (1:46)

CD 5 La Maison Où J'ai Grandi (1966)

01. Je Changerais D'avis (2:58)
02. Si C'est Ça (2:10)
03. Rendez-vous D'automne (2:42)
04. Je Serai Là Pour Toi (2:24)
05. Peut-être Que Je T'aime (2:14)
06. Il Est Des Choses (2:32)
07. Comme (1:55)
08. Mes Jours S'en Vont (2:27)
09. Qu'ils Sont Heureux (2:23)
10. Surtout Ne Vous Retournez Pas (2:24)
11. Tu Es Un Peu À Moi (2:15)
12. La Maison Où J'ai Grandi (3:40)
13. Tu Verras (2:40)
14. Je Ne Suis Là Pour Personne (2:53)

CD 6 In English (1966)

01. This Little Heart (2:09)
02. All Over The World (2:32)
03. However Much (2:16)
04. It's Getting Late (1:40)
05. Only Friends (2:21)
06. Say It Now (2:15)
07. Just Call And I'll Be There (2:31)
08. The Rose (2:18)
09. Only You Can Do It (2:54)
10. It's My Heart (1:50)
11. Another Place (2:16)
12. Autumn Rendez Vous (2:43)
13. You Just Have To Say The Word (2:44)
14. I Will Change My Life (2:54)
15. So Many Friends (2:19)
Exact Audio Copy V1.0 beta 3 from 29. August 2011

EAC extraction logfile from 28. December 2013, 19:53

Françoise Hardy / Tous Les Garçons Et Les Filles

Used drive : Optiarc DVD RW AD-7200S Adapter: 2 ID: 0

Read mode : Secure
Utilize accurate stream : Yes
Defeat audio cache : Yes
Make use of C2 pointers : No

Read offset correction : 48
Overread into Lead-In and Lead-Out : No
Fill up missing offset samples with silence : Yes
Delete leading and trailing silent blocks : No
Null samples used in CRC calculations : Yes
Used interface : Native Win32 interface for Win NT & 2000
Gap handling : Appended to previous track

Used output format : User Defined Encoder
Selected bitrate : 896 kBit/s
Quality : High
Add ID3 tag : No
Command line compressor : C:\Program Files\FLAC\flac.exe
Additional command line options : -T "artist=%artist%" -T "title=%title%" -T "album=%albumtitle%" -T "date=%year%" -T "tracknumber=%tracknr%" -8 %source%


TOC of the extracted CD

Track | Start | Length | Start sector | End sector
––––––––––––––––––––––––––––-
1 | 0:00.00 | 3:08.06 | 0 | 14105
2 | 3:08.06 | 2:00.11 | 14106 | 23116
3 | 5:08.17 | 2:38.69 | 23117 | 35035
4 | 7:47.11 | 2:21.48 | 35036 | 45658
5 | 10:08.59 | 2:25.54 | 45659 | 56587
6 | 12:34.38 | 1:57.72 | 56588 | 65434
7 | 14:32.35 | 2:09.29 | 65435 | 75138
8 | 16:41.64 | 2:10.08 | 75139 | 84896
9 | 18:51.72 | 2:32.26 | 84897 | 96322
10 | 21:24.23 | 1:48.24 | 96323 | 104446
11 | 23:12.47 | 2:04.06 | 104447 | 113752
12 | 25:16.53 | 3:14.30 | 113753 | 128332
13 | 31:03.08 | 6:38.55 | 139733 | 169637


Track 1

Filename C:\Users\Mik\Desktop\Françoise Hardy - La Collection 62-66 [2009]\CD1\01 - Françoise Hardy - Tous les garçons et les filles.wav

Pre-gap length 0:00:02.00

Peak level 97.7 %
Extraction speed 2.2 X
Track quality 100.0 %
Test CRC 0E3B26E7
Copy CRC 0E3B26E7
Accurately ripped (confidence 1) [0DDB1174] (AR v2)
Copy OK

Track 2

Filename C:\Users\Mik\Desktop\Françoise Hardy - La Collection 62-66 [2009]\CD1\02 - Françoise Hardy - Ça a raté.wav

Pre-gap length 0:00:03.00

Peak level 97.7 %
Extraction speed 1.7 X
Track quality 99.9 %
Test CRC D7AE58A0
Copy CRC D7AE58A0
Accurately ripped (confidence 1) [1AB6D5AA] (AR v2)
Copy OK

Track 3

Filename C:\Users\Mik\Desktop\Françoise Hardy - La Collection 62-66 [2009]\CD1\03 - Françoise Hardy - La fille avec toi.wav

Pre-gap length 0:00:03.00

Peak level 97.7 %
Extraction speed 2.4 X
Track quality 100.0 %
Test CRC A0CD36FA
Copy CRC A0CD36FA
Accurately ripped (confidence 1) [B24D9F5D] (AR v2)
Copy OK

Track 4

Filename C:\Users\Mik\Desktop\Françoise Hardy - La Collection 62-66 [2009]\CD1\04 - Françoise Hardy - Oh Oh Chéri.wav

Pre-gap length 0:00:03.00

Peak level 97.7 %
Extraction speed 2.5 X
Track quality 100.0 %
Test CRC FA345B8C
Copy CRC FA345B8C
Accurately ripped (confidence 1) [BC1FE930] (AR v2)
Copy OK

Track 5

Filename C:\Users\Mik\Desktop\Françoise Hardy - La Collection 62-66 [2009]\CD1\05 - Françoise Hardy - Le Temps de L'Amour.wav

Pre-gap length 0:00:03.00

Peak level 97.7 %
Extraction speed 2.2 X
Track quality 99.9 %
Test CRC 542D0DFB
Copy CRC 542D0DFB
Accurately ripped (confidence 1) [A2719B04] (AR v2)
Copy OK

Track 6

Filename C:\Users\Mik\Desktop\Françoise Hardy - La Collection 62-66 [2009]\CD1\06 - Françoise Hardy - Il est tout pour moi.wav

Pre-gap length 0:00:03.00

Peak level 97.7 %
Extraction speed 2.7 X
Track quality 100.0 %
Test CRC 2E36FD31
Copy CRC 2E36FD31
Accurately ripped (confidence 1) [A486E0F7] (AR v2)
Copy OK

Track 7

Filename C:\Users\Mik\Desktop\Françoise Hardy - La Collection 62-66 [2009]\CD1\07 - Françoise Hardy - On se plait.wav

Pre-gap length 0:00:03.00

Peak level 97.7 %
Extraction speed 2.8 X
Track quality 100.0 %
Test CRC E3223512
Copy CRC E3223512
Accurately ripped (confidence 1) [69AE20D4] (AR v2)
Copy OK

Track 8

Filename C:\Users\Mik\Desktop\Françoise Hardy - La Collection 62-66 [2009]\CD1\08 - Françoise Hardy - Ton Meilleur Ami.wav

Pre-gap length 0:00:03.00

Peak level 97.7 %
Extraction speed 2.4 X
Track quality 99.9 %
Test CRC 9A9CC4AF
Copy CRC 9A9CC4AF
Accurately ripped (confidence 1) [5E2D3EF8] (AR v2)
Copy OK

Track 9

Filename C:\Users\Mik\Desktop\Françoise Hardy - La Collection 62-66 [2009]\CD1\09 - Françoise Hardy - J'ai jeté mon coeur.wav

Pre-gap length 0:00:03.00

Peak level 97.7 %
Extraction speed 3.1 X
Track quality 100.0 %
Test CRC 8126110D
Copy CRC 8126110D
Accurately ripped (confidence 1) [CFC3B40F] (AR v2)
Copy OK

Track 10

Filename C:\Users\Mik\Desktop\Françoise Hardy - La Collection 62-66 [2009]\CD1\10 - Françoise Hardy - Il est parti un jour.wav

Pre-gap length 0:00:03.00

Peak level 97.7 %
Extraction speed 3.0 X
Track quality 100.0 %
Test CRC 0BA55366
Copy CRC 0BA55366
Accurately ripped (confidence 1) [79AEDE6D] (AR v2)
Copy OK

Track 11

Filename C:\Users\Mik\Desktop\Françoise Hardy - La Collection 62-66 [2009]\CD1\11 - Françoise Hardy - J'suis d'accord.wav

Pre-gap length 0:00:03.00

Peak level 97.7 %
Extraction speed 3.1 X
Track quality 100.0 %
Test CRC E8D15C0C
Copy CRC E8D15C0C
Accurately ripped (confidence 1) [4452A08E] (AR v2)
Copy OK

Track 12

Filename C:\Users\Mik\Desktop\Françoise Hardy - La Collection 62-66 [2009]\CD1\12 - Françoise Hardy - C'est à l'amour auquel je pense.wav

Pre-gap length 0:00:03.00

Peak level 97.7 %
Extraction speed 3.5 X
Track quality 100.0 %
Test CRC 9905B18B
Copy CRC 9905B18B
Accurately ripped (confidence 1) [751494C1] (AR v2)
Copy OK


All tracks accurately ripped

No errors occurred

End of status report

–– CUETools DB Plugin V2.1.3

[CTDB TOCID: 3TVZXiH4BIhKsYuokX3RX36OPCs-] found, Submit result: 3TVZXiH4BIhKsYuokX3RX36OPCs- has been confirmed
[23329059] (4/4) Accurately ripped


==== Log checksum 765EBAD5BFF2516AD77FA5EEED307EA80B2933E1F30F325F5F3B601DD0DFC41E ====


Exact Audio Copy V1.0 beta 3 from 29. August 2011

EAC extraction logfile from 28. December 2013, 20:26

Françoise Hardy / Le Premier Bonheur Du Jour

Used drive : Optiarc DVD RW AD-7200S Adapter: 2 ID: 0

Read mode : Secure
Utilize accurate stream : Yes
Defeat audio cache : Yes
Make use of C2 pointers : No

Read offset correction : 48
Overread into Lead-In and Lead-Out : No
Fill up missing offset samples with silence : Yes
Delete leading and trailing silent blocks : No
Null samples used in CRC calculations : Yes
Used interface : Native Win32 interface for Win NT & 2000
Gap handling : Appended to previous track

Used output format : User Defined Encoder
Selected bitrate : 896 kBit/s
Quality : High
Add ID3 tag : No
Command line compressor : C:\Program Files\FLAC\flac.exe
Additional command line options : -T "artist=%artist%" -T "title=%title%" -T "album=%albumtitle%" -T "date=%year%" -T "tracknumber=%tracknr%" -8 %source%


TOC of the extracted CD

Track | Start | Length | Start sector | End sector
––––––––––––––––––––––––––––-
1 | 0:00.00 | 1:52.20 | 0 | 8419
2 | 1:52.20 | 2:46.22 | 8420 | 20891
3 | 4:38.42 | 2:03.10 | 20892 | 30126
4 | 6:41.52 | 2:25.40 | 30127 | 41041
5 | 9:07.17 | 1:55.30 | 41042 | 49696
6 | 11:02.47 | 2:34.56 | 49697 | 61302
7 | 13:37.28 | 2:09.19 | 61303 | 70996
8 | 15:46.47 | 1:42.48 | 70997 | 78694
9 | 17:29.20 | 2:11.02 | 78695 | 88521
10 | 19:40.22 | 1:44.34 | 88522 | 96355
11 | 21:24.56 | 1:43.34 | 96356 | 104114
12 | 23:08.15 | 2:44.38 | 104115 | 116452
13 | 25:52.53 | 2:27.39 | 116453 | 127516
14 | 28:20.17 | 2:22.43 | 127517 | 138209
15 | 30:42.60 | 2:17.01 | 138210 | 148485
16 | 32:59.61 | 1:58.45 | 148486 | 157380


Track 1

Filename C:\Users\Mik\Desktop\Françoise Hardy - La Collection 62-66 [2009]\CD2\01 - Françoise Hardy - Le premier bonheur du jour.wav

Pre-gap length 0:00:02.00

Peak level 97.7 %
Extraction speed 2.0 X
Track quality 100.0 %
Test CRC 24368AFC
Copy CRC 24368AFC
Accurately ripped (confidence 1) [E4A943BB] (AR v2)
Copy OK

Track 2

Filename C:\Users\Mik\Desktop\Françoise Hardy - La Collection 62-66 [2009]\CD2\02 - Françoise Hardy - Va pas prendre un tambour.wav

Pre-gap length 0:00:03.00

Peak level 97.7 %
Extraction speed 2.3 X
Track quality 100.0 %
Test CRC 44E75F87
Copy CRC 44E75F87
Accurately ripped (confidence 1) [39A0B339] (AR v2)
Copy OK

Track 3

Filename C:\Users\Mik\Desktop\Françoise Hardy - La Collection 62-66 [2009]\CD2\03 - Françoise Hardy - Saurai-je.wav

Pre-gap length 0:00:03.00

Peak level 97.7 %
Extraction speed 1.8 X
Track quality 99.9 %
Test CRC A95CD883
Copy CRC A95CD883
Accurately ripped (confidence 1) [FE725A06] (AR v2)
Copy OK

Track 4

Filename C:\Users\Mik\Desktop\Françoise Hardy - La Collection 62-66 [2009]\CD2\04 - Françoise Hardy - Toi je ne t'oublierai pas.wav

Pre-gap length 0:00:03.00

Peak level 97.7 %
Extraction speed 2.5 X
Track quality 100.0 %
Test CRC 4CA2C4C8
Copy CRC 4CA2C4C8
Accurately ripped (confidence 1) [45E29699] (AR v2)
Copy OK

Track 5

Filename C:\Users\Mik\Desktop\Françoise Hardy - La Collection 62-66 [2009]\CD2\05 - Françoise Hardy - Avant de t'en aller.wav

Pre-gap length 0:00:03.00

Peak level 97.7 %
Extraction speed 2.4 X
Track quality 100.0 %
Test CRC E8554F08
Copy CRC E8554F08
Accurately ripped (confidence 1) [814EA841] (AR v2)
Copy OK

Track 6

Filename C:\Users\Mik\Desktop\Françoise Hardy - La Collection 62-66 [2009]\CD2\06 - Françoise Hardy - Comme tant d'autres.wav

Pre-gap length 0:00:03.00

Peak level 97.7 %
Extraction speed 2.8 X
Track quality 100.0 %
Test CRC E854A8AD
Copy CRC E854A8AD
Accurately ripped (confidence 1) [FA9FF5EC] (AR v2)
Copy OK

Track 7

Filename C:\Users\Mik\Desktop\Françoise Hardy - La Collection 62-66 [2009]\CD2\07 - Françoise Hardy - J'aurais voulu.wav

Pre-gap length 0:00:03.00

Peak level 97.7 %
Extraction speed 2.8 X
Track quality 100.0 %
Test CRC 1D9C45C5
Copy CRC 1D9C45C5
Accurately ripped (confidence 1) [DE244933] (AR v2)
Copy OK

Track 8

Filename C:\Users\Mik\Desktop\Françoise Hardy - La Collection 62-66 [2009]\CD2\08 - Françoise Hardy - Nous tous.wav

Pre-gap length 0:00:03.00

Peak level 97.7 %
Extraction speed 2.7 X
Track quality 100.0 %
Test CRC C3AB8050
Copy CRC C3AB8050
Accurately ripped (confidence 1) [97FC913C] (AR v2)
Copy OK

Track 9

Filename C:\Users\Mik\Desktop\Françoise Hardy - La Collection 62-66 [2009]\CD2\09 - Françoise Hardy - L'amour d'un garçon.wav

Pre-gap length 0:00:03.00

Peak level 97.7 %
Extraction speed 2.9 X
Track quality 100.0 %
Test CRC C6C17AE6
Copy CRC C6C17AE6
Accurately ripped (confidence 1) [443DD174] (AR v2)
Copy OK

Track 10

Filename C:\Users\Mik\Desktop\Françoise Hardy - La Collection 62-66 [2009]\CD2\10 - Françoise Hardy - Le sais-tu.wav

Pre-gap length 0:00:03.00

Peak level 97.7 %
Extraction speed 2.8 X
Track quality 100.0 %
Test CRC EB197A41
Copy CRC EB197A41
Accurately ripped (confidence 1) [FC471AFB] (AR v2)
Copy OK

Track 11

Filename C:\Users\Mik\Desktop\Françoise Hardy - La Collection 62-66 [2009]\CD2\11 - Françoise Hardy - L'amour ne dure pas toujours.wav

Pre-gap length 0:00:03.00

Peak level 97.7 %
Extraction speed 2.9 X
Track quality 100.0 %
Test CRC 9F955BAD
Copy CRC 9F955BAD
Accurately ripped (confidence 1) [BC2B2C8A] (AR v2)
Copy OK

Track 12

Filename C:\Users\Mik\Desktop\Françoise Hardy - La Collection 62-66 [2009]\CD2\12 - Françoise Hardy - On dit de lui.wav

Pre-gap length 0:00:03.00

Peak level 97.7 %
Extraction speed 3.4 X
Track quality 100.0 %
Test CRC 871CE25D
Copy CRC 871CE25D
Accurately ripped (confidence 1) [D4B7C15B] (AR v2)
Copy OK

Track 13

Filename C:\Users\Mik\Desktop\Françoise Hardy - La Collection 62-66 [2009]\CD2\13 - Françoise Hardy - L'amour s'en va.wav

Pre-gap length 0:00:03.00

Peak level 97.7 %
Extraction speed 3.4 X
Track quality 100.0 %
Test CRC 0F67C62C
Copy CRC 0F67C62C
Accurately ripped (confidence 1) [7F08699B] (AR v2)
Copy OK

Track 14

Filename C:\Users\Mik\Desktop\Françoise Hardy - La Collection 62-66 [2009]\CD2\14 - Françoise Hardy - Je pense à lui.wav

Pre-gap length 0:00:03.00

Peak level 97.7 %
Extraction speed 3.5 X
Track quality 100.0 %
Test CRC 9C4964E1
Copy CRC 9C4964E1
Accurately ripped (confidence 1) [819AD70E] (AR v2)
Copy OK

Track 15

Filename C:\Users\Mik\Desktop\Françoise Hardy - La Collection 62-66 [2009]\CD2\15 - Françoise Hardy - Qui aime t'il vraiment.wav

Pre-gap length 0:00:03.00

Peak level 97.7 %
Extraction speed 3.5 X
Track quality 100.0 %
Test CRC 9B26C891
Copy CRC 9B26C891
Accurately ripped (confidence 1) [16B73831] (AR v2)
Copy OK

Track 16

Filename C:\Users\Mik\Desktop\Françoise Hardy - La Collection 62-66 [2009]\CD2\16 - Françoise Hardy - Bien longtemps.wav

Pre-gap length 0:00:03.00

Peak level 97.7 %
Extraction speed 3.5 X
Track quality 100.0 %
Test CRC BB90E993
Copy CRC BB90E993
Accurately ripped (confidence 1) [3023594B] (AR v2)
Copy OK


All tracks accurately ripped

No errors occurred

End of status report

–– CUETools DB Plugin V2.1.3

[CTDB TOCID: _QIm.kPuQM43GgCpyeb7ajQUcJE-] found, Submit result: _QIm.kPuQM43GgCpyeb7ajQUcJE- has been confirmed
[b7483885] (4/4) Accurately ripped


==== Log checksum 6B390F3E8C7897ED9792F530ECD6FD21DD6592F31392AAEECBE923A533A4D4A7 ====


Exact Audio Copy V1.0 beta 3 from 29. August 2011

EAC extraction logfile from 29. December 2013, 0:46

Françoise Hardy / Mon Amie La Rose

Used drive : Optiarc DVD RW AD-7200S Adapter: 2 ID: 0

Read mode : Secure
Utilize accurate stream : Yes
Defeat audio cache : Yes
Make use of C2 pointers : No

Read offset correction : 48
Overread into Lead-In and Lead-Out : No
Fill up missing offset samples with silence : Yes
Delete leading and trailing silent blocks : No
Null samples used in CRC calculations : Yes
Used interface : Native Win32 interface for Win NT & 2000
Gap handling : Appended to previous track

Used output format : User Defined Encoder
Selected bitrate : 896 kBit/s
Quality : High
Add ID3 tag : No
Command line compressor : C:\Program Files\FLAC\flac.exe
Additional command line options : -T "artist=%artist%" -T "title=%title%" -T "album=%albumtitle%" -T "date=%year%" -T "tracknumber=%tracknr%" -8 %source%


TOC of the extracted CD

Track | Start | Length | Start sector | End sector
––––––––––––––––––––––––––––-
1 | 0:00.00 | 2:46.69 | 0 | 12518
2 | 2:46.69 | 2:44.30 | 12519 | 24848
3 | 5:31.24 | 2:16.58 | 24849 | 35106
4 | 7:48.07 | 2:18.48 | 35107 | 45504
5 | 10:06.55 | 2:29.53 | 45505 | 56732
6 | 12:36.33 | 2:15.73 | 56733 | 66930
7 | 14:52.31 | 3:18.41 | 66931 | 81821
8 | 18:10.72 | 2:15.56 | 81822 | 92002
9 | 20:26.53 | 2:24.55 | 92003 | 102857
10 | 22:51.33 | 2:32.16 | 102858 | 114273
11 | 25:23.49 | 2:42.70 | 114274 | 126493
12 | 28:06.44 | 2:18.32 | 126494 | 136875
13 | 30:25.01 | 2:10.39 | 136876 | 146664
14 | 32:35.40 | 2:24.27 | 146665 | 157491
15 | 34:59.67 | 1:56.74 | 157492 | 166265
16 | 36:56.66 | 2:00.59 | 166266 | 175324
17 | 38:57.50 | 2:36.18 | 175325 | 187042
18 | 41:33.68 | 1:47.30 | 187043 | 195097
19 | 43:21.23 | 1:49.30 | 195098 | 203302


Track 1

Filename C:\Users\Mik\Desktop\Françoise Hardy - La Collection 62-66 [2009]\CD3\01 - Françoise Hardy - Je veux qu'il revienne.wav

Pre-gap length 0:00:02.00

Peak level 97.7 %
Extraction speed 2.1 X
Track quality 100.0 %
Test CRC 75D92888
Copy CRC 75D92888
Accurately ripped (confidence 1) [0F23FEF4] (AR v2)
Copy OK

Track 2

Filename C:\Users\Mik\Desktop\Françoise Hardy - La Collection 62-66 [2009]\CD3\02 - Françoise Hardy - Tu n'as qu'un mot à dire.wav

Pre-gap length 0:00:03.00

Peak level 97.7 %
Extraction speed 2.3 X
Track quality 100.0 %
Test CRC BBE714D3
Copy CRC BBE714D3
Accurately ripped (confidence 1) [9CFC0AD1] (AR v2)
Copy OK

Track 3

Filename C:\Users\Mik\Desktop\Françoise Hardy - La Collection 62-66 [2009]\CD3\03 - Françoise Hardy - Tu ne dis rien.wav

Pre-gap length 0:00:03.00

Peak level 97.7 %
Extraction speed 2.0 X
Track quality 99.9 %
Test CRC 86EBE172
Copy CRC 86EBE172
Accurately ripped (confidence 1) [7AA2464A] (AR v2)
Copy OK

Track 4

Filename C:\Users\Mik\Desktop\Françoise Hardy - La Collection 62-66 [2009]\CD3\04 - Françoise Hardy - Et même.wav

Pre-gap length 0:00:03.00

Peak level 97.7 %
Extraction speed 2.5 X
Track quality 100.0 %
Test CRC CAD06B16
Copy CRC CAD06B16
Accurately ripped (confidence 1) [A4A01449] (AR v2)
Copy OK

Track 5

Filename C:\Users\Mik\Desktop\Françoise Hardy - La Collection 62-66 [2009]\CD3\05 - Françoise Hardy - Pourtant tu m'aimes.wav

Pre-gap length 0:00:03.00

Peak level 97.7 %
Extraction speed 2.2 X
Track quality 99.9 %
Test CRC 4773135A
Copy CRC 4773135A
Accurately ripped (confidence 1) [AD18BD6E] (AR v2)
Copy OK

Track 6

Filename C:\Users\Mik\Desktop\Françoise Hardy - La Collection 62-66 [2009]\CD3\06 - Françoise Hardy - Pars.wav

Pre-gap length 0:00:03.00

Peak level 92.7 %
Extraction speed 2.7 X
Track quality 100.0 %
Test CRC 7418DEF6
Copy CRC 7418DEF6
Accurately ripped (confidence 1) [4745C619] (AR v2)
Copy OK

Track 7

Filename C:\Users\Mik\Desktop\Françoise Hardy - La Collection 62-66 [2009]\CD3\07 - Françoise Hardy - Je n'attends plus personne.wav

Pre-gap length 0:00:03.00

Peak level 97.7 %
Extraction speed 2.7 X
Track quality 99.9 %
Test CRC B0DBB5A4
Copy CRC B0DBB5A4
Accurately ripped (confidence 1) [1E0283B3] (AR v2)
Copy OK

Track 8

Filename C:\Users\Mik\Desktop\Françoise Hardy - La Collection 62-66 [2009]\CD3\08 - Françoise Hardy - La nuit est sur la ville.wav

Pre-gap length 0:00:03.00

Peak level 97.7 %
Extraction speed 2.4 X
Track quality 99.9 %
Test CRC 3BD49E90
Copy CRC 3BD49E90
Accurately ripped (confidence 1) [463EF412] (AR v2)
Copy OK

Track 9

Filename C:\Users\Mik\Desktop\Françoise Hardy - La Collection 62-66 [2009]\CD3\09 - Françoise Hardy - Pas gentille.wav

Pre-gap length 0:00:03.00

Peak level 97.7 %
Extraction speed 2.6 X
Track quality 99.9 %
Test CRC E6996E4D
Copy CRC E6996E4D
Accurately ripped (confidence 1) [C1255E19] (AR v2)
Copy OK

Track 10

Filename C:\Users\Mik\Desktop\Françoise Hardy - La Collection 62-66 [2009]\CD3\10 - Françoise Hardy - Dans le monde entier.wav

Pre-gap length 0:00:03.00

Peak level 97.7 %
Extraction speed 3.3 X
Track quality 100.0 %
Test CRC 307D81CE
Copy CRC 307D81CE
Accurately ripped (confidence 1) [8BC94DD3] (AR v2)
Copy OK

Track 11

Filename C:\Users\Mik\Desktop\Françoise Hardy - La Collection 62-66 [2009]\CD3\11 - Françoise Hardy - Nous étions amies.wav

Pre-gap length 0:00:03.00

Peak level 97.7 %
Extraction speed 3.4 X
Track quality 100.0 %
Test CRC 60018940
Copy CRC 60018940
Accurately ripped (confidence 1) [0E2AB09A] (AR v2)
Copy OK

Track 12

Filename C:\Users\Mik\Desktop\Françoise Hardy - La Collection 62-66 [2009]\CD3\12 - Françoise Hardy - Mon amie la rose.wav

Pre-gap length 0:00:03.00

Peak level 97.7 %
Extraction speed 2.8 X
Track quality 99.9 %
Test CRC 0746F308
Copy CRC 0746F308
Accurately ripped (confidence 1) [F772A674] (AR v2)
Copy OK

Track 13

Filename C:\Users\Mik\Desktop\Françoise Hardy - La Collection 62-66 [2009]\CD3\13 - Françoise Hardy - Jaloux.wav

Pre-gap length 0:00:03.00

Peak level 97.7 %
Extraction speed 3.5 X
Track quality 100.0 %
Test CRC EDC439FE
Copy CRC EDC439FE
Accurately ripped (confidence 1) [7BEB5DCF] (AR v2)
Copy OK

Track 14

Filename C:\Users\Mik\Desktop\Françoise Hardy - La Collection 62-66 [2009]\CD3\14 - Françoise Hardy - On se quitte toujours.wav

Pre-gap length 0:00:03.00

Peak level 97.7 %
Extraction speed 3.6 X
Track quality 100.0 %
Test CRC 5B04FB0D
Copy CRC 5B04FB0D
Accurately ripped (confidence 1) [ED5BD3EE] (AR v2)
Copy OK

Track 15

Filename C:\Users\Mik\Desktop\Françoise Hardy - La Collection 62-66 [2009]\CD3\15 - Françoise Hardy - C'est la première fois.wav

Pre-gap length 0:00:03.00

Peak level 97.7 %
Extraction speed 3.5 X
Track quality 100.0 %
Test CRC 70387C55
Copy CRC 70387C55
Accurately ripped (confidence 1) [D5BBA068] (AR v2)
Copy OK

Track 16

Filename C:\Users\Mik\Desktop\Françoise Hardy - La Collection 62-66 [2009]\CD3\16 - Françoise Hardy - Et même (version 1).wav

Pre-gap length 0:00:03.00

Peak level 97.7 %
Extraction speed 3.5 X
Track quality 100.0 %
Test CRC F3363FAA
Copy CRC F3363FAA
Accurately ripped (confidence 1) [67E764C4] (AR v2)
Copy OK

Track 17

Filename C:\Users\Mik\Desktop\Françoise Hardy - La Collection 62-66 [2009]\CD3\17 - Françoise Hardy - Tout me ramène à toi.wav

Pre-gap length 0:00:03.00

Peak level 97.7 %
Extraction speed 3.8 X
Track quality 100.0 %
Test CRC 3DE59D10
Copy CRC 3DE59D10
Accurately ripped (confidence 1) [BCB21F09] (AR v2)
Copy OK

Track 18

Filename C:\Users\Mik\Desktop\Françoise Hardy - La Collection 62-66 [2009]\CD3\18 - Françoise Hardy - C'est le passé.wav

Pre-gap length 0:00:03.00

Peak level 97.7 %
Extraction speed 3.6 X
Track quality 100.0 %
Test CRC 9758C66E
Copy CRC 9758C66E
Accurately ripped (confidence 1) [FFF0FF70] (AR v2)
Copy OK

Track 19

Filename C:\Users\Mik\Desktop\Françoise Hardy - La Collection 62-66 [2009]\CD3\19 - Françoise Hardy - Apprends le moi.wav

Pre-gap length 0:00:03.00

Peak level 97.7 %
Extraction speed 3.7 X
Track quality 100.0 %
Test CRC 2BBB669B
Copy CRC 2BBB669B
Accurately ripped (confidence 1) [C851A50E] (AR v2)
Copy OK


All tracks accurately ripped

No errors occurred

End of status report

–– CUETools DB Plugin V2.1.3

[CTDB TOCID: gCZ1qssObGWJlJ9xhh1nbFSj7Ww-] found, Submit result: gCZ1qssObGWJlJ9xhh1nbFSj7Ww- has been confirmed
[d161c44d] (3/3) Accurately ripped


==== Log checksum F6CBEBE4EE9ED43C7E7F90FB8168FCCD505F17ABC9B6C5BBEC422EB7571BDD8E ====


Exact Audio Copy V1.0 beta 3 from 29. August 2011

EAC extraction logfile from 29. December 2013, 2:03

Françoise Hardy / La Maison Où J'ai Grandi

Used drive : Optiarc DVD RW AD-7200S Adapter: 2 ID: 0

Read mode : Secure
Utilize accurate stream : Yes
Defeat audio cache : Yes
Make use of C2 pointers : No

Read offset correction : 48
Overread into Lead-In and Lead-Out : No
Fill up missing offset samples with silence : Yes
Delete leading and trailing silent blocks : No
Null samples used in CRC calculations : Yes
Used interface : Native Win32 interface for Win NT & 2000
Gap handling : Appended to previous track

Used output format : User Defined Encoder
Selected bitrate : 896 kBit/s
Quality : High
Add ID3 tag : No
Command line compressor : C:\Program Files\FLAC\flac.exe
Additional command line options : -T "artist=%artist%" -T "title=%title%" -T "album=%albumtitle%" -T "date=%year%" -T "tracknumber=%tracknr%" -8 %source%


TOC of the extracted CD

Track | Start | Length | Start sector | End sector
––––––––––––––––––––––––––––-
1 | 0:00.00 | 2:57.56 | 0 | 13330
2 | 2:57.56 | 2:09.58 | 13331 | 23063
3 | 5:07.39 | 2:41.60 | 23064 | 35198
4 | 7:49.24 | 2:24.20 | 35199 | 46018
5 | 10:13.44 | 2:14.11 | 46019 | 56079
6 | 12:27.55 | 2:32.33 | 56080 | 67512
7 | 15:00.13 | 1:55.33 | 67513 | 76170
8 | 16:55.46 | 2:27.07 | 76171 | 87202
9 | 19:22.53 | 2:22.60 | 87203 | 97912
10 | 21:45.38 | 2:23.61 | 97913 | 108698
11 | 24:09.24 | 2:15.14 | 108699 | 118837
12 | 26:24.38 | 3:40.08 | 118838 | 135345
13 | 30:04.46 | 2:39.68 | 135346 | 147338
14 | 32:44.39 | 2:52.67 | 147339 | 160305


Track 1

Filename C:\Users\Mik\Desktop\Françoise Hardy - La Collection 62-66 [2009]\CD5\01 - Françoise Hardy - Je Changerais D'avis.wav

Pre-gap length 0:00:02.00

Peak level 97.7 %
Extraction speed 2.2 X
Track quality 100.0 %
Test CRC F1A0D592
Copy CRC F1A0D592
Accurately ripped (confidence 1) [1464B189] (AR v2)
Copy OK

Track 2

Filename C:\Users\Mik\Desktop\Françoise Hardy - La Collection 62-66 [2009]\CD5\02 - Françoise Hardy - Si C'est ça.wav

Pre-gap length 0:00:03.00

Peak level 97.7 %
Extraction speed 1.8 X
Track quality 99.9 %
Test CRC 5A9C5959
Copy CRC 5A9C5959
Accurately ripped (confidence 1) [D703BAB5] (AR v2)
Copy OK

Track 3

Filename C:\Users\Mik\Desktop\Françoise Hardy - La Collection 62-66 [2009]\CD5\03 - Françoise Hardy - Rendez-Vous D'automne.wav

Pre-gap length 0:00:03.00

Peak level 97.7 %
Extraction speed 2.5 X
Track quality 100.0 %
Test CRC 866F666D
Copy CRC 866F666D
Accurately ripped (confidence 1) [E15E0A59] (AR v2)
Copy OK

Track 4

Filename C:\Users\Mik\Desktop\Françoise Hardy - La Collection 62-66 [2009]\CD5\04 - Françoise Hardy - Je serai là pour toi.wav

Pre-gap length 0:00:03.00

Peak level 97.7 %
Extraction speed 2.6 X
Track quality 100.0 %
Test CRC 04236D85
Copy CRC 04236D85
Accurately ripped (confidence 1) [227961A7] (AR v2)
Copy OK

Track 5

Filename C:\Users\Mik\Desktop\Françoise Hardy - La Collection 62-66 [2009]\CD5\05 - Françoise Hardy - Peut être que je t'aime.wav

Pre-gap length 0:00:03.00

Peak level 97.7 %
Extraction speed 2.6 X
Track quality 100.0 %
Test CRC 773BBC94
Copy CRC 773BBC94
Accurately ripped (confidence 1) [99347B11] (AR v2)
Copy OK

Track 6

Filename C:\Users\Mik\Desktop\Françoise Hardy - La Collection 62-66 [2009]\CD5\06 - Françoise Hardy - Il est des choses.wav

Pre-gap length 0:00:03.00

Peak level 97.7 %
Extraction speed 2.8 X
Track quality 100.0 %
Test CRC 4D81DAEF
Copy CRC 4D81DAEF
Accurately ripped (confidence 1) [27320C09] (AR v2)
Copy OK

Track 7

Filename C:\Users\Mik\Desktop\Françoise Hardy - La Collection 62-66 [2009]\CD5\07 - Françoise Hardy - Comme.wav

Pre-gap length 0:00:03.00

Peak level 97.7 %
Extraction speed 2.7 X
Track quality 100.0 %
Test CRC F6283E1C
Copy CRC F6283E1C
Accurately ripped (confidence 1) [FB5FF8C8] (AR v2)
Copy OK

Track 8

Filename C:\Users\Mik\Desktop\Françoise Hardy - La Collection 62-66 [2009]\CD5\08 - Françoise Hardy - Mes jours s'en vont.wav

Pre-gap length 0:00:03.00

Peak level 97.7 %
Extraction speed 3.0 X
Track quality 100.0 %
Test CRC 889D61E3
Copy CRC 889D61E3
Accurately ripped (confidence 1) [9C084F45] (AR v2)
Copy OK

Track 9

Filename C:\Users\Mik\Desktop\Françoise Hardy - La Collection 62-66 [2009]\CD5\09 - Françoise Hardy - Qu'ils sont heureux.wav

Pre-gap length 0:00:03.00

Peak level 97.7 %
Extraction speed 3.1 X
Track quality 100.0 %
Test CRC F7C7B870
Copy CRC F7C7B870
Accurately ripped (confidence 1) [1AD3477E] (AR v2)
Copy OK

Track 10

Filename C:\Users\Mik\Desktop\Françoise Hardy - La Collection 62-66 [2009]\CD5\10 - Françoise Hardy - Surtout ne vous retournez pas.wav

Pre-gap length 0:00:03.00

Peak level 97.7 %
Extraction speed 3.2 X
Track quality 100.0 %
Test CRC 4BFE70B5
Copy CRC 4BFE70B5
Accurately ripped (confidence 1) [1CFA58E2] (AR v2)
Copy OK

Track 11

Filename C:\Users\Mik\Desktop\Françoise Hardy - La Collection 62-66 [2009]\CD5\11 - Françoise Hardy - Tu es un peu à moi.wav

Pre-gap length 0:00:03.00

Peak level 97.7 %
Extraction speed 3.2 X
Track quality 100.0 %
Test CRC 3E3E803E
Copy CRC 3E3E803E
Accurately ripped (confidence 1) [6E190DFF] (AR v2)
Copy OK

Track 12

Filename C:\Users\Mik\Desktop\Françoise Hardy - La Collection 62-66 [2009]\CD5\12 - Françoise Hardy - La maison où j'ai grandi.wav

Pre-gap length 0:00:03.00

Peak level 97.7 %
Extraction speed 3.2 X
Track quality 99.9 %
Test CRC 4352DBD3
Copy CRC 4352DBD3
Accurately ripped (confidence 1) [F28788E2] (AR v2)
Copy OK

Track 13

Filename C:\Users\Mik\Desktop\Françoise Hardy - La Collection 62-66 [2009]\CD5\13 - Françoise Hardy - Tu verras.wav

Pre-gap length 0:00:03.00

Peak level 97.7 %
Extraction speed 3.6 X
Track quality 100.0 %
Test CRC E08C312D
Copy CRC E08C312D
Accurately ripped (confidence 1) [701EC87F] (AR v2)
Copy OK

Track 14

Filename C:\Users\Mik\Desktop\Françoise Hardy - La Collection 62-66 [2009]\CD5\14 - Françoise Hardy - Je ne suis la pour personne.wav

Pre-gap length 0:00:03.00

Peak level 97.7 %
Extraction speed 3.8 X
Track quality 100.0 %
Test CRC DB4A489D
Copy CRC DB4A489D
Accurately ripped (confidence 1) [149CF0AE] (AR v2)
Copy OK


All tracks accurately ripped

No errors occurred

End of status report

–– CUETools DB Plugin V2.1.3

[CTDB TOCID: AZz0inztVMcDeZsUXuNgVMy4L.E-] found, Submit result: AZz0inztVMcDeZsUXuNgVMy4L.E- has been confirmed
[45fb3b9a] (4/4) Accurately ripped


==== Log checksum 958951751604FE4985DEAA31A85CA7C9CFF9F643522B699DA49828DBA26C6FC2 ====


Exact Audio Copy V1.0 beta 3 from 29. August 2011

EAC extraction logfile from 29. December 2013, 2:41

Françoise Hardy / Françoise Hardy in English

Used drive : Optiarc DVD RW AD-7200S Adapter: 2 ID: 0

Read mode : Secure
Utilize accurate stream : Yes
Defeat audio cache : Yes
Make use of C2 pointers : No

Read offset correction : 48
Overread into Lead-In and Lead-Out : No
Fill up missing offset samples with silence : Yes
Delete leading and trailing silent blocks : No
Null samples used in CRC calculations : Yes
Used interface : Native Win32 interface for Win NT & 2000
Gap handling : Appended to previous track

Used output format : User Defined Encoder
Selected bitrate : 896 kBit/s
Quality : High
Add ID3 tag : No
Command line compressor : C:\Program Files\FLAC\flac.exe
Additional command line options : -T "artist=%artist%" -T "title=%title%" -T "album=%albumtitle%" -T "date=%year%" -T "tracknumber=%tracknr%" -8 %source%


TOC of the extracted CD

Track | Start | Length | Start sector | End sector
––––––––––––––––––––––––––––-
1 | 0:00.00 | 2:08.69 | 0 | 9668
2 | 2:08.69 | 2:32.11 | 9669 | 21079
3 | 4:41.05 | 2:16.22 | 21080 | 31301
4 | 6:57.27 | 1:39.73 | 31302 | 38799
5 | 8:37.25 | 2:20.57 | 38800 | 49356
6 | 10:58.07 | 2:15.21 | 49357 | 59502
7 | 13:13.28 | 2:31.12 | 59503 | 70839
8 | 15:44.40 | 2:18.27 | 70840 | 81216
9 | 18:02.67 | 2:54.04 | 81217 | 94270
10 | 20:56.71 | 1:49.44 | 94271 | 102489
11 | 22:46.40 | 2:15.71 | 102490 | 112685
12 | 25:02.36 | 2:42.38 | 112686 | 124873
13 | 27:44.74 | 2:44.01 | 124874 | 137174
14 | 30:29.00 | 2:53.51 | 137175 | 150200
15 | 33:22.51 | 2:18.46 | 150201 | 160596


Track 1

Filename C:\Users\Mik\Desktop\Françoise Hardy - La Collection 62-66 [2009]\CD6\01 - Françoise Hardy - This little heart.wav

Pre-gap length 0:00:02.00

Peak level 97.7 %
Extraction speed 2.0 X
Track quality 100.0 %
Test CRC 206F6706
Copy CRC 206F6706
Accurately ripped (confidence 1) [3701F73F] (AR v2)
Copy OK

Track 2

Filename C:\Users\Mik\Desktop\Françoise Hardy - La Collection 62-66 [2009]\CD6\02 - Françoise Hardy - All over the world.wav

Pre-gap length 0:00:03.00

Peak level 97.7 %
Extraction speed 2.3 X
Track quality 100.0 %
Test CRC 79662181
Copy CRC 79662181
Accurately ripped (confidence 1) [3504D9EF] (AR v2)
Copy OK

Track 3

Filename C:\Users\Mik\Desktop\Françoise Hardy - La Collection 62-66 [2009]\CD6\03 - Françoise Hardy - However much.wav

Pre-gap length 0:00:03.00

Peak level 97.7 %
Extraction speed 2.3 X
Track quality 100.0 %
Test CRC EF59D98F
Copy CRC EF59D98F
Accurately ripped (confidence 1) [74ECB838] (AR v2)
Copy OK

Track 4

Filename C:\Users\Mik\Desktop\Françoise Hardy - La Collection 62-66 [2009]\CD6\04 - Françoise Hardy - It's getting late.wav

Pre-gap length 0:00:03.00

Peak level 97.7 %
Extraction speed 2.3 X
Track quality 100.0 %
Test CRC 0CA81082
Copy CRC 0CA81082
Accurately ripped (confidence 1) [DA430CE0] (AR v2)
Copy OK

Track 5

Filename C:\Users\Mik\Desktop\Françoise Hardy - La Collection 62-66 [2009]\CD6\05 - Françoise Hardy - Only friends.wav

Pre-gap length 0:00:03.00

Peak level 97.7 %
Extraction speed 2.1 X
Track quality 99.9 %
Test CRC 61EEBFB8
Copy CRC 61EEBFB8
Accurately ripped (confidence 1) [A6E68F0F] (AR v2)
Copy OK

Track 6

Filename C:\Users\Mik\Desktop\Françoise Hardy - La Collection 62-66 [2009]\CD6\06 - Françoise Hardy - Say it now.wav

Pre-gap length 0:00:03.00

Peak level 97.7 %
Extraction speed 2.7 X
Track quality 100.0 %
Test CRC 29EFB201
Copy CRC 29EFB201
Accurately ripped (confidence 1) [AB904912] (AR v2)
Copy OK

Track 7

Filename C:\Users\Mik\Desktop\Françoise Hardy - La Collection 62-66 [2009]\CD6\07 - Françoise Hardy - Just call and I'll be there.wav

Pre-gap length 0:00:03.00

Peak level 97.7 %
Extraction speed 2.9 X
Track quality 100.0 %
Test CRC F41CD08E
Copy CRC F41CD08E
Accurately ripped (confidence 1) [F057CA0C] (AR v2)
Copy OK

Track 8

Filename C:\Users\Mik\Desktop\Françoise Hardy - La Collection 62-66 [2009]\CD6\08 - Françoise Hardy - The rose.wav

Pre-gap length 0:00:03.00

Peak level 97.7 %
Extraction speed 2.9 X
Track quality 100.0 %
Test CRC 17E426A2
Copy CRC 17E426A2
Accurately ripped (confidence 1) [484053AA] (AR v2)
Copy OK

Track 9

Filename C:\Users\Mik\Desktop\Françoise Hardy - La Collection 62-66 [2009]\CD6\09 - Françoise Hardy - Only you can do it.wav

Pre-gap length 0:00:03.00

Peak level 97.7 %
Extraction speed 3.2 X
Track quality 100.0 %
Test CRC 74B62B0B
Copy CRC 74B62B0B
Accurately ripped (confidence 1) [DD22097B] (AR v2)
Copy OK

Track 10

Filename C:\Users\Mik\Desktop\Françoise Hardy - La Collection 62-66 [2009]\CD6\10 - Françoise Hardy - It's my heart.wav

Pre-gap length 0:00:03.00

Peak level 97.7 %
Extraction speed 2.9 X
Track quality 100.0 %
Test CRC 51B50177
Copy CRC 51B50177
Accurately ripped (confidence 1) [688B7424] (AR v2)
Copy OK

Track 11

Filename C:\Users\Mik\Desktop\Françoise Hardy - La Collection 62-66 [2009]\CD6\11 - Françoise Hardy - Another place.wav

Pre-gap length 0:00:03.00

Peak level 97.7 %
Extraction speed 3.2 X
Track quality 100.0 %
Test CRC 28FDB9B3
Copy CRC 28FDB9B3
Accurately ripped (confidence 1) [5BA52ADB] (AR v2)
Copy OK

Track 12

Filename C:\Users\Mik\Desktop\Françoise Hardy - La Collection 62-66 [2009]\CD6\12 - Françoise Hardy - Autumn rendezvous.wav

Pre-gap length 0:00:03.00

Peak level 97.7 %
Extraction speed 3.4 X
Track quality 100.0 %
Test CRC C6DEBC92
Copy CRC C6DEBC92
Accurately ripped (confidence 1) [5E1CFBE1] (AR v2)
Copy OK

Track 13

Filename C:\Users\Mik\Desktop\Françoise Hardy - La Collection 62-66 [2009]\CD6\13 - Françoise Hardy - You just have to say the word.wav

Pre-gap length 0:00:03.00

Peak level 97.7 %
Extraction speed 3.0 X
Track quality 99.9 %
Test CRC 3525C284
Copy CRC 3525C284
Accurately ripped (confidence 1) [C9431023] (AR v2)
Copy OK

Track 14

Filename C:\Users\Mik\Desktop\Françoise Hardy - La Collection 62-66 [2009]\CD6\14 - Françoise Hardy - I will change my life.wav

Pre-gap length 0:00:03.00

Peak level 97.7 %
Extraction speed 3.7 X
Track quality 100.0 %
Test CRC 958943BB
Copy CRC 958943BB
Accurately ripped (confidence 1) [DCEEA91B] (AR v2)
Copy OK

Track 15

Filename C:\Users\Mik\Desktop\Françoise Hardy - La Collection 62-66 [2009]\CD6\15 - Françoise Hardy - So many friends.wav

Pre-gap length 0:00:03.00

Peak level 97.7 %
Extraction speed 3.6 X
Track quality 100.0 %
Test CRC 7AFC67D9
Copy CRC 7AFC67D9
Accurately ripped (confidence 1) [4FD5E3B0] (AR v2)
Copy OK


All tracks accurately ripped

No errors occurred

End of status report

–– CUETools DB Plugin V2.1.3

[CTDB TOCID: tDd90j5AT5L7RCEa3VdIM77eYrU-] found, Submit result: tDd90j5AT5L7RCEa3VdIM77eYrU- has been confirmed
[a6d16f25] (3/3) Accurately ripped


==== Log checksum D333C7C4FD4ABF29943B8818BB0B471C2B96925A08290E1DD0A57991E38ECC17 ====

Françoise Hardy – Le Coffret Essentiel (Remastered) (2017)