Tags
Language
Tags

Fairport Convention - Rosie (1973) Expanded Remastered 2004 [Re-Up]

Posted By: Designol
Fairport Convention - Rosie (1973) Expanded Remastered 2004 [Re-Up]

Fairport Convention - Rosie (1973) Expanded Remastered 2004
EAC | FLAC | Image (Cue&Log) ~ 320 Mb | Mp3 (CBR320) ~ 144 Mb | Scans included | 00:56:23
British Folk-Rock, Progressive Folk, Psychedelic | Label: Island | # IMCD 309, 982 150-2

"Rosie" is the eighth studio album by folk-rock outfit Fairport Convention, released in 1973. The album was the first to feature Australian singer-songwriter guitarist Trevor Lucas and American lead guitarist Jerry Donahue. Both had previously played with ex-Fairport Sandy Denny, to whom Lucas was married, in the short-lived Fotheringay. Here they had effectively replaced Simon Nicol who had quit Fairport to join another ex-member Ashley Hutchings in The Albion Band, thus leaving the band with no original members until he rejoined in 1976. Remastered reissue includes previously unreleased bonus tracks, 'Matthew, Mark, Luke, & John' (Live), 'The Hen's March Through the Midden…' (Live), 'Rosie' (Live), & 'The Claw' (Live).

Following the departure of Simon Nicol, the group was reconstituted with the addition of Sandy Denny's husband Trevor Lucas and Jerry Donahue, both formerly of Fotheringay. Their first album was also a miscalculation, a failed attempt to crack the pop music market. There are lots of original songs done in a modern folk-rock sound on Rosie, many written by Lucas, although the best was the title track by Dave Swarbrick (which featured Denny and Richard Thompson, as well as Thompson's future wife, Linda, as guest artists). The Lucas compositions were all pleasant (especially "Knights of the Road" and the haunting "The Plainsman"), but tend to make one think more of Gordon Lightfoot sounding archaic than of previous incarnations of Fairport. The only exceptions are "Peggy's Pub" and "The Hens March Through the Midden," instrumentals that recall the group's old sound. [This version of the album includes bonus material.]

Review by Bruce Eder, Allmusic.com

Fairport Convention - Rosie (1973) Expanded Remastered 2004 [Re-Up]



Tracklist:

01. Rosie (3:40)
02. Matthew, Mark, Luke & John (3:55)
03. Kinghts of the Road (3:56)
04. Peggy's Pub (2:26)
05. The Plainsman (3:20)
06. Hungarian Rhapsody (3:13)
07. My Girl (5:14)
08. Me with You (3:39)
09. The Hens March Through the Midden & the Four Poster Bed (2:52)
10. Furs and Feathers (4:38)

Bonus Tracks:
11. Matthew, Mark, Luke & John (live) (5:39)
12. The Hens March Through the Midden & the Four Poster Bed (live) (2:49)
13. Rosie (live) (4:04)
14. The Claw (live) (2:05)
15. Furs and Feathers (live) (4:54)


EAC extraction logfile from 17. March 2007, 20:15 for CD
Fairport Convention / Rosie [Remaster 2004]

Used drive : LITE-ON DVD SOHD-16P9SV Adapter: 0 ID: 1
Read mode : Secure with NO C2, accurate stream, disable cache
Read offset correction : 6
Overread into Lead-In and Lead-Out : No

Used output format : C:\WINDOWS\wapet.exe (User Defined Encoder)
320 kBit/s
Additional command line options : %d -t "Artist=%a" -t "Album=%g" -t "Year=%y" -t "Genre=%m" -t "releaser=elucid" -t "release encoder=APE cue" -t "serial=?" mac.exe %s %d -c2000

Other options :
Fill up missing offset samples with silence : Yes
Delete leading and trailing silent blocks : No
Installed external ASPI interface


Range status and errors
Selected range
Filename J:\My Music\Ripped Albums\Fairport Convention - Rosie [Remaster 2004].wav

Peak level 98.8 %
Range quality 99.9 %
CRC DC43A335
Copy OK

No errors occured

End of status report

[CUETools log; Date: 17.11.2017 19:24:05; Version: 2.1.4]
[CTDB TOCID: GhTMApFt9io0meQSNfrya_rHHy0-] found.
Track | CTDB Status
1 | (30/30) Accurately ripped
2 | (30/30) Accurately ripped
3 | (30/30) Accurately ripped
4 | (30/30) Accurately ripped
5 | (30/30) Accurately ripped
6 | (30/30) Accurately ripped
7 | (30/30) Accurately ripped
8 | (30/30) Accurately ripped
9 | (30/30) Accurately ripped
10 | (30/30) Accurately ripped
11 | (30/30) Accurately ripped
12 | (29/30) Accurately ripped
13 | (30/30) Accurately ripped
14 | (30/30) Accurately ripped
15 | (30/30) Accurately ripped
[AccurateRip ID: 001e7a4a-015b41ca-cc0d370f] found.
Track [ CRC | V2 ] Status
01 [bd94371c|73032f47] (00+04/36) Accurately ripped
02 [20cd4cb5|ab80b660] (00+04/36) Accurately ripped
03 [fb6162df|ccd14164] (00+04/35) Accurately ripped
04 [ec487eae|6a95ae52] (00+04/36) Accurately ripped
05 [a885cd28|1daa8956] (00+04/36) Accurately ripped
06 [71b30037|a9347e44] (00+04/36) Accurately ripped
07 [70a02012|1bf2d4d5] (00+04/36) Accurately ripped
08 [6bd0e613|13ddfb03] (00+04/36) Accurately ripped
09 [675ad93d|cfc922fb] (00+04/36) Accurately ripped
10 [5cc7962e|3f82fae4] (00+04/36) Accurately ripped
11 [75accc58|5d5542e1] (00+04/36) Accurately ripped
12 [dd67d09d|33436756] (00+04/36) Accurately ripped
13 [1a62f392|f4a240fe] (00+04/36) Accurately ripped
14 [ef927d93|4cce15c1] (00+04/36) Accurately ripped
15 [cf3cadb7|c9bea6cc] (00+00/31) No match
Offsetted by 646:
01 [9dc10d7e] (02/36) Accurately ripped
02 [6ed1c1c1] (02/36) Accurately ripped
03 [7effc985] (02/35) Accurately ripped
04 [36b0116e] (02/36) Accurately ripped
05 [8b47944e] (02/36) Accurately ripped
06 [89215301] (02/36) Accurately ripped
07 [ab1447a6] (02/36) Accurately ripped
08 [7e5fac8d] (02/36) Accurately ripped
09 [e1e4b28b] (02/36) Accurately ripped
10 [ddefdc92] (02/36) Accurately ripped
11 [95c09433] (02/36) Accurately ripped
12 [3c2ee2be] (02/36) Accurately ripped
13 [ef217c86] (02/36) Accurately ripped
14 [273bd4f7] (02/36) Accurately ripped
15 [83484cfd] (02/31) Accurately ripped
Offsetted by 664:
01 [95bbf624] (08/36) Accurately ripped
02 [b85311e5] (08/36) Accurately ripped
03 [fd83cdf7] (08/35) Accurately ripped
04 [df3359ae] (08/36) Accurately ripped
05 [a8951a40] (08/36) Accurately ripped
06 [13b0aedf] (08/36) Accurately ripped
07 [fbf70562] (08/36) Accurately ripped
08 [9840c77b] (08/36) Accurately ripped
09 [ab733cf5] (08/36) Accurately ripped
10 [c03f72be] (08/36) Accurately ripped
11 [73ba01d3] (08/36) Accurately ripped
12 [57c1fa83] (08/36) Accurately ripped
13 [1dbfe239] (08/36) Accurately ripped
14 [c5f1ec13] (08/36) Accurately ripped
15 [194b797f] (08/31) Accurately ripped

Track Peak [ CRC32 ] [W/O NULL]
– 98,8 [A7BFAE97] [DC43A335]
01 94,4 [9634078D] [4CE05454]
02 98,8 [A36FEFE2] [B3D125F1]
03 87,3 [E4D55A26] [F62B1694]
04 83,5 [E7C2D057] [7D215770]
05 85,5 [C044E939] [274D6A3E]
06 93,4 [B1199318] [EDE19DA3]
07 98,8 [41EADF05] [B3C26E82]
08 77,2 [07F825D4] [52F09E60]
09 97,7 [D69936E8] [C28EA6AD]
10 98,8 [D99B7974] [5D15831E]
11 98,8 [3F64DE17] [2B52A550]
12 98,8 [BFFC29D3] [813AF72E]
13 98,8 [696113EC] [CDCB6945]
14 98,8 [00F3C198] [06B6EA1C]
15 98,8 [9DCDBDD1] [F29F9351]

foobar2000 1.2 / Dynamic Range Meter 1.1.1
log date: 2017-11-17 19:34:51

––––––––––––––––––––––––––––––––––––––––
Analyzed: Fairport Convention / Rosie [Remaster 2004]
––––––––––––––––––––––––––––––––––––––––

DR Peak RMS Duration Track
––––––––––––––––––––––––––––––––––––––––
DR12 -0.50 dB -16.70 dB 3:40 01-Rosie
DR13 -0.10 dB -14.61 dB 3:55 02-Matthew, Mark, Luke & John
DR11 -1.18 dB -14.85 dB 3:56 03-Kinghts of the Road
DR12 -1.56 dB -15.96 dB 2:26 04-Peggy's Pub
DR12 -1.36 dB -15.47 dB 3:20 05-The Plainsman
DR12 -0.59 dB -15.25 dB 3:13 06-Hungarian Rhapsody
DR12 -0.10 dB -16.02 dB 5:14 07-My Girl
DR14 -2.24 dB -17.98 dB 3:39 08-Me with You
DR14 -0.20 dB -16.20 dB 2:52 09-The Hens March Through the Midden & the Four Poster Bed
DR12 -0.10 dB -15.39 dB 4:38 10-Furs and Feathers
DR14 -0.10 dB -16.66 dB 5:39 11-Matthew, Mark, Luke & John (live)
DR14 -0.10 dB -15.98 dB 2:49 12-The Hens March Through the Midden & the Four Poster Bed (live)
DR14 -0.10 dB -16.70 dB 4:04 13-Rosie (live)
DR14 -0.10 dB -15.69 dB 2:05 14-The Claw (live)
DR13 -0.10 dB -16.22 dB 4:54 15-Furs and Feathers (live)
––––––––––––––––––––––––––––––––––––––––

Number of tracks: 15
Official DR value: DR13

Samplerate: 44100 Hz
Channels: 2
Bits per sample: 16
Bitrate: 757 kbps
Codec: FLAC
================================================================================

Fairport Convention - Rosie (1973) Expanded Remastered 2004 [Re-Up]

Fairport Convention - Rosie (1973) Expanded Remastered 2004 [Re-Up]

All thanks to original releaser - elucid

More interesting music in My Blog