Tags
Language
Tags
July 2024
Su Mo Tu We Th Fr Sa
30 1 2 3 4 5 6
7 8 9 10 11 12 13
14 15 16 17 18 19 20
21 22 23 24 25 26 27
28 29 30 31 1 2 3

Fairport Convention - House Full: Live at the LA Troubadour 1970 (1986) Expanded Remastered Reissue 2001

Posted By: Designol
Fairport Convention - House Full: Live at the LA Troubadour 1970 (1986) Expanded Remastered Reissue 2001

Fairport Convention - House Full: Live at the LA Troubadour 1970 (1986) Reissue 2001
EAC | FLAC | Image (Cue&Log) ~ 338 Mb | Mp3 (CBR320) ~ 145 Mb | Scans included | Time: 00:53:43
British Folk-Rock, Progressive Folk, Psychedelic | Label: Island | # IMCD 289, 586 376-2

1970 found Fairport Convention reduced to a quartet after the departure of their singer Sandy Denny. They decided not to replace her and recorded FULL HOUSE, a ferocious blend of high intensity rock dynamics with traditional British Isle fiddle-filled forms. With accolades accumulating for both FULL HOUSE and its predecessor, the beloved LEIGE AND LEIF, another tour of America was mounted in the late summer. HOUSE FULL was recorded in Los Angeles at the Troubador. A fine companion piece to its alternately-ordered namesake, these eight songs are a revamped set of the live album released only in the UK. The line-up of the band is extremely impressive, but it was not to last. Richard Thompson left the following year before another studio album was made. UK remastered reissue of 1986 album for Hannibal that's out-of-print in the U.S. with 2 added bonus tracks, 'Bonnie Kate/Sir B.McKenzies' & 'Yellow Bird' both taken from the album Live At The Troubadour (1976).

Recorded during Fairport Convention's September 1970 shows in Los Angeles (their second visit to the city in six months), House Full captures the four-piece Full House lineup at its zenith – a point proven by the marathon renditions of "Sloth" and "Matty Groves," which are among its epic highlights. Anybody who thought Sandy Denny was the only person who could convincingly perform the latter is certainly in for a pleasant surprise, as is anyone who thought the Albion Band's version of "Battle of the Somme" was the definitive rendition. By year's end, however, this particular Fairport Convention lineup would have shattered, as Richard Thompson moved on to a solo career. This performance, with its taste of two songs originally intended for a pre-split new album, is a vivid portrayal of all that listeners lost when he went. Originally released as Live at the LA Troubadour in 1976, then reissued, with a slightly different track listing, a decade later as House Full, this remastered collection rounds up all ten of the live songs spread across those two (heavily overlapping) sets, omitting only the doctored studio version of Richard Thompson's "Poor Will and the Jolly Hangman" that appeared on the original 1976 release, and replacing one epic, "Sloth," with another. Among other cosmetic alterations can be found the correct retitling of "Toss the Feathers" as "The Lark in the Morning Medley." However, the 90-plus seconds shorn from "Mason's Apron" for the original House Full release have not been restored for the CD, while fans of the 1976 album probably would have welcomed the restoration of the two "lost" performances. With those latter flaws in mind, then, this isn't the perfect restoration that this exceptional album deserves. But it's by no means a wasted opportunity, either.

Review by Dave Thompson, Allmusic.com

Fairport Convention - House Full: Live at the LA Troubadour 1970 (1986) Expanded Remastered Reissue 2001



All tracks recorded live 4th to 6th Sep 1970 at The Troubadour, Los Angeles, California

Tracks 1 to 8 first released in 1986
Tracks 9 & 10 taken from Live At The LA Troubadour (1976)
Track 3 previously released as "Toss The Feathers"

Tracklist:

01. Sir Patrick Spens (3:28)
02. Banks Of The Sweet Primroses (4:38)
03. The Lark In The Morning Medley (3:54)
04. Sloth (12:18)
05. Staines Morris (3:45)
06. Matty Groves (8:44)
07. Jenny's Chickens-The Mason's Apron (4:42)
08. Battle Of The Somme (5:01)
09. Bonnie Kate-Sir B. McKenzies (4:56)
10. Yellow Bird (2:18)


Exact Audio Copy V0.99 prebeta 3 from 28. July 2007

EAC extraction logfile from 28. May 2008, 16:27

Fairport Convention / House Full

Used drive : Memorex DVD+-RAM 530L v1 Adapter: 0 ID: 0

Read mode : Secure
Utilize accurate stream : Yes
Defeat audio cache : Yes
Make use of C2 pointers : No

Read offset correction : 6
Overread into Lead-In and Lead-Out : No
Fill up missing offset samples with silence : Yes
Delete leading and trailing silent blocks : No
Null samples used in CRC calculations : Yes
Used interface : Installed external ASPI interface

Used output format : Internal WAV Routines
Sample format : 44.100 Hz; 16 Bit; Stereo


TOC of the extracted CD

Track | Start | Length | Start sector | End sector
––––––––––––––––––––––––––––-
1 | 0:00.00 | 3:28.03 | 0 | 15602
2 | 3:28.03 | 4:37.66 | 15603 | 36443
3 | 8:05.69 | 3:53.49 | 36444 | 53967
4 | 11:59.43 | 12:18.33 | 53968 | 109350
5 | 24:18.01 | 3:44.56 | 109351 | 126206
6 | 28:02.57 | 8:43.63 | 126207 | 165494
7 | 36:46.45 | 4:41.50 | 165495 | 186619
8 | 41:28.20 | 5:01.07 | 186620 | 209201
9 | 46:29.27 | 4:56.03 | 209202 | 231404
10 | 51:25.30 | 2:17.41 | 231405 | 241720


Range status and errors

Selected range

Filename C:\Documents and Settings\Compaq_Owner.LIAM.000\Desktop\Fairport Convention - House Full.wav

Peak level 93.7 %
Range quality 100.0 %
Copy CRC 03852BD3
Copy OK

No errors occurred


AccurateRip summary

Track 1 cannot be verified as accurate (confidence 2) [613EA0E7], AccurateRip returned [D8AD37E4]
Track 2 cannot be verified as accurate (confidence 2) [35C2B846], AccurateRip returned [86C415F3]
Track 3 cannot be verified as accurate (confidence 2) [375893D9], AccurateRip returned [44FBD218]
Track 4 cannot be verified as accurate (confidence 2) [8F2B2AF2], AccurateRip returned [F46F6077]
Track 5 cannot be verified as accurate (confidence 2) [BAECB336], AccurateRip returned [AFA2CC41]
Track 6 cannot be verified as accurate (confidence 2) [64225AFC], AccurateRip returned [55E37851]
Track 7 cannot be verified as accurate (confidence 2) [1A7D6DCE], AccurateRip returned [670B8F09]
Track 8 cannot be verified as accurate (confidence 2) [74A65E85], AccurateRip returned [62D248F9]
Track 9 cannot be verified as accurate (confidence 2) [34158BEB], AccurateRip returned [BD09E104]
Track 10 cannot be verified as accurate (confidence 2) [DD15F3FB], AccurateRip returned [6FF3F523]

No tracks could be verified as accurate
You may have a different pressing from the one(s) in the database

End of status report

[CUETools log; Date: 16.11.2017 18:09:48; Version: 2.1.4]
[CTDB TOCID: cP2IczhkC_I3qYqt.C7KgCGx5i0-] found.
Track | CTDB Status
1 | (40/40) Accurately ripped
2 | (40/40) Accurately ripped
3 | (40/40) Accurately ripped
4 | (39/40) Accurately ripped
5 | (40/40) Accurately ripped
6 | (40/40) Accurately ripped
7 | (40/40) Accurately ripped
8 | (40/40) Accurately ripped
9 | (40/40) Accurately ripped
10 | (40/40) Accurately ripped
[AccurateRip ID: 0014ff10-00aa6790-800c960a] found.
Track [ CRC | V2 ] Status
01 [613ea0e7|004ed9f2] (07+13/48) Accurately ripped
02 [35c2b846|f8c738f8] (07+13/48) Accurately ripped
03 [375893d9|9ec2a1ef] (07+13/48) Accurately ripped
04 [8f2b2af2|2e225aa7] (07+13/46) Accurately ripped
05 [baecb336|0ded7c2e] (07+13/48) Accurately ripped
06 [64225afc|b159f20d] (07+13/48) Accurately ripped
07 [1a7d6dce|2159d810] (07+13/48) Accurately ripped
08 [74a65e85|f91211d3] (07+13/48) Accurately ripped
09 [34158beb|ba9f742e] (07+13/47) Accurately ripped
10 [dd15f3fb|a292ce44] (07+13/48) Accurately ripped
Offsetted by 667:
01 [d8ad37e4] (08/48) Accurately ripped
02 [86c415f3] (08/48) Accurately ripped
03 [44fbd218] (08/48) Accurately ripped
04 [f46f6077] (07/46) Accurately ripped
05 [afa2cc41] (08/48) Accurately ripped
06 [55e37851] (08/48) Accurately ripped
07 [670b8f09] (08/48) Accurately ripped
08 [62d248f9] (08/48) Accurately ripped
09 [bd09e104] (07/47) Accurately ripped
10 [6ff3f523] (08/48) Accurately ripped

Track Peak [ CRC32 ] [W/O NULL] [ LOG ]
– 93,7 [03852BD3] [1DF086A0] CRC32
01 91,8 [9CAD195F] [0E04AC42]
02 90,6 [B7323015] [8D6C2A0B]
03 89,9 [1957128B] [9065B850]
04 93,7 [A7A67EB3] [C1295AF2]
05 90,3 [F74B4324] [DEF45830]
06 90,5 [3F102EB7] [0B6197DC]
07 88,8 [8E4D2E64] [EE457EC9]
08 88,7 [9ACAC292] [ED960E51]
09 91,0 [00BB7654] [F4364819]
10 87,0 [ABB45ADC] [DFF5FE88]

foobar2000 1.2 / Dynamic Range Meter 1.1.1
log date: 2017-11-16 18:10:55

––––––––––––––––––––––––––––––––––––––––
Analyzed: Fairport Convention / House Full
––––––––––––––––––––––––––––––––––––––––

DR Peak RMS Duration Track
––––––––––––––––––––––––––––––––––––––––
DR11 -0.74 dB -15.37 dB 3:28 01-Sir Patrick Spens
DR12 -0.85 dB -17.14 dB 4:38 02-Banks Of The Sweet Primroses
DR10 -0.92 dB -12.72 dB 3:54 03-The Lark In The Morning Medley
DR10 -0.56 dB -16.13 dB 12:18 04-Sloth
DR12 -0.89 dB -15.13 dB 3:45 05-Staines Morris
DR11 -0.86 dB -13.89 dB 8:44 06-Matty Groves
DR11 -1.02 dB -13.59 dB 4:42 07-Jenny's Chickens-The Mason's Apron
DR10 -1.04 dB -16.28 dB 5:01 08-Battle Of The Somme
DR12 -0.82 dB -14.04 dB 4:56 09-Bonnie Kate-Sir B. McKenzies
DR13 -1.20 dB -17.65 dB 2:18 10-Yellow Bird
––––––––––––––––––––––––––––––––––––––––

Number of tracks: 10
Official DR value: DR11

Samplerate: 44100 Hz
Channels: 2
Bits per sample: 16
Bitrate: 822 kbps
Codec: FLAC
================================================================================

Fairport Convention - House Full: Live at the LA Troubadour 1970 (1986) Expanded Remastered Reissue 2001

All thanks to original releaser

More interesting music in My Blog