Tags
Language
Tags
April 2024
Su Mo Tu We Th Fr Sa
31 1 2 3 4 5 6
7 8 9 10 11 12 13
14 15 16 17 18 19 20
21 22 23 24 25 26 27
28 29 30 1 2 3 4

Eva Zaïcik, Vincent Dumestre, Le Poème Harmonique - Vivaldi, Razzi: Nisi Dominus (2021)

Posted By: ArlegZ
Eva Zaïcik, Vincent Dumestre, Le Poème Harmonique - Vivaldi, Razzi: Nisi Dominus (2021)

Eva Zaïcik, Vincent Dumestre, Le Poème Harmonique - Vivaldi, Razzi: Nisi Dominus (2021)
EAC | FLAC | Image (Cue & Log) ~ 285 Mb | Total time: 58:31 | Scans included
Classical | Label: Alpha Classics | # ALPHA 724 | Recorded: 2020

In the seventeenth century, the Ospedale della Pietà in Venice took in young orphan girls who received advanced musical instruction. The concerts given there attracted visitors from all over the world, curious to hear these divine voices which remained invisible, since the girls performed hidden behind the grilles of the chapel gallery. Vivaldi became Maestro de’Concerti of the Pietà in 1714, and it was his pupils who performed his famous Nisi Dominus.
Today they are succeeded by the mezzosoprano Eva Zaïcik, who brings out the full poignancy of the aria ‘Cum dederit’. Another motet by Vivaldi, Invicti bellate, also composed for the Pietà, features in this programme planned and conducted by Vincent Dumestre. He invites us on a musical journey centred on the figure of woman and on divine praise, with composers awaiting discovery such as Serafino Razzi (1534 - 1619) and Soto de Langa (1531 -1611).

Performer:
Eva Zaïcik, mezzo-soprano (1, 6-8, 15-23)
Déborah Cachet, soprano (1, 9)
Benoît-Joseph Meier, ténor (2, 9)
Francisco Mañalich, ténor (2, 9)
Virgile Ancely, basse (2, 3, 9)
Le Poème harmonique
Vincent Dumestre, guitare, colascione & direction

Tracklist:
Serafino Razzi (1531-1613)
01. O Vergin santa (laude)
Francisco Soto de Langa (1534-1619)
02. Giesù diletto sposo (laude)
Anonyme
03. Nisi Dominus (plain-chant)
Antonio Vivaldi (1678-1741)
Sinfonia al Santo Sepolcro, RV 169
04. Adagio molto
05. Allegro ma poco
Invicti bellate (motet), RV 628
06. Presto - Recitativo
07. Larghetto
08. Allegro
Serafino Razzi
09. O Dolcezza
Pietro Antonio Locatelli (1695-1764)
Sinfonia funebre, D2.2
10. Lamento
11. Alla breve
12. Grave
13. Non presto
14. La Consolatione
Antonio Vivaldi
Nisi Dominus (Motet), RV 608
15. Nisi Dominus
16. Vanum est vobis
17. Surgite
18. Cum dederit
19. Sicut sagittæ
20 Beatus Vir
21. Gloria patri
22. Sicut erat in principio
23. Amen


Exact Audio Copy V1.3 from 2. September 2016

EAC extraction logfile from 11. January 2024, 19:58

Eva Zaicik / Vivaldi, Razzi - Nisi Dominus

Used drive : hp DVDRW UJ8FBA Adapter: 1 ID: 0

Read mode : Secure
Utilize accurate stream : Yes
Defeat audio cache : Yes
Make use of C2 pointers : No

Read offset correction : 6
Overread into Lead-In and Lead-Out : No
Fill up missing offset samples with silence : Yes
Delete leading and trailing silent blocks : No
Null samples used in CRC calculations : Yes
Used interface : Native Win32 interface for Win NT & 2000

Used output format : User Defined Encoder
Selected bitrate : 1024 kBit/s
Quality : High
Add ID3 tag : No
Command line compressor : C:\Program Files (x86)\Exact Audio Copy\FLAC\FLAC.EXE
Additional command line options : -6 -V -T "ARTIST=%artist%" -T "TITLE=%title%" -T "ALBUM=%albumtitle%" -T "DATE=%year%" -T "TRACKNUMBER=%tracknr%" -T "GENRE=%genre%" -T "COMMENT=%comment%" -T "BAND=%albuminterpret%" -T "ALBUMARTIST=%albuminterpret%" -T "COMPOSER=%composer%" %haslyrics%–tag-from-file=LYRICS="%lyricsfile%"%haslyrics% -T "DISCNUMBER=%cdnumber%" -T "TOTALDISCS=%totalcds%" -T "TOTALTRACKS=%numtracks%" %hascover%–picture="%coverfile%"%hascover% %source% -o %dest%


TOC of the extracted CD

Track | Start | Length | Start sector | End sector
––––––––––––––––––––––––––––-
1 | 0:00.00 | 6:28.14 | 0 | 29113
2 | 6:28.14 | 3:36.63 | 29114 | 45376
3 | 10:05.02 | 0:29.02 | 45377 | 47553
4 | 10:34.04 | 1:33.64 | 47554 | 54592
5 | 12:07.68 | 1:20.70 | 54593 | 60662
6 | 13:28.63 | 2:37.45 | 60663 | 72482
7 | 16:06.33 | 4:54.72 | 72483 | 94604
8 | 21:01.30 | 1:50.69 | 94605 | 102923
9 | 22:52.24 | 4:24.11 | 102924 | 122734
10 | 27:16.35 | 1:32.41 | 122735 | 129675
11 | 28:49.01 | 1:59.04 | 129676 | 138604
12 | 30:48.05 | 2:03.14 | 138605 | 147843
13 | 32:51.19 | 2:01.46 | 147844 | 156964
14 | 34:52.65 | 2:41.26 | 156965 | 169065
15 | 37:34.16 | 2:37.00 | 169066 | 180840
16 | 40:11.16 | 1:17.19 | 180841 | 186634
17 | 41:28.35 | 1:47.47 | 186635 | 194706
18 | 43:16.07 | 4:54.06 | 194707 | 216762
19 | 48:10.13 | 1:37.13 | 216763 | 224050
20 | 49:47.26 | 1:05.02 | 224051 | 228927
21 | 50:52.28 | 4:54.40 | 228928 | 251017
22 | 55:46.68 | 1:02.60 | 251018 | 255727
23 | 56:49.53 | 1:39.68 | 255728 | 263220


Range status and errors

Selected range

Filename C:\rips\Eva Zaicik - Vivaldi, Razzi - Nisi Dominus\Eva Zaicik - Vivaldi, Razzi - Nisi Dominus.wav

Peak level 98.7 %
Extraction speed 3.4 X
Range quality 99.9 %
Test CRC 70B3079A
Copy CRC 70B3079A
Copy OK

No errors occurred


AccurateRip summary

Track 1 accurately ripped (confidence 1) [64EE3598] (AR v2)
Track 2 accurately ripped (confidence 1) [B4D0DD09] (AR v2)
Track 3 accurately ripped (confidence 1) [CB43923C] (AR v2)
Track 4 accurately ripped (confidence 1) [A9B7F964] (AR v2)
Track 5 accurately ripped (confidence 1) [5F62BA23] (AR v2)
Track 6 accurately ripped (confidence 1) [E8349D7F] (AR v2)
Track 7 accurately ripped (confidence 1) [BFCA01D5] (AR v2)
Track 8 accurately ripped (confidence 1) [8A2E22AB] (AR v2)
Track 9 accurately ripped (confidence 1) [F7820253] (AR v2)
Track 10 accurately ripped (confidence 1) [960DFB9A] (AR v2)
Track 11 accurately ripped (confidence 1) [4946C099] (AR v2)
Track 12 accurately ripped (confidence 1) [0A561416] (AR v2)
Track 13 accurately ripped (confidence 1) [986BB852] (AR v2)
Track 14 accurately ripped (confidence 1) [B41B32AA] (AR v2)
Track 15 accurately ripped (confidence 1) [00F9E0EB] (AR v2)
Track 16 accurately ripped (confidence 1) [8EEA61F1] (AR v2)
Track 17 accurately ripped (confidence 1) [82C5DF00] (AR v2)
Track 18 accurately ripped (confidence 1) [0BEE592C] (AR v2)
Track 19 accurately ripped (confidence 1) [BC0DD380] (AR v2)
Track 20 accurately ripped (confidence 1) [BEB8FC7F] (AR v2)
Track 21 accurately ripped (confidence 1) [50614889] (AR v2)
Track 22 accurately ripped (confidence 1) [E17D1FD7] (AR v2)
Track 23 accurately ripped (confidence 1) [F694B614] (AR v2)

All tracks accurately ripped

End of status report

–– CUETools DB Plugin V2.1.6

[CTDB TOCID: sHIj5MLnPHTXpqoJeMvNVhrUq8s-] found
Submit result: sHIj5MLnPHTXpqoJeMvNVhrUq8s- has been confirmed
Track | CTDB Status
1 | (9/9) Accurately ripped
2 | (9/9) Accurately ripped
3 | (9/9) Accurately ripped
4 | (9/9) Accurately ripped
5 | (9/9) Accurately ripped
6 | (9/9) Accurately ripped
7 | (9/9) Accurately ripped
8 | (9/9) Accurately ripped
9 | (9/9) Accurately ripped
10 | (9/9) Accurately ripped
11 | (9/9) Accurately ripped
12 | (9/9) Accurately ripped
13 | (9/9) Accurately ripped
14 | (9/9) Accurately ripped
15 | (9/9) Accurately ripped
16 | (9/9) Accurately ripped
17 | (9/9) Accurately ripped
18 | (9/9) Accurately ripped
19 | (9/9) Accurately ripped
20 | (9/9) Accurately ripped
21 | (9/9) Accurately ripped
22 | (9/9) Accurately ripped
23 | (9/9) Accurately ripped


==== Log checksum 8D7C7B147DC73D679CD8FD306F8B7F9A68F82C963D15E97698A4B56290A045C9 ====

Eva Zaïcik, Vincent Dumestre, Le Poème Harmonique - Vivaldi, Razzi: Nisi Dominus (2021)

Thanks to the original releaser