Tags
Language
Tags
July 2024
Su Mo Tu We Th Fr Sa
30 1 2 3 4 5 6
7 8 9 10 11 12 13
14 15 16 17 18 19 20
21 22 23 24 25 26 27
28 29 30 31 1 2 3

Electric Sun - Fire Wind (1981) {1996, Japanese Reissue}

Posted By: popsakov
Electric Sun - Fire Wind (1981) {1996, Japanese Reissue}

Electric Sun - Fire Wind (1981) {1996, Japanese Reissue}
EAC Rip | FLAC (Img) + Cue + Log ~ 332 Mb | MP3 CBR320 ~ 131 Mb
Full Scans | 00:44:37 | RAR 5% Recovery
Hard Rock, Psychedelic Rock | RCA / BMG Victor #BVCP-7450 (74321-36073-2)

Fire Wind is the second album released by Electric Sun. Electric Sun was a heavy metal formed by Uli Jon Roth after his departure from the Scorpions in 1978. They recorded three albums between 1979 and 1985. The first album, Earthquake, was released in 1979 and features guitarist/vocalist Roth, bassist Ule Ritgen and drummer Clive Edwards. Edwards departed quickly after recording the first album. Fire Wind came next in 1981, featuring new drummer Sidhatta Gautama. The band toured for a few years afterwards. While the first two albums were a trio format, the third album was more of an ensemble project. Veteran drummer Clive Bunker, formerly of Jethro Tull, appeared, as did Ritgen, vocalist Michael Flexig and guest vocalist Nicky Moore, as well as an array of additional various singers and orchestral musicians. Another feature of the album was the invention of Roth's Sky Guitar. The name Electric Sun was retired in 1986, and Uli Jon Roth continued to pursue his classical-inspired rock under his own name, as well as focus on other artistic areas.

***************

Track List:

01. Cast Away Your Chains [4:14]
02. Indian Dawn [5:14]
03. I'll Be Loving You Always [4:59]
04. Fire Wind [5:01]
05. Prelude In Space Minor [1:25]
06. Just Another Rainbow [3:53]
07. Children Of The Sea [3:24]
08. Chaplin And I [5:44]
09. Hiroshima [10:42]

Personnel:
Bass Guitar - Ule Ritgen
Drums, Percussion - Sidhatta Gautama
Guitar, Vocals - Uli Jon Roth

Exact Audio Copy V1.3 from 2. September 2016

Отчёт EAC об извлечении, выполненном 8. июня 2018, 15:17

ELECTRIC SUN / FIRE WIND

Дисковод: HL-DT-STDVDRAM GU40N Adapter: 1 ID: 0

Режим чтения : Достоверность
Использование точного потока : Да
Отключение кэша аудио : Да
Использование указателей C2 : Нет

Коррекция смещения при чтении : 103
Способность читать области Lead-in и Lead-out : Нет
Заполнение пропущенных сэмплов тишиной : Да
Удаление блоков с тишиной в начале и конце : Нет
При вычислениях CRC использовались нулевые сэмплы : Да
Интерфейс : Встроенный Win32-интерфейс для Win NT/2000

Выходной формат : Пользовательский кодировщик
Выбранный битрейт : 1024 kBit/s
Качество : Высокий
Добавление ID3-тега : Нет
Утилита сжатия : C:\Program Files (x86)\Exact Audio Copy\Flac\flac.exe
Дополнительные параметры : -V -8 -T "Date=%year%" -T "Genre=%genre%" %source%


TOC извлечённого CD

Трек | Старт | Длительность | Начальный сектор | Конечный сектор
––––––––––––––––––––––––––––––––––-
1 | 0:00.00 | 4:13.70 | 0 | 19044
2 | 4:13.70 | 5:14.27 | 19045 | 42621
3 | 9:28.22 | 4:58.45 | 42622 | 65016
4 | 14:26.67 | 5:01.08 | 65017 | 87599
5 | 19:28.00 | 1:25.30 | 87600 | 94004
6 | 20:53.30 | 3:53.12 | 94005 | 111491
7 | 24:46.42 | 3:23.73 | 111492 | 126789
8 | 28:10.40 | 5:44.02 | 126790 | 152591
9 | 33:54.42 | 10:42.00 | 152592 | 200741


Характеристики диапазона извлечения и сообщения об ошибках

Выбранный диапазон

Имя файла C:\Users\workutagin\Desktop\ELECTRIC SUN - FIRE WIND 1996\ELECTRIC SUN - Unknown Title.wav

Пиковый уровень 98.0 %
Скорость извлечения 1.9 X
Качество диапазона 99.9 %
CRC теста 5F7568F4
CRC копии 5F7568F4
Копирование… OK

Ошибок не произошло


AccurateRip: сводка

Трек 1 отсутствует в базе данных
Трек 2 отсутствует в базе данных
Трек 3 отсутствует в базе данных
Трек 4 отсутствует в базе данных
Трек 5 отсутствует в базе данных
Трек 6 отсутствует в базе данных
Трек 7 отсутствует в базе данных
Трек 8 отсутствует в базе данных
Трек 9 отсутствует в базе данных

Ни одного трека нет в базе AccurateRip

Конец отчёта

–– CUETools DB Plugin V2.1.6

[CTDB TOCID: eu5bo65pDwZ8CL0r38Vj5YkELbM-] found
Submit result: eu5bo65pDwZ8CL0r38Vj5YkELbM- has been confirmed
Track | CTDB Status
1 | (3/3) Accurately ripped
2 | (3/3) Accurately ripped
3 | (3/3) Accurately ripped
4 | (3/3) Accurately ripped
5 | (3/3) Accurately ripped
6 | (3/3) Accurately ripped
7 | (3/3) Accurately ripped
8 | (3/3) Accurately ripped
9 | (3/3) Accurately ripped


==== Контрольная сумма отчёта 80F88134F3B45326133429329A05BA2B4CC18B5D454DA0861AA9D1BF55ECCBC5 ====

All thanks go to kikel

>>> My Blog <<<

DOWNLOAD: