Tags
Language
Tags
July 2024
Su Mo Tu We Th Fr Sa
30 1 2 3 4 5 6
7 8 9 10 11 12 13
14 15 16 17 18 19 20
21 22 23 24 25 26 27
28 29 30 31 1 2 3

Ed Sheeran - = (2021)

Posted By: popsakov
Ed Sheeran - = (2021)

Ed Sheeran - = (2021)
EAC Rip | FLAC (Tracks) + Cue + m3u8 + Log ~ 382 Mb | MP3 CBR320 ~ 171 Mb
Full Scans | 00:48:29 | RAR 5% Recovery
Pop, Folk | Asylum Records / Atlantic #0190296549625

Ed Sheeran has announced details of his new album ‘=’ (Equals), confirmed for release on 29th October through Asylum Records. ‘=’ - the fourth instalment in Sheeran’s symbol album series - is Ed’s most accomplished work yet; the evolution of an artist who continues to tread new ground. A body of tracks that were made over a four-year period following his seminal ‘÷’ (Divide) album era, thematically, ‘=’ finds Ed taking stock of his life and the people in it as he explores the varying degrees of love (‘The Joker And The Queen’, ‘First Times’, ‘2step'), loss (‘Visiting Hours’), resilience (‘Can’t Stop The Rain’) and fatherhood (‘Sandman’, ‘Leave Your Life’), while also processing his reality and career (‘Tides’). Sonically, ‘=’ encapsulates Ed’s versatile musical palette, spanning signature, guitar-led tracks and world-class balladry to weightier, euphoric production moments, as first showcased on this summer’s emphatic comeback track, ‘Bad Habits’.

Embracing Ed’s own truths, ‘=’ seamlessly captures both the intimate and every day; elevating universal experiences to a higher plane as reflected by ‘Visiting Hours’ - a track that finds Ed coming to terms with the loss of his mentor and friend, Michael Gudinski, and written shortly after his passing: “I wish that heaven had visiting hours / So I can just swing by and ask your advice”. Performed for the first time at Michael’s state memorial in March, the poignant track, which is joined by a stripped performance video and features backing vocals from Michael’s close friends, Kylie Minogue and Jimmy Barnes.

Written and recorded across Suffolk, London, Sweden and LA, the album’s executive production comes from Ed Sheeran, FRED (No.6 Collaborations Project) and Johnny McDaid (Divide), with additional writing and/or production provided by Steve Mac, Joe Rubel, Amy Wadge, Foy Vance, Elvira Anderfjard, David Hodges, Andrew Watt, Lou Bell, Natalie Hemby and Ben Kweller. Sheeran’s brother, Matthew, a composer, also contributes stunning string arrangements on ‘First Times’ and ‘The Joker And The Queen’. The album artwork is a vivid collage of butterfly imagery symbolising the albums’ thread of ‘new life’ and is backdropped by one of Ed’s own abstract paintings.

Ed Sheeran commented - “= (Equals) is a really personal record and one that means a lot to me. My life changed greatly over the past few years - I got married, became a father, experienced loss, and I reflect on these topics over the course of the album. I see it as my coming-of-age record, and I can’t wait to share this next chapter with you.”

***************

Track List:

01. Tides [3:17]
02. Shivers [3:28]
03. First Times [3:05]
04. Bad Habits [3:51]
05. Overpass Graffiti [3:57]
06. The Joker And The Queen [3:06]
07. Leave Your Life [3:44]
08. Collide [3:31]
09. 2step [2:34]
10. Stop The Rain [3:24]
11. Love In Slow Motion [3:09]
12. Visiting Hours [3:35]
13. Sandman [4:20]
14. Be Right Now [3:34]

Exact Audio Copy V1.6 from 23. October 2020

EAC extraction logfile from 31. October 2021, 17:31

Ed Sheeran / = (Equals)

Used drive : PLEXTOR PX-891SAF PLUS Adapter: 1 ID: 0

Read mode : Secure
Utilize accurate stream : Yes
Defeat audio cache : Yes
Make use of C2 pointers : No

Read offset correction : 6
Overread into Lead-In and Lead-Out : No
Fill up missing offset samples with silence : Yes
Delete leading and trailing silent blocks : No
Null samples used in CRC calculations : Yes
Used interface : Native Win32 interface for Win NT & 2000
Gap handling : Appended to previous track

Used output format : User Defined Encoder
Selected bitrate : 1024 kBit/s
Quality : High
Add ID3 tag : No
Command line compressor : C:\Program Files (x86)\Exact Audio Copy\Flac\flac.exe
Additional command line options : -0 -V -T "ARTIST=%artist%" -T "TITLE=%title%" -T "ALBUM=%albumtitle%" -T "DATE=%year%" -T "TRACKNUMBER=%tracknr%" -T "TOTALTRACKS=%numtracks%" -T "GENRE=%genre%" -T "COMMENT=Naftamusic Release!" %source%


TOC of the extracted CD

Track | Start | Length | Start sector | End sector
––––––––––––––––––––––––––––-
1 | 0:00.00 | 3:16.57 | 0 | 14756
2 | 3:16.57 | 3:27.64 | 14757 | 30345
3 | 6:44.46 | 3:04.73 | 30346 | 44218
4 | 9:49.44 | 3:50.56 | 44219 | 61524
5 | 13:40.25 | 3:56.68 | 61525 | 79292
6 | 17:37.18 | 3:05.44 | 79293 | 93211
7 | 20:42.62 | 3:43.65 | 93212 | 110001
8 | 24:26.52 | 3:30.16 | 110002 | 125767
9 | 27:56.68 | 2:33.47 | 125768 | 137289
10 | 30:30.40 | 3:23.37 | 137290 | 152551
11 | 33:54.02 | 3:08.20 | 152552 | 166671
12 | 37:02.22 | 3:34.03 | 166672 | 182724
13 | 40:36.25 | 4:19.25 | 182725 | 202174
14 | 44:55.50 | 3:33.06 | 202175 | 218155


Track 1

Filename E:\Nafta Releases\Ed Sheeran - = (Equals 2021)[FLAC]-Naftamusic\01 - Tides.wav

Pre-gap length 0:00:02.00

Peak level 99.9 %
Extraction speed 1.8 X
Track quality 100.0 %
Test CRC 753593FE
Copy CRC 753593FE
Track not present in AccurateRip database
Copy OK

Track 2

Filename E:\Nafta Releases\Ed Sheeran - = (Equals 2021)[FLAC]-Naftamusic\02 - Shivers.wav

Peak level 100.0 %
Extraction speed 2.0 X
Track quality 100.0 %
Test CRC 2DD7E7D3
Copy CRC 2DD7E7D3
Track not present in AccurateRip database
Copy OK

Track 3

Filename E:\Nafta Releases\Ed Sheeran - = (Equals 2021)[FLAC]-Naftamusic\03 - First Times.wav

Peak level 99.5 %
Extraction speed 2.1 X
Track quality 100.0 %
Test CRC 99741268
Copy CRC 99741268
Track not present in AccurateRip database
Copy OK

Track 4

Filename E:\Nafta Releases\Ed Sheeran - = (Equals 2021)[FLAC]-Naftamusic\04 - Bad Habits.wav

Peak level 99.7 %
Extraction speed 1.7 X
Track quality 99.9 %
Test CRC 324C8C52
Copy CRC 324C8C52
Track not present in AccurateRip database
Copy OK

Track 5

Filename E:\Nafta Releases\Ed Sheeran - = (Equals 2021)[FLAC]-Naftamusic\05 - Overpass Graffiti.wav

Peak level 99.6 %
Extraction speed 2.5 X
Track quality 100.0 %
Test CRC 59ABC681
Copy CRC 59ABC681
Track not present in AccurateRip database
Copy OK

Track 6

Filename E:\Nafta Releases\Ed Sheeran - = (Equals 2021)[FLAC]-Naftamusic\06 - The Joker And The Queen.wav

Peak level 97.6 %
Extraction speed 1.8 X
Track quality 99.9 %
Test CRC BD9F7626
Copy CRC BD9F7626
Track not present in AccurateRip database
Copy OK

Track 7

Filename E:\Nafta Releases\Ed Sheeran - = (Equals 2021)[FLAC]-Naftamusic\07 - Leave Your Life.wav

Peak level 99.5 %
Extraction speed 2.8 X
Track quality 100.0 %
Test CRC 8A372978
Copy CRC 8A372978
Track not present in AccurateRip database
Copy OK

Track 8

Filename E:\Nafta Releases\Ed Sheeran - = (Equals 2021)[FLAC]-Naftamusic\08 - Collide.wav

Peak level 99.9 %
Extraction speed 2.9 X
Track quality 100.0 %
Test CRC 8D3B3B92
Copy CRC 8D3B3B92
Track not present in AccurateRip database
Copy OK

Track 9

Filename E:\Nafta Releases\Ed Sheeran - = (Equals 2021)[FLAC]-Naftamusic\09 - 2step.wav

Peak level 100.0 %
Extraction speed 2.8 X
Track quality 100.0 %
Test CRC C351E114
Copy CRC C351E114
Track not present in AccurateRip database
Copy OK

Track 10

Filename E:\Nafta Releases\Ed Sheeran - = (Equals 2021)[FLAC]-Naftamusic\10 - Stop The Rain.wav

Peak level 100.0 %
Extraction speed 2.1 X
Track quality 99.9 %
Test CRC 5EE20409
Copy CRC 5EE20409
Track not present in AccurateRip database
Copy OK

Track 11

Filename E:\Nafta Releases\Ed Sheeran - = (Equals 2021)[FLAC]-Naftamusic\11 - Love In Slow Motion.wav

Peak level 100.0 %
Extraction speed 3.1 X
Track quality 100.0 %
Test CRC 0759EDB2
Copy CRC 0759EDB2
Track not present in AccurateRip database
Copy OK

Track 12

Filename E:\Nafta Releases\Ed Sheeran - = (Equals 2021)[FLAC]-Naftamusic\12 - Visiting Hours.wav

Peak level 99.8 %
Extraction speed 3.3 X
Track quality 100.0 %
Test CRC 5B1F68A5
Copy CRC 5B1F68A5
Track not present in AccurateRip database
Copy OK

Track 13

Filename E:\Nafta Releases\Ed Sheeran - = (Equals 2021)[FLAC]-Naftamusic\13 - Sandman.wav

Peak level 88.8 %
Extraction speed 3.5 X
Track quality 100.0 %
Test CRC 72CEDBF9
Copy CRC 72CEDBF9
Track not present in AccurateRip database
Copy OK

Track 14

Filename E:\Nafta Releases\Ed Sheeran - = (Equals 2021)[FLAC]-Naftamusic\14 - Be Right Now.wav

Peak level 99.4 %
Extraction speed 3.4 X
Track quality 100.0 %
Test CRC 4B47E042
Copy CRC 4B47E042
Track not present in AccurateRip database
Copy OK


None of the tracks are present in the AccurateRip database

No errors occurred

End of status report

==== Log checksum 5B8B052CA661AD1B2A7AD6EA9F99736B85D16AABB2E6A7B724F2B22B35254A9A ====

See also:

Ed Sheeran - ÷ (2017) {Deluxe Edition}

All thanks go to the original ripper(s) …

>>> My Blog <<<

DOWNLOAD: