Tags
Language
Tags

Dizzy Gillespie - Dizzy in South America: Official U.S. State Department Tour, 1956, Volumes 1-3 (1999-2001) 4CDs

Posted By: Designol
Dizzy Gillespie - Dizzy in South America: Official U.S. State Department Tour, 1956, Volumes 1-3 (1999-2001) 4CDs

Dizzy Gillespie - Dizzy in South America (1999-2001) 4CDs
Official U.S. State Department Tour, 1956, Volumes 1-3

EAC | FLAC | Tracks (Cue&Log) ~ 1.57 Gb | Mp3 (CBR320) ~ 709 Mb | Scans included
Label: Consolidated Artists Productions | # CAP 933-935 | Time: 04:24:04
Bop, Afro-Cuban Jazz, Trumpet Jazz, Big Band

In the summer of 1956, the famed Harlem congressman Adam Clayton Powell arranged for Dizzy Gillespie to embark on a worldwide goodwill-ambassador tour sponsored by the State Department. Gillespie and an all-star big band featuring trumpeter Quincy Jones, the late trombonist Melba Liston, alto saxophonist Phil Woods, and tenor saxophonist Benny Golson performed in Ecuador, Argentina, Uruguay, and Brazil to frenzied, beret-wearing fans. Recordings were made but they weren't commercially available and were played only for a select group of musicians before Gillespie's death in 1993. Now the sides have been released, showcasing Dizzy at his bebopping best. Energized by his in-the-pocket rhythm section featuring the underrated piano of Walter Davis Jr., bassist Nelson Boyd, and drummer Charlie Persip, Gillespie launches into his routinely impossible, stratospheric solos on Tadd Dameron's "Cool Breeze" and the Afro-Cubop numbers "A Night in Tunisia" and "Manteca." His renditions of the ballads "I Can't Get Started" and "Stella by Starlight" highlight his often-overlooked balladering voice, while the good-time jump tune "School Days" brings out the crowd-pleasing, dizzy side of Diz with zany vocals that translate into any language.

Review by Eugene Holley Jr., Amazon Editorial Review

Dizzy Gillespie - Dizzy in South America: Official U.S. State Department Tour, 1956, Volumes 1-3 (1999-2001) 4CDs

Dizzy Gillespie - Dizzy in South America: Official U.S. State Department Tour, 1956, Volumes 1-3 (1999-2001) 4CDs

Dizzy Gillespie - Dizzy in South America: Official U.S. State Department Tour, 1956, Volumes 1-3 (1999-2001) 4CDs





Dizzy Gillespie - Dizzy in South America: Official U.S. State Department Tour, 1956, Volumes 1-3 (1999-2001) 4CDs

Dizzy Gillespie - Dizzy in South America: Official U.S. State Department Tour, 1956, Vol. 1 (1999)
EAC | FLAC | Tracks (Cue&Log) ~ 371 Mb | Mp3 (CBR320) ~ 169 Mb | Scans included
Label: Consolidated Artists Productions | # CAP 933 | Time: 00:56:52

In 1999, jazz collectors were thrilled to learn that Consolidated Artists Productions (CAP) was putting out a three-volume series focusing on Dizzy Gillespie's 1956 tour of South America. The recordings from that State Department-sponsored tour, which were made by Gillespie's friend Dave Usher, had remained in the can for 43 years and were being released commercially for the first time. In 1956, touring Latin America with a big band was something that most beboppers could only dream of, but thanks to the State Department's support, it became a reality for Gillespie and his sidemen. Dizzy in South America: Official U.S. State Department Tour, 1956: Vol. 1 finds the brassy trumpeter in fine form on hot-blooded versions of "Manteca," "A Night in Tunisia," and "Cool Breeze" as well as lyrical arrangements of "I Can't Get Started" and "Stella by Starlight." The big band that Gillespie leads is quite cohesive, and his support includes, among others, Quincy Jones on trumpet (Jones served as the tour's musical director), Phil Woods and Jimmy Powell on alto sax, Benny Golson and Billy Mitchell on tenor sax, Melba Liston on trombone, Walter Davis, Jr. on piano, Nelson Boyd on bass and Charlie Persip on drums. Austin Cromer, an obscure but gifted vocalist along the lines of Billy Eckstine and Al Hibbler, joins the band on "Flamingo" and "Seems Like You Just Don't Care." While the sound quality is decent by 1956 standards, CAP's liner notes aren't perfect: they don't give an exact recording date or the specific country and venue. But all things considered, Vol. 1 will definitely be of great interest to collectors.

Review by Alex Henderson, Allmusic.com

Tracklist:

01. Cool Breeze (08:39)
02. Groovin' For Nat (03:23)
03. I Can't Get Started (03:47)
04. Jessica's Day (04:37)
05. A Night In Tunisia (09:33)
06. Seems Like You Just Don't Care (03:35)
07. Flamingo (04:21)
08. Stella By Starlight (04:39)
09. School Days (06:20)
10. Manteca (07:54)


Exact Audio Copy V1.0 beta 4 from 7. December 2014

EAC extraction logfile from 13. June 2016, 9:53

Dizzy Gillespie / Dizzy In South America, Vol. 1

Used drive : HL-DT-STDVD+-RW GH82N Adapter: 1 ID: 0

Read mode : Secure
Utilize accurate stream : Yes
Defeat audio cache : Yes
Make use of C2 pointers : No

Read offset correction : 667
Overread into Lead-In and Lead-Out : No
Fill up missing offset samples with silence : Yes
Delete leading and trailing silent blocks : No
Null samples used in CRC calculations : Yes
Used interface : Native Win32 interface for Win NT & 2000
Gap handling : Appended to previous track

Used output format : User Defined Encoder
Selected bitrate : 1024 kBit/s
Quality : High
Add ID3 tag : No
Command line compressor : C:\Program Files (x86)\Exact Audio Copy\FLAC\FLAC.EXE
Additional command line options : -6 -V -T "ARTIST=%artist%" -T "TITLE=%title%" -T "ALBUM=%albumtitle%" -T "DATE=%year%" -T "TRACKNUMBER=%tracknr%" -T "GENRE=%genre%" -T "COMMENT=%comment%" -T "BAND=%albuminterpret%" -T "ALBUMARTIST=%albuminterpret%" -T "COMPOSER=%composer%" %haslyrics%–tag-from-file=LYRICS="%lyricsfile%"%haslyrics% -T "DISCNUMBER=%cdnumber%" -T "TOTALDISCS=%totalcds%" -T "TOTALTRACKS=%numtracks%" %hascover%–picture="%coverfile%"%hascover% %source% -o %dest%


TOC of the extracted CD

Track | Start | Length | Start sector | End sector
––––––––––––––––––––––––––––-
1 | 0:00.00 | 8:39.10 | 0 | 38934
2 | 8:39.10 | 3:23.23 | 38935 | 54182
3 | 12:02.33 | 3:47.41 | 54183 | 71248
4 | 15:49.74 | 4:37.72 | 71249 | 92095
5 | 20:27.71 | 9:33.35 | 92096 | 135105
6 | 30:01.31 | 3:35.55 | 135106 | 151285
7 | 33:37.11 | 4:21.13 | 151286 | 170873
8 | 37:58.24 | 4:39.13 | 170874 | 191811
9 | 42:37.37 | 6:20.46 | 191812 | 220357
10 | 48:58.08 | 7:54.30 | 220358 | 255937


Track 1

Filename C:\Rips\Dizzy Gillespie - Dizzy In South America, Vol. 1-3\Dizzy Gillespie - Dizzy In South America, Vol. 1\01 - Cool Breeze.wav

Pre-gap length 0:00:02.00

Peak level 100.0 %
Extraction speed 2.1 X
Track quality 100.0 %
Copy CRC 82E3272D
Accurately ripped (confidence 4) [E0F2EDF9] (AR v2)
Copy OK

Track 2

Filename C:\Rips\Dizzy Gillespie - Dizzy In South America, Vol. 1-3\Dizzy Gillespie - Dizzy In South America, Vol. 1\02 - Groovin' For Nat.wav

Peak level 100.0 %
Extraction speed 2.2 X
Track quality 100.0 %
Copy CRC F8E5C3C5
Accurately ripped (confidence 4) [42992B16] (AR v2)
Copy OK

Track 3

Filename C:\Rips\Dizzy Gillespie - Dizzy In South America, Vol. 1-3\Dizzy Gillespie - Dizzy In South America, Vol. 1\03 - I Can't Get Started.wav

Peak level 100.0 %
Extraction speed 2.4 X
Track quality 100.0 %
Copy CRC AE7AA809
Accurately ripped (confidence 4) [5E568014] (AR v2)
Copy OK

Track 4

Filename C:\Rips\Dizzy Gillespie - Dizzy In South America, Vol. 1-3\Dizzy Gillespie - Dizzy In South America, Vol. 1\04 - Jessica's Day.wav

Peak level 100.0 %
Extraction speed 2.6 X
Track quality 100.0 %
Copy CRC B8245C1E
Accurately ripped (confidence 4) [B064D62B] (AR v2)
Copy OK

Track 5

Filename C:\Rips\Dizzy Gillespie - Dizzy In South America, Vol. 1-3\Dizzy Gillespie - Dizzy In South America, Vol. 1\05 - A Night In Tunisia.wav

Peak level 100.0 %
Extraction speed 3.1 X
Track quality 100.0 %
Copy CRC 03293AF4
Accurately ripped (confidence 4) [F88CB4DB] (AR v2)
Copy OK

Track 6

Filename C:\Rips\Dizzy Gillespie - Dizzy In South America, Vol. 1-3\Dizzy Gillespie - Dizzy In South America, Vol. 1\06 - Seems Like You Just Don't Care.wav

Peak level 100.0 %
Extraction speed 2.9 X
Track quality 100.0 %
Copy CRC 3150B7A7
Accurately ripped (confidence 4) [9A0A53EA] (AR v2)
Copy OK

Track 7

Filename C:\Rips\Dizzy Gillespie - Dizzy In South America, Vol. 1-3\Dizzy Gillespie - Dizzy In South America, Vol. 1\07 - Flamingo.wav

Peak level 80.1 %
Extraction speed 3.1 X
Track quality 100.0 %
Copy CRC 953DF3DD
Accurately ripped (confidence 4) [BDEC216B] (AR v2)
Copy OK

Track 8

Filename C:\Rips\Dizzy Gillespie - Dizzy In South America, Vol. 1-3\Dizzy Gillespie - Dizzy In South America, Vol. 1\08 - Stella By Starlight.wav

Peak level 100.0 %
Extraction speed 3.3 X
Track quality 100.0 %
Copy CRC 963730A1
Accurately ripped (confidence 4) [CB188672] (AR v2)
Copy OK

Track 9

Filename C:\Rips\Dizzy Gillespie - Dizzy In South America, Vol. 1-3\Dizzy Gillespie - Dizzy In South America, Vol. 1\09 - School Days.wav

Peak level 100.0 %
Extraction speed 3.6 X
Track quality 100.0 %
Copy CRC 0B49CA91
Accurately ripped (confidence 4) [9AD4FA39] (AR v2)
Copy OK

Track 10

Filename C:\Rips\Dizzy Gillespie - Dizzy In South America, Vol. 1-3\Dizzy Gillespie - Dizzy In South America, Vol. 1\10 - Manteca.wav

Peak level 100.0 %
Extraction speed 3.9 X
Track quality 100.0 %
Copy CRC C8B7DADE
Accurately ripped (confidence 4) [8638730C] (AR v2)
Copy OK


All tracks accurately ripped

No errors occurred

End of status report

–– CUETools DB Plugin V2.1.4

[CTDB TOCID: BDzJLe3HS0LRbE7Mk2Mj9y9_oZk-] found
Submit result: already submitted
Track | CTDB Status
1 | (3/3) Accurately ripped
2 | (3/3) Accurately ripped
3 | (3/3) Accurately ripped
4 | (3/3) Accurately ripped
5 | (3/3) Accurately ripped
6 | (3/3) Accurately ripped
7 | (3/3) Accurately ripped
8 | (3/3) Accurately ripped
9 | (3/3) Accurately ripped
10 | (3/3) Accurately ripped


==== Log checksum CAA24C8A729AFDB809DFFEEC0F10A0C0C9FC85E6E5C639A8A243CCE1D53CCF27 ====

foobar2000 1.2 / Dynamic Range Meter 1.1.1
log date: 2016-06-14 12:41:19

––––––––––––––––––––––––––––––––––––––––
Analyzed: Dizzy Gillespie / Dizzy In South America, Vol. 1
––––––––––––––––––––––––––––––––––––––––

DR Peak RMS Duration Track
––––––––––––––––––––––––––––––––––––––––
DR13 0.00 dB -16.79 dB 8:39 01-Cool Breeze
DR13 0.00 dB -17.67 dB 3:23 02-Groovin' For Nat
DR13 0.00 dB -17.20 dB 3:48 03-I Can't Get Started
DR13 0.00 dB -16.32 dB 4:38 04-Jessica's Day
DR14 0.00 dB -17.13 dB 9:33 05-A Night In Tunisia
DR15 0.00 dB -18.00 dB 3:36 06-Seems Like You Just Don't Care
DR12 -1.92 dB -18.02 dB 4:21 07-Flamingo
DR12 0.00 dB -16.64 dB 4:39 08-Stella By Starlight
DR13 0.00 dB -16.95 dB 6:21 09-School Days
DR14 0.00 dB -16.92 dB 7:54 10-Manteca
––––––––––––––––––––––––––––––––––––––––

Number of tracks: 10
Official DR value: DR13

Samplerate: 44100 Hz
Channels: 2
Bits per sample: 16
Bitrate: 889 kbps
Codec: FLAC
================================================================================

Dizzy Gillespie - Dizzy in South America: Official U.S. State Department Tour, 1956, Volumes 1-3 (1999-2001) 4CDs





Dizzy Gillespie - Dizzy in South America: Official U.S. State Department Tour, 1956, Volumes 1-3 (1999-2001) 4CDs

Dizzy Gillespie - Dizzy in South America: Official U.S. State Department Tour, 1956, Vol. 2 (1999)
EAC | FLAC | Tracks (Cue&Log) ~ 367 Mb | Mp3 (CBR320) ~ 169 Mb | Scans included
Label: Consolidated Artists Productions | # CAP 934 | Time: 00:58:11

Jazz collectors can be an obsessive, detail-minded bunch, so when they acquire Vol. 2 of CAP's Dizzy in South America series, they're bound to be frustrated by the fact that the credits don't give any exact recording dates or let you know exactly where in South America each 1956 performance was recorded. As frustrating as that is, however, Vol. 2 is a CD that collectors and Dizzy Gillespie fans will be glad to get their hands on. No serious Gillespie aficionado could resist hearing previously unreleased live performances of "Tin Tin Deo," "The Champ," and "Groovin' High," especially when the sound quality is decent (by 1956 standards) and the band boasts such heavyweights as Phil Woods (alto sax), Benny Golson (tenor sax), Jimmy Powell (alto sax), Walter Davis, Jr. (piano), and the tour's musical director Quincy Jones (trumpet). Gillespie has many inspired moments on trumpet, and featured vocalist Austin Cromer provides some memorable crooning on "Because of You" and "Wonder Why." Those who complain that bop has no sense of humor should pay close attention to Gillespie's vocals on the goofy yet swinging "Hey Pete, Let's Eat More Meat" and the hilarious Louis Armstrong parody "I'm Confessin'." When Gillespie emulates Armstrong's style of singing, he isn't ridiculing the seminal trumpeter/vocalist, but rather, flattering him out of reverence and adulation – in fact, critic Ira Gitler states in the liner notes that Armstrong was reported to have been quite amused by Gillespie's parody. Also noteworthy are Melba Liston's lyrical trombone solo on "My Reverie" and baritone saxman Marty Flax's funky spot on Horace Silver's "Doodlin'." Vol. 2 is easily recommended to Gillespie fans, although it would be nice to know the specific venues and the exact recording dates.

Review by Alex Henderson, Allmusic.com

Tracklist:

01. Groovin' High (05:53)
02. Begin the Beguine (04:45)
03. Hey Pete, Let's Eat More Meat (14:57)
04. Wonder Why (04:17)
05. Because Of You (04:38)
06. I'm Confessin' (04:20)
07. Doodlin' (04:25)
08. My Reverie (03:23)
09. Tin Tin Daeo (04:44)
10. The Champ (06:43)


Exact Audio Copy V1.0 beta 4 from 7. December 2014

EAC extraction logfile from 13. June 2016, 10:18

Dizzy Gillespie / Dizzy In South America, Vol. 2

Used drive : HL-DT-STDVD+-RW GH82N Adapter: 1 ID: 0

Read mode : Secure
Utilize accurate stream : Yes
Defeat audio cache : Yes
Make use of C2 pointers : No

Read offset correction : 667
Overread into Lead-In and Lead-Out : No
Fill up missing offset samples with silence : Yes
Delete leading and trailing silent blocks : No
Null samples used in CRC calculations : Yes
Used interface : Native Win32 interface for Win NT & 2000
Gap handling : Appended to previous track

Used output format : User Defined Encoder
Selected bitrate : 1024 kBit/s
Quality : High
Add ID3 tag : No
Command line compressor : C:\Program Files (x86)\Exact Audio Copy\FLAC\FLAC.EXE
Additional command line options : -6 -V -T "ARTIST=%artist%" -T "TITLE=%title%" -T "ALBUM=%albumtitle%" -T "DATE=%year%" -T "TRACKNUMBER=%tracknr%" -T "GENRE=%genre%" -T "COMMENT=%comment%" -T "BAND=%albuminterpret%" -T "ALBUMARTIST=%albuminterpret%" -T "COMPOSER=%composer%" %haslyrics%–tag-from-file=LYRICS="%lyricsfile%"%haslyrics% -T "DISCNUMBER=%cdnumber%" -T "TOTALDISCS=%totalcds%" -T "TOTALTRACKS=%numtracks%" %hascover%–picture="%coverfile%"%hascover% %source% -o %dest%


TOC of the extracted CD

Track | Start | Length | Start sector | End sector
––––––––––––––––––––––––––––-
1 | 0:00.00 | 5:53.09 | 0 | 26483
2 | 5:53.09 | 4:45.65 | 26484 | 47923
3 | 10:38.74 | 14:57.57 | 47924 | 115255
4 | 25:36.56 | 4:17.60 | 115256 | 134590
5 | 29:54.41 | 4:38.50 | 134591 | 155490
6 | 34:33.16 | 4:20.69 | 155491 | 175059
7 | 38:54.10 | 4:25.20 | 175060 | 194954
8 | 43:19.30 | 3:23.72 | 194955 | 210251
9 | 46:43.27 | 4:44.32 | 210252 | 231583
10 | 51:27.59 | 6:43.35 | 231584 | 261843


Track 1

Filename C:\Rips\Dizzy Gillespie - Dizzy In South America, Vol. 1-3\Dizzy Gillespie - Dizzy In South America, Vol. 2\01 - Groovin' High.wav

Pre-gap length 0:00:02.00

Peak level 96.6 %
Extraction speed 2.0 X
Track quality 100.0 %
Copy CRC B23EB2E8
Accurately ripped (confidence 1) [FA1FF595] (AR v2)
Copy OK

Track 2

Filename C:\Rips\Dizzy Gillespie - Dizzy In South America, Vol. 1-3\Dizzy Gillespie - Dizzy In South America, Vol. 2\02 - Begin the Beguine.wav

Peak level 96.6 %
Extraction speed 2.0 X
Track quality 99.9 %
Copy CRC DDBE7DC2
Accurately ripped (confidence 1) [10118A89] (AR v2)
Copy OK

Track 3

Filename C:\Rips\Dizzy Gillespie - Dizzy In South America, Vol. 1-3\Dizzy Gillespie - Dizzy In South America, Vol. 2\03 - Hey Pete, Let's Eat More Meat.wav

Peak level 96.6 %
Extraction speed 2.8 X
Track quality 100.0 %
Copy CRC 623CA514
Accurately ripped (confidence 1) [6D1FDF89] (AR v2)
Copy OK

Track 4

Filename C:\Rips\Dizzy Gillespie - Dizzy In South America, Vol. 1-3\Dizzy Gillespie - Dizzy In South America, Vol. 2\04 - Wonder Why.wav

Peak level 96.6 %
Extraction speed 2.9 X
Track quality 100.0 %
Copy CRC FA399A95
Accurately ripped (confidence 1) [C11AF109] (AR v2)
Copy OK

Track 5

Filename C:\Rips\Dizzy Gillespie - Dizzy In South America, Vol. 1-3\Dizzy Gillespie - Dizzy In South America, Vol. 2\05 - Because Of You.wav

Peak level 96.5 %
Extraction speed 3.1 X
Track quality 100.0 %
Copy CRC 4AE69709
Accurately ripped (confidence 1) [F9992835] (AR v2)
Copy OK

Track 6

Filename C:\Rips\Dizzy Gillespie - Dizzy In South America, Vol. 1-3\Dizzy Gillespie - Dizzy In South America, Vol. 2\06 - I'm Confessin'.wav

Peak level 96.5 %
Extraction speed 2.8 X
Track quality 99.9 %
Copy CRC 89C4D7DD
Accurately ripped (confidence 1) [44461528] (AR v2)
Copy OK

Track 7

Filename C:\Rips\Dizzy Gillespie - Dizzy In South America, Vol. 1-3\Dizzy Gillespie - Dizzy In South America, Vol. 2\07 - Doodlin'.wav

Peak level 96.6 %
Extraction speed 2.9 X
Track quality 99.9 %
Copy CRC 7C55A5B6
Accurately ripped (confidence 1) [FC9EB759] (AR v2)
Copy OK

Track 8

Filename C:\Rips\Dizzy Gillespie - Dizzy In South America, Vol. 1-3\Dizzy Gillespie - Dizzy In South America, Vol. 2\08 - My Reverie.wav

Peak level 96.5 %
Extraction speed 3.3 X
Track quality 100.0 %
Copy CRC 0C3B7F30
Accurately ripped (confidence 1) [6B2E6181] (AR v2)
Copy OK

Track 9

Filename C:\Rips\Dizzy Gillespie - Dizzy In South America, Vol. 1-3\Dizzy Gillespie - Dizzy In South America, Vol. 2\09 - Tin Tin Daeo.wav

Peak level 96.5 %
Extraction speed 3.5 X
Track quality 100.0 %
Copy CRC BF2B2961
Accurately ripped (confidence 1) [B92FC8A0] (AR v2)
Copy OK

Track 10

Filename C:\Rips\Dizzy Gillespie - Dizzy In South America, Vol. 1-3\Dizzy Gillespie - Dizzy In South America, Vol. 2\10 - The Champ.wav

Peak level 96.6 %
Extraction speed 3.9 X
Track quality 100.0 %
Copy CRC 41B2BF5A
Accurately ripped (confidence 1) [548C8687] (AR v2)
Copy OK


All tracks accurately ripped

No errors occurred

End of status report

–– CUETools DB Plugin V2.1.4

[CTDB TOCID: _bQJCJdLRRv7Aych6e9j_q_1O_k-] disk not present in database
Submit result: _bQJCJdLRRv7Aych6e9j_q_1O_k- has been uploaded


==== Log checksum 0EAA133A5081CF523DA9111492A7C673A6E56324901AC38BFF672527AAB0185A ====

foobar2000 1.2 / Dynamic Range Meter 1.1.1
log date: 2016-06-16 13:46:45

––––––––––––––––––––––––––––––––––––––––
Analyzed: Dizzy Gillespie / Dizzy In South America, Vol. 2
––––––––––––––––––––––––––––––––––––––––

DR Peak RMS Duration Track
––––––––––––––––––––––––––––––––––––––––
DR8 -0.30 dB -10.86 dB 5:53 01-Groovin' High
DR9 -0.30 dB -12.55 dB 4:46 02-Begin the Beguine
DR9 -0.30 dB -13.13 dB 14:58 03-Hey Pete, Let's Eat More Meat
DR10 -0.30 dB -14.44 dB 4:18 04-Wonder Why
DR9 -0.30 dB -12.70 dB 4:39 05-Because Of You
DR9 -0.30 dB -13.12 dB 4:21 06-I'm Confessin'
DR8 -0.30 dB -12.50 dB 4:25 07-Doodlin'
DR11 -0.30 dB -13.57 dB 3:24 08-My Reverie
DR10 -0.30 dB -13.38 dB 4:44 09-Tin Tin Daeo
DR11 -0.30 dB -13.85 dB 6:43 10-The Champ
––––––––––––––––––––––––––––––––––––––––

Number of tracks: 10
Official DR value: DR9

Samplerate: 44100 Hz
Channels: 2
Bits per sample: 16
Bitrate: 621 kbps
Codec: FLAC
================================================================================

Dizzy Gillespie - Dizzy in South America: Official U.S. State Department Tour, 1956, Volumes 1-3 (1999-2001) 4CDs





Dizzy Gillespie - Dizzy in South America: Official U.S. State Department Tour, 1956, Volumes 1-3 (1999-2001) 4CDs

Dizzy Gillespie - Dizzy in South America: Official U.S. State Department Tour, 1956, Vol. 3 (2001) 2CDs
EAC | FLAC | Tracks (Cue&Log) ~ 868 Mb | Mp3 (CBR320) ~ 371 Mb | Scans included
Label: Consolidated Artists Productions | # CAP 935 | Time: 02:29:01

The third and final volume of previously unreleased recordings by the 1956 Dizzy Gillespie Orchestra during its tour of South America differs from the earlier two volumes in a few ways. This is a two-CD set rather than a single disc and the entire second disc, along with the last half hour of the first, is taken up by interviews. The two-fer begins with two songs from Gillespie's big band ("Yesterdays," featuring altoist Phil Woods, and "A Night in Tunisia") and then six intriguing selections featuring Dizzy with a samba orchestra in Buenos Aires. The latter performances were formerly unknown and are quite good, finding Gillespie adapting himself easily to the South American rhythms. The remainder of this two-fer is comprised of interviews, with Gillespie heard in 1956 and most of the other discussions being from 2000-2001. Reminiscing about the tour and the band in general are Woods, Quincy Jones, Billy Mitchell, Charlie Persip, Benny Golson, Rod Levitt, and Lalo Schifrin. The discussions are often heartwarming and sometimes witty, but are really only worth hearing once, making this set (despite the samba selections) only of limited interest.

Review by Scott Yanow, Allmusic.com

Tracklist:

CD1:

01. Yesterdays (4:12)
02. Night In Tunisia (8:52)
03. Cepao's Samba (11:50)
04. Gloria Samba (2:45)
05. Adios Muchachos (3:41)
06. Preludio No. 3 (4:01)
07. Capricio de Amor (3:44)
08. Vida Mia (3:54)
09. Dizzy 1956 Introduction (0:11)
10. Dizzy Interview (9:48)
11. Jones Introduction (0:06)
12. Quincy Jones Interview (7:15)
13. Woods Introduction (0:05)
14. Phil Woods Interview (15:14)

CD2:

01. Mitchell, Persip, Frazier Introduction (0:19)
02. Billy Mitchell, Charlie Persip, Boo Frazier Interview (31:55)
03. Golson, Levitt Introduction (0:15)
04. Benny Golson, Rod Levitt Interview (31:34)
05. Lalo Introduction (0:07)
06. Lalo Schifrin Interview (9:24)


Exact Audio Copy V1.0 beta 4 from 7. December 2014

EAC extraction logfile from 13. June 2016, 11:08

Dizzy Gillespie / Dizzy In South America, Vol. 3

Used drive : HL-DT-STDVD+-RW GH82N Adapter: 1 ID: 0

Read mode : Secure
Utilize accurate stream : Yes
Defeat audio cache : Yes
Make use of C2 pointers : No

Read offset correction : 667
Overread into Lead-In and Lead-Out : No
Fill up missing offset samples with silence : Yes
Delete leading and trailing silent blocks : No
Null samples used in CRC calculations : Yes
Used interface : Native Win32 interface for Win NT & 2000
Gap handling : Appended to previous track

Used output format : User Defined Encoder
Selected bitrate : 1024 kBit/s
Quality : High
Add ID3 tag : No
Command line compressor : C:\Program Files (x86)\Exact Audio Copy\FLAC\FLAC.EXE
Additional command line options : -6 -V -T "ARTIST=%artist%" -T "TITLE=%title%" -T "ALBUM=%albumtitle%" -T "DATE=%year%" -T "TRACKNUMBER=%tracknr%" -T "GENRE=%genre%" -T "COMMENT=%comment%" -T "BAND=%albuminterpret%" -T "ALBUMARTIST=%albuminterpret%" -T "COMPOSER=%composer%" %haslyrics%–tag-from-file=LYRICS="%lyricsfile%"%haslyrics% -T "DISCNUMBER=%cdnumber%" -T "TOTALDISCS=%totalcds%" -T "TOTALTRACKS=%numtracks%" %hascover%–picture="%coverfile%"%hascover% %source% -o %dest%


TOC of the extracted CD

Track | Start | Length | Start sector | End sector
––––––––––––––––––––––––––––-
1 | 0:00.00 | 4:11.20 | 0 | 18844
2 | 4:11.20 | 8:51.22 | 18845 | 58691
3 | 13:02.42 | 11:49.05 | 58692 | 111871
4 | 24:51.47 | 2:44.13 | 111872 | 124184
5 | 27:35.60 | 3:40.10 | 124185 | 140694
6 | 31:15.70 | 4:00.30 | 140695 | 158724
7 | 35:16.25 | 3:43.40 | 158725 | 175489
8 | 38:59.65 | 3:53.47 | 175490 | 193011
9 | 42:53.37 | 0:10.15 | 193012 | 193776
10 | 43:03.52 | 9:47.65 | 193777 | 237866
11 | 52:51.42 | 0:05.73 | 237867 | 238314
12 | 52:57.40 | 7:14.57 | 238315 | 270921
13 | 60:12.22 | 0:04.30 | 270922 | 271251
14 | 60:16.52 | 15:13.35 | 271252 | 339761


Track 1

Filename C:\Rips\Dizzy Gillespie - Dizzy In South America, Vol. 1-3\Dizzy Gillespie - Dizzy In South America, Vol. 3\CD 1\01 - Yesterdays.wav

Pre-gap length 0:00:02.00

Peak level 100.0 %
Extraction speed 1.8 X
Track quality 100.0 %
Copy CRC D52C4719
Accurately ripped (confidence 1) [BABB8E6B] (AR v1)
Copy OK

Track 2

Filename C:\Rips\Dizzy Gillespie - Dizzy In South America, Vol. 1-3\Dizzy Gillespie - Dizzy In South America, Vol. 3\CD 1\02 - Night In Tunisia.wav

Peak level 100.0 %
Extraction speed 2.3 X
Track quality 100.0 %
Copy CRC C83C7FD8
Accurately ripped (confidence 1) [2FAE6616] (AR v1)
Copy OK

Track 3

Filename C:\Rips\Dizzy Gillespie - Dizzy In South America, Vol. 1-3\Dizzy Gillespie - Dizzy In South America, Vol. 3\CD 1\03 - Cepao's Samba.wav

Pre-gap length 0:00:01.10

Peak level 100.0 %
Extraction speed 2.8 X
Track quality 100.0 %
Copy CRC C69DB7C1
Accurately ripped (confidence 1) [49177490] (AR v1)
Copy OK

Track 4

Filename C:\Rips\Dizzy Gillespie - Dizzy In South America, Vol. 1-3\Dizzy Gillespie - Dizzy In South America, Vol. 3\CD 1\04 - Gloria Samba.wav

Pre-gap length 0:00:01.27

Peak level 99.1 %
Extraction speed 2.6 X
Track quality 100.0 %
Copy CRC FAC34F96
Accurately ripped (confidence 1) [82CB0B55] (AR v1)
Copy OK

Track 5

Filename C:\Rips\Dizzy Gillespie - Dizzy In South America, Vol. 1-3\Dizzy Gillespie - Dizzy In South America, Vol. 3\CD 1\05 - Adios Muchachos.wav

Pre-gap length 0:00:00.65

Peak level 100.0 %
Extraction speed 2.8 X
Track quality 100.0 %
Copy CRC 043FC45E
Accurately ripped (confidence 1) [DBBE353D] (AR v1)
Copy OK

Track 6

Filename C:\Rips\Dizzy Gillespie - Dizzy In South America, Vol. 1-3\Dizzy Gillespie - Dizzy In South America, Vol. 3\CD 1\06 - Preludio No. 3.wav

Pre-gap length 0:00:00.73

Peak level 100.0 %
Extraction speed 3.0 X
Track quality 100.0 %
Copy CRC 4C02212D
Accurately ripped (confidence 1) [81882B73] (AR v1)
Copy OK

Track 7

Filename C:\Rips\Dizzy Gillespie - Dizzy In South America, Vol. 1-3\Dizzy Gillespie - Dizzy In South America, Vol. 3\CD 1\07 - Capricio de Amor.wav

Pre-gap length 0:00:01.25

Peak level 100.0 %
Extraction speed 3.1 X
Track quality 100.0 %
Copy CRC 402A402E
Accurately ripped (confidence 1) [990A4D93] (AR v1)
Copy OK

Track 8

Filename C:\Rips\Dizzy Gillespie - Dizzy In South America, Vol. 1-3\Dizzy Gillespie - Dizzy In South America, Vol. 3\CD 1\08 - Vida Mia.wav

Pre-gap length 0:00:01.25

Peak level 98.4 %
Extraction speed 3.1 X
Track quality 100.0 %
Copy CRC 53042CA5
Accurately ripped (confidence 1) [B9916456] (AR v1)
Copy OK

Track 9

Filename C:\Rips\Dizzy Gillespie - Dizzy In South America, Vol. 1-3\Dizzy Gillespie - Dizzy In South America, Vol. 3\CD 1\09 - Dizzy 1956 Introduction.wav

Pre-gap length 0:00:00.57

Peak level 73.9 %
Extraction speed 0.7 X
Track quality 100.0 %
Copy CRC 05B3C8B5
Accurately ripped (confidence 1) [83B3E8CD] (AR v1)
Copy OK

Track 10

Filename C:\Rips\Dizzy Gillespie - Dizzy In South America, Vol. 1-3\Dizzy Gillespie - Dizzy In South America, Vol. 3\CD 1\10 - Dizzy Interview.wav

Pre-gap length 0:00:00.70

Peak level 100.0 %
Extraction speed 3.7 X
Track quality 100.0 %
Copy CRC C123AB68
Accurately ripped (confidence 1) [CFDAFC05] (AR v1)
Copy OK

Track 11

Filename C:\Rips\Dizzy Gillespie - Dizzy In South America, Vol. 1-3\Dizzy Gillespie - Dizzy In South America, Vol. 3\CD 1\11 - Jones Introduction.wav

Pre-gap length 0:00:00.57

Peak level 72.8 %
Extraction speed 0.2 X
Track quality 98.1 %
Copy CRC 8E654668
Track not present in AccurateRip database
Copy OK

Track 12

Filename C:\Rips\Dizzy Gillespie - Dizzy In South America, Vol. 1-3\Dizzy Gillespie - Dizzy In South America, Vol. 3\CD 1\12 - Quincy Jones Interview.wav

Pre-gap length 0:00:01.73

Peak level 100.0 %
Extraction speed 3.8 X
Track quality 100.0 %
Copy CRC 39AFB865
Accurately ripped (confidence 1) [A4A66DE1] (AR v1)
Copy OK

Track 13

Filename C:\Rips\Dizzy Gillespie - Dizzy In South America, Vol. 1-3\Dizzy Gillespie - Dizzy In South America, Vol. 3\CD 1\13 - Woods Introduction.wav

Pre-gap length 0:00:01.05

Peak level 75.6 %
Extraction speed 0.4 X
Track quality 100.0 %
Copy CRC 8CF6CCF0
Track not present in AccurateRip database
Copy OK

Track 14

Filename C:\Rips\Dizzy Gillespie - Dizzy In South America, Vol. 1-3\Dizzy Gillespie - Dizzy In South America, Vol. 3\CD 1\14 - Phil Woods Interview.wav

Peak level 100.0 %
Extraction speed 4.3 X
Track quality 100.0 %
Copy CRC D78385C3
Accurately ripped (confidence 1) [EBDF700B] (AR v1)
Copy OK


12 track(s) accurately ripped
2 track(s) not present in the AccurateRip database

Some tracks could not be verified as accurate

No errors occurred

End of status report

–– CUETools DB Plugin V2.1.4

[CTDB TOCID: aF.Gui3EQ9xywedE2IhU4F4lQv0-] disk not present in database
Submit result: aF.Gui3EQ9xywedE2IhU4F4lQv0- has been uploaded


==== Log checksum 0B935B1CDA0A5BAF8573620083F7903105B4F675BB3B521238BA4F4B3E016AA1 ====

[CUETools log; Date: 30.06.2022 15:14:40; Version: 2.1.7]
[CTDB TOCID: aF.Gui3EQ9xywedE2IhU4F4lQv0-] found.
Track | CTDB Status
1 | (2/2) Accurately ripped
2 | (2/2) Accurately ripped
3 | (2/2) Accurately ripped
4 | (2/2) Accurately ripped
5 | (2/2) Accurately ripped
6 | (2/2) Accurately ripped
7 | (2/2) Accurately ripped
8 | (2/2) Accurately ripped
9 | (2/2) Accurately ripped
10 | (2/2) Accurately ripped
11 | (2/2) Accurately ripped
12 | (2/2) Accurately ripped
13 | (2/2) Accurately ripped
14 | (2/2) Accurately ripped
[AccurateRip ID: 0026a823-018fe8e4-d911b20e] found.
Track [ CRC | V2 ] Status
01 [babb8e6b|f826201d] (1+1/3) Accurately ripped
02 [2fae6616|25dc39c5] (1+1/3) Accurately ripped
03 [49177490|bef433d3] (1+1/3) Accurately ripped
04 [82cb0b55|40c8f9de] (1+1/3) Accurately ripped
05 [dbbe353d|c92defe0] (1+1/3) Accurately ripped
06 [81882b73|1c9db748] (1+1/3) Accurately ripped
07 [990a4d93|a4bb38cf] (1+1/3) Accurately ripped
08 [b9916456|89d5374b] (1+1/3) Accurately ripped
09 [83b3e8cd|15f6534a] (1+1/3) Accurately ripped
10 [cfdafc05|e605a678] (1+1/3) Accurately ripped
11 [01e614e1|1cbd13c5] (0+1/2) Accurately ripped
12 [a4a66de1|bedecddb] (1+1/3) Accurately ripped
13 [fbf0d63a|c313afb4] (0+1/2) Accurately ripped
14 [ebdf700b|bdbf33be] (1+1/3) Accurately ripped
Offsetted by -24:
01 [39257428] (1/3) Accurately ripped
02 [55014645] (1/3) Accurately ripped
03 [6e1d0640] (1/3) Accurately ripped
04 [fb116965] (1/3) Accurately ripped
05 [7bbe19f5] (1/3) Accurately ripped
06 [3e90b5bb] (1/3) Accurately ripped
07 [e717d0d3] (1/3) Accurately ripped
08 [410193de] (1/3) Accurately ripped
09 [262c054d] (1/3) Accurately ripped
10 [c4b32bbd] (1/3) Accurately ripped
11 [a6de0461] (1/2) Accurately ripped
12 [7a5c10c9] (1/3) Accurately ripped
13 [e61b2f2a] (1/2) Accurately ripped
14 [f216e193] (1/3) Accurately ripped

Track Peak [ CRC32 ] [W/O NULL] [ LOG ]
– 100,0 [0C803EBA] [8C383C88]
01 100,0 [D52C4719] [5D32FBDC] CRC32
02 100,0 [C83C7FD8] [1AF49958] CRC32
03 100,0 [C69DB7C1] [BF608BEA] CRC32
04 99,1 [FAC34F96] [D4DF9F24] CRC32
05 100,0 [043FC45E] [D41F8DC5] CRC32
06 100,0 [4C02212D] [547B1F85] CRC32
07 100,0 [402A402E] [BE616491] CRC32
08 98,4 [53042CA5] [8B75F5BB] CRC32
09 73,9 [05B3C8B5] [B7C91BF6] CRC32
10 100,0 [C123AB68] [5085F555] CRC32
11 72,8 [8E654668] [4D132D76] CRC32
12 100,0 [39AFB865] [879C5A0D] CRC32
13 75,6 [8CF6CCF0] [137C7137] CRC32
14 100,0 [D78385C3] [8AD2CF87] CRC32

foobar2000 1.6.3 / Dynamic Range Meter 1.1.1
log date: 2022-06-30 15:13:19

––––––––––––––––––––––––––––––––––––––––
Analyzed: Dizzy Gillespie / Dizzy In South America, Vol. 3
––––––––––––––––––––––––––––––––––––––––

DR Peak RMS Duration Track
––––––––––––––––––––––––––––––––––––––––
DR7 0.00 dB -8.60 dB 4:11 01-Yesterdays
DR8 0.00 dB -10.00 dB 8:51 02-Night In Tunisia
DR7 0.00 dB -9.84 dB 11:49 03-Cepao's Samba
DR6 -0.07 dB -7.19 dB 2:44 04-Gloria Samba
DR8 0.00 dB -12.20 dB 3:40 05-Adios Muchachos
DR8 0.00 dB -11.08 dB 4:00 06-Preludio No. 3
DR8 0.00 dB -10.83 dB 3:44 07-Capricio de Amor
DR9 -0.13 dB -12.87 dB 3:54 08-Vida Mia
DR12 -2.62 dB -14.88 dB 0:10 09-Dizzy 1956 Introduction
DR9 0.00 dB -10.92 dB 9:48 10-Dizzy Interview
DR12 -2.75 dB -15.22 dB 0:06 11-Jones Introduction
DR8 0.00 dB -10.57 dB 7:15 12-Quincy Jones Interview
DR10 -2.43 dB -12.87 dB 0:04 13-Woods Introduction
DR11 0.00 dB -14.05 dB 15:13 14-Phil Woods Interview
––––––––––––––––––––––––––––––––––––––––

Number of tracks: 14
Official DR value: DR9

Samplerate: 44100 Hz
Channels: 2
Bits per sample: 16
Bitrate: 875 kbps
Codec: FLAC
================================================================================


Exact Audio Copy V1.0 beta 4 from 7. December 2014

EAC extraction logfile from 13. June 2016, 11:36

Dizzy Gillespie / Dizzy In South America, Vol. 3

Used drive : HL-DT-STDVD+-RW GH82N Adapter: 1 ID: 0

Read mode : Secure
Utilize accurate stream : Yes
Defeat audio cache : Yes
Make use of C2 pointers : No

Read offset correction : 667
Overread into Lead-In and Lead-Out : No
Fill up missing offset samples with silence : Yes
Delete leading and trailing silent blocks : No
Null samples used in CRC calculations : Yes
Used interface : Native Win32 interface for Win NT & 2000
Gap handling : Appended to previous track

Used output format : User Defined Encoder
Selected bitrate : 1024 kBit/s
Quality : High
Add ID3 tag : No
Command line compressor : C:\Program Files (x86)\Exact Audio Copy\FLAC\FLAC.EXE
Additional command line options : -6 -V -T "ARTIST=%artist%" -T "TITLE=%title%" -T "ALBUM=%albumtitle%" -T "DATE=%year%" -T "TRACKNUMBER=%tracknr%" -T "GENRE=%genre%" -T "COMMENT=%comment%" -T "BAND=%albuminterpret%" -T "ALBUMARTIST=%albuminterpret%" -T "COMPOSER=%composer%" %haslyrics%–tag-from-file=LYRICS="%lyricsfile%"%haslyrics% -T "DISCNUMBER=%cdnumber%" -T "TOTALDISCS=%totalcds%" -T "TOTALTRACKS=%numtracks%" %hascover%–picture="%coverfile%"%hascover% %source% -o %dest%


TOC of the extracted CD

Track | Start | Length | Start sector | End sector
––––––––––––––––––––––––––––-
1 | 0:00.00 | 0:18.11 | 0 | 1360
2 | 0:18.11 | 31:54.51 | 1361 | 144961
3 | 32:12.62 | 0:14.38 | 144962 | 146049
4 | 32:27.25 | 31:33.22 | 146050 | 288046
5 | 64:00.47 | 0:06.19 | 288047 | 288515
6 | 64:06.66 | 9:23.18 | 288516 | 330758


Track 1

Filename C:\Rips\Dizzy Gillespie - Dizzy In South America, Vol. 1-3\Dizzy Gillespie - Dizzy In South America, Vol. 3\CD 2\01 - Mitchell, Persip, Frazier Introduction.wav

Pre-gap length 0:00:02.00

Peak level 71.8 %
Extraction speed 0.6 X
Track quality 100.0 %
Copy CRC 835DE3D6
Accurately ripped (confidence 1) [9ABCFF85] (AR v1)
Copy OK

Track 2

Filename C:\Rips\Dizzy Gillespie - Dizzy In South America, Vol. 1-3\Dizzy Gillespie - Dizzy In South America, Vol. 3\CD 2\02 - Billy Mitchell, Charlie Persip, Boo Frazier Interview.wav

Pre-gap length 0:00:02.00

Peak level 96.6 %
Extraction speed 2.7 X
Track quality 100.0 %
Copy CRC 4BEB77E0
Accurately ripped (confidence 1) [FA105E3E] (AR v1)
Copy OK

Track 3

Filename C:\Rips\Dizzy Gillespie - Dizzy In South America, Vol. 1-3\Dizzy Gillespie - Dizzy In South America, Vol. 3\CD 2\03 - Golson, Levitt Introduction.wav

Pre-gap length 0:00:02.00

Peak level 74.9 %
Extraction speed 0.8 X
Track quality 100.0 %
Copy CRC ED2E1622
Accurately ripped (confidence 1) [1643BEBD] (AR v1)
Copy OK

Track 4

Filename C:\Rips\Dizzy Gillespie - Dizzy In South America, Vol. 1-3\Dizzy Gillespie - Dizzy In South America, Vol. 3\CD 2\04 - Benny Golson, Rod Levitt Interview.wav

Pre-gap length 0:00:02.00

Peak level 100.0 %
Extraction speed 3.9 X
Track quality 100.0 %
Copy CRC 04FDC6A1
Accurately ripped (confidence 1) [B63EB6A6] (AR v1)
Copy OK

Track 5

Filename C:\Rips\Dizzy Gillespie - Dizzy In South America, Vol. 1-3\Dizzy Gillespie - Dizzy In South America, Vol. 3\CD 2\05 - Lalo Introduction.wav

Pre-gap length 0:00:02.00

Peak level 73.2 %
Extraction speed 0.5 X
Track quality 100.0 %
Copy CRC 90772D37
Track not present in AccurateRip database
Copy OK

Track 6

Filename C:\Rips\Dizzy Gillespie - Dizzy In South America, Vol. 1-3\Dizzy Gillespie - Dizzy In South America, Vol. 3\CD 2\06 - Lalo Schifrin Interview.wav

Pre-gap length 0:00:02.00

Peak level 74.9 %
Extraction speed 4.3 X
Track quality 100.0 %
Copy CRC C8C7FCB9
Cannot be verified as accurate (confidence 1) [37812BB7], AccurateRip returned [6900727A] (AR v2)
Copy OK


4 track(s) accurately ripped
1 track(s) could not be verified as accurate
1 track(s) not present in the AccurateRip database

Some tracks could not be verified as accurate

No errors occurred

End of status report

–– CUETools DB Plugin V2.1.4

[CTDB TOCID: lVSq7sXmyhYjDSrqPwAUushX83I-] disk not present in database
Submit result: lVSq7sXmyhYjDSrqPwAUushX83I- has been uploaded


==== Log checksum 0CD61E9B2EDBE9ED625C8B40FDE41CE9535BBE26E517DC42B2BA3D781E76B99E ====

[CUETools log; Date: 30.06.2022 15:14:55; Version: 2.1.7]
[CTDB TOCID: lVSq7sXmyhYjDSrqPwAUushX83I-] found.
Track | CTDB Status
1 | (2/2) Accurately ripped
2 | (2/2) Accurately ripped
3 | (2/2) Accurately ripped
4 | (2/2) Accurately ripped
5 | (2/2) Accurately ripped
6 | (2/2) Accurately ripped
[AccurateRip ID: 00124e4f-00634fa5-54113a06] found.
Track [ CRC | V2 ] Status
01 [9abcff85|1fcaac1b] (1+1/3) Accurately ripped
02 [fa105e3e|823eafed] (1+1/3) Accurately ripped
03 [1643bebd|366df962] (1+1/3) Accurately ripped
04 [b63eb6a6|5d16fa1d] (1+1/3) Accurately ripped
05 [90d87bfe|7bf80da2] (0+1/2) Accurately ripped
06 [e80dc471|37812bb7] (0+1/3) Accurately ripped
Offsetted by -24:
01 [1e8cc245] (1/3) Accurately ripped
02 [13a70d76] (1/3) Accurately ripped
03 [4b53d47d] (1/3) Accurately ripped
04 [41ab1596] (1/3) Accurately ripped
05 [f6fabd7e] (1/2) Accurately ripped
06 [6900727a] (1/3) Accurately ripped

Track Peak [ CRC32 ] [W/O NULL] [ LOG ]
– 100,0 [739813F0] [5DE695B3]
01 71,8 [835DE3D6] [BB342E69] CRC32
02 96,6 [4BEB77E0] [6356340E] CRC32
03 74,9 [ED2E1622] [A2E8DC69] CRC32
04 100,0 [04FDC6A1] [8DEB7279] CRC32
05 73,2 [90772D37] [0271DB04] CRC32
06 74,9 [C8C7FCB9] [BBE3F57A] CRC32

foobar2000 1.6.3 / Dynamic Range Meter 1.1.1
log date: 2022-06-30 15:13:37

––––––––––––––––––––––––––––––––––––––––
Analyzed: Dizzy Gillespie / Dizzy In South America, Vol. 3
––––––––––––––––––––––––––––––––––––––––

DR Peak RMS Duration Track
––––––––––––––––––––––––––––––––––––––––
DR9 -2.88 dB -15.47 dB 0:18 01-Mitchell, Persip, Frazier Introduction
DR7 -0.30 dB -9.46 dB 31:55 02-Billy Mitchell, Charlie Persip, Boo Frazier Interview
DR8 -2.51 dB -14.17 dB 0:15 03-Golson, Levitt Introduction
DR8 0.00 dB -11.16 dB 31:33 04-Benny Golson, Rod Levitt Interview
DR8 -2.70 dB -16.01 dB 0:06 05-Lalo Introduction
DR9 -2.51 dB -12.61 dB 9:23 06-Lalo Schifrin Interview
––––––––––––––––––––––––––––––––––––––––

Number of tracks: 6
Official DR value: DR8

Samplerate: 44100 Hz
Channels: 2
Bits per sample: 16
Bitrate: 347 kbps
Codec: FLAC
================================================================================

Dizzy Gillespie - Dizzy in South America: Official U.S. State Department Tour, 1956, Volumes 1-3 (1999-2001) 4CDs





All thanks to original releaser - hoppyharrington

More interesting music in My Blog