Tags
Language
Tags
July 2024
Su Mo Tu We Th Fr Sa
30 1 2 3 4 5 6
7 8 9 10 11 12 13
14 15 16 17 18 19 20
21 22 23 24 25 26 27
28 29 30 31 1 2 3

Cream - Albums Collection 1966-1972 (7CD) Non-Remastered Releases

Posted By: Designol
Cream - Albums Collection 1966-1972 (7CD) Non-Remastered Releases

Cream - Albums Collection 1966-1972 (7CD) Non-Remastered Releases
EAC | FLAC | Image (Cue&Log) ~ 1.94 Gb | Mp3 (CBR320) ~ 756 Mb | Scans included
Classic Rock, British Psychedelia, Blues Rock, Hard Rock | Time: 04:36:33

Collection includes: 'Fresh Cream' (1966); 'Disraeli Gears' (1967); 'Wheels of Fire' (1968); 'Goodbye' (1969); 'Live Cream' (1970) and 'Live Cream II' (1972).

Although Cream was only together for a little more than two years, their influence was immense, both during their late-'60s peak and in the years following their breakup. Cream was the first top group to truly exploit the power-trio format, in the process laying the foundation for much blues-rock and hard rock of the 1960s and 1970s. It was with Cream, too, that guitarist Eric Clapton truly became an international superstar. Critical revisionists have tagged the band as overrated, citing the musicians' emphasis upon flash, virtuosity, and showmanship at the expense of taste and focus. This was sometimes true of their live shows in particular, but in reality the best of their studio recordings were excellent fusions of blues, pop, and psychedelia, with concise original material outnumbering the bloated blues jams and overlong solos.

Cream could be viewed as the first rock supergroup to become superstars, although none of the three members were that well-known when the band formed in mid-1966. Eric Clapton had the biggest reputation, having established himself as a guitar hero first with the Yardbirds, and then in a more blues-intensive environment with John Mayall's Bluesbreakers. (In the States, however, he was all but unknown, having left the Yardbirds before "For Your Love" made the American Top Ten.) Bassist/singer Jack Bruce and drummer Ginger Baker had both been in the Graham Bond Organisation, an underrated British R&B combo that drew extensively upon the jazz backgrounds of the musicians. Bruce had also been, very briefly, a member of the Bluesbreakers along Clapton, and also briefly a member of Manfred Mann when he became especially eager to pay the rent.

All three of the musicians yearned to break free of the confines of the standard rock/R&B/blues group, in a unit that would allow them greater instrumental and improvisational freedom, somewhat in the mold of a jazz outfit. Eric Clapton's stunning guitar solos would get much of the adulation, yet Bruce was at least as responsible for shaping the group's sound, singing most of the material in his rich voice. He also wrote their best original compositions, sometimes in collaboration with outside lyricist Pete Brown.

At first Cream's focus was electrified and amped-up traditional blues, which dominated their first album, Fresh Cream, which made the British Top Ten in early 1967. Originals like "N.S.U." and "I Feel Free" gave notice that the band were capable of moving beyond the blues, and they truly found their voice on Disraeli Gears in late 1967, which consisted mostly of group-penned songs. Here they fashioned invigorating, sometimes beguiling hard-driving psychedelic pop, which included plenty of memorable melodies and effective harmonies along with the expected crunching riffs. "Strange Brew," "Dance the Night Away," "Tales of Brave Ulysses," and "S.W.L.A.B.R." are all among their best tracks, and the album broke the band big time in the States, reaching the Top Five. It also generated their first big U.S. hit single, "Sunshine of Your Love," which was based around one of the most popular hard rock riffs of the '60s.

With the double album Wheels of Fire, Cream topped the American charts in 1968, establishing themselves alongside the Beatles and Hendrix as one of the biggest rock acts in the world. The record itself was a more erratic affair than Disraeli Gears, perhaps dogged by the decision to present separate discs of studio and live material; the concert tracks in particular did much to establish their reputation, for good or ill, for stretching songs way past the ten-minute mark on-stage. The majestically doomy "White Room" gave Cream another huge American single, and the group was firmly established as one of the biggest live draws of any kind. Their decision to disband in late 1968 – at a time when they were seemingly on top of the world – came as a shock to most of the rock audience.

Сream's short lifespan, however, was in hindsight unsurprising given the considerable talents, ambitions, and egos of each of its members. Clapton in particular was tired of blowing away listeners with sheer power, and wanted to explore more subtle directions. After a farewell tour of the States, the band broke up in November 1968. In 1969, however, they were in a sense bigger than ever; a posthumous album featuring both studio and live material, Goodbye, made number two, highlighted by the haunting Eric Clapton-George Harrison composition "Badge," which remains one of Cream's most beloved tracks.

Clapton and Baker would quickly resurface in 1969 as half of another short-lived supergroup, Blind Faith, and Clapton of course went on to one of the longest and most successful careers of anyone in the rock business. Bruce and Baker never attained nearly as high a profile after leaving Cream, but both kept busy in the ensuing decades with various interesting projects in the fields of rock, jazz, and experimental music.

Biography by Richie Unterberger, Allmusic.com

Cream - Albums Collection 1966-1972 (7CD) Non-Remastered Releases





Cream - Albums Collection 1966-1972 (7CD) Non-Remastered Releases

Cream - Fresh Cream (1966)
EAC | FLAC | Image (Cue&Log) ~ 346 Mb | Mp3 (CBR320) ~ 124 Mb
Label: Polydor/PolyGram | # 827 576-2 | Time: 00:46:23 | Scans included

Fresh Cream represents so many different firsts, it's difficult to keep count. Cream, of course, was the first supergroup, but their first album not only gave birth to the power trio, it also was instrumental in the birth of heavy metal and the birth of jam rock. That's a lot of weight for one record and, like a lot of pioneering records, Fresh Cream doesn't seem quite as mighty as what would come later, both from the group and its acolytes. In retrospect, the moments on the LP that are a bit unformed – in particular, the halting waltz of "Dreaming" never achieves the sweet ethereal atmosphere it aspires to – stand out more than the innovations, which have been so thoroughly assimilated into the vocabulary of rock & roll, but Fresh Cream was a remarkable shift forward in rock upon its 1966 release and it remains quite potent. Certainly at this early stage the trio was still grounded heavily in blues, only fitting given guitarist Eric Clapton's stint in John Mayall's Bluesbreakers, which is where he first played with bassist Jack Bruce, but Cream never had the purist bent of Mayall, and not just because they dabbled heavily in psychedelia. The rhythm section of Bruce and Ginger Baker had a distinct jazzy bent to their beat; this isn't hard and pure, it's spongy and elastic, giving the musicians plenty of room to roam. This fluidity is most apparent on the blues covers that take up nearly half the record, especially on "Spoonful," where the swirling instrumental interplay, echo, fuzz tones, and overwhelming volume constitute true psychedelic music, and also points strongly toward the guitar worship of heavy metal. Almost all the second side of Fresh Cream is devoted to this, closing with Baker's showcase "Toad," but for as hard and restless as this half of the album is, there is some lightness on the first portion of the record where Bruce reveals himself as an inventive psychedelic pop songwriter with the tense, colorful "N.S.U." and the hook- and harmony-laden "I Feel Free." Cream shows as much force and mastery on these tighter, poppier tunes as they do on the free-flowing jams, yet they show a clear bias toward the long-form blues numbers, which makes sense: they formed to be able to pursue this freedom, which they do so without restraint. If at times that does make the album indulgent or lopsided, this is nevertheless where Cream was feeling their way forward, creating their heavy psychedelic jazz-blues and, in the process, opening the door to all kinds of serious rock music that may have happened without Fresh Cream, but it just would not have happened in the same fashion as it did with this record as precedent.

Review by Stephen Thomas Erlewine, Allmusic.com


Tracklist:

01. I Feel Free (02:52)
02. N.S.U. (02:44)
03. Sleepy Time Time (04:20)
04. Dreaming (01:59)
05. Sweet Wine (03:18)
06. Spoonful (06:30)
07. Cat's Squirrel (03:05)
08. Four Until Late (02:07)
09. Rollin 'And Tumblin' (04:42)
10. I'm So Glad (03:58)
11. Toad (05:10)
12. The Coffee Song (02:44)
13. Wrapping Paper (02:22)


Exact Audio Copy V1.0 beta 3 from 29. August 2011

Отчёт EAC об извлечении, выполненном 15. августа 2013, 17:37

Cream / Fresh Cream

Дисковод: SONY CD-RW CRX230ED Adapter: 0 ID: 1

Режим чтения : Достоверность
Использование точного потока : Да
Отключение кэша аудио : Да
Использование указателей C2 : Нет

Коррекция смещения при чтении : 6
Способность читать области Lead-in и Lead-out : Нет
Заполнение пропущенных сэмплов тишиной : Да
Удаление блоков с тишиной в начале и конце : Нет
При вычислениях CRC использовались нулевые сэмплы : Да
Интерфейс : Установленный внешний ASPI-интерфейс

Выходной формат : Внутренние WAV-операции
Формат сэмплов : 44.100 Гц; 16 бит; стерео


TOC извлечённого CD

Трек | Старт | Длительность | Начальный сектор | Конечный сектор
––––––––––––––––––––––––––––––––––-
1 | 0:00.32 | 2:55.68 | 32 | 13224
2 | 2:56.25 | 2:47.45 | 13225 | 25794
3 | 5:43.70 | 4:22.27 | 25795 | 45471
4 | 10:06.22 | 2:01.18 | 45472 | 54564
5 | 12:07.40 | 3:20.67 | 54565 | 69631
6 | 15:28.32 | 6:31.68 | 69632 | 99024
7 | 22:00.25 | 3:07.65 | 99025 | 113114
8 | 25:08.15 | 2:10.35 | 113115 | 122899
9 | 27:18.50 | 4:43.62 | 122900 | 144186
10 | 32:02.37 | 3:59.63 | 144187 | 162174
11 | 36:02.25 | 5:11.32 | 162175 | 185531
12 | 41:13.57 | 2:47.28 | 185532 | 198084
13 | 44:01.10 | 2:22.07 | 198085 | 208741


Характеристики диапазона извлечения и сообщения об ошибках

Выбранный диапазон

Имя файла E:\MusicCD\Torrent\Cream\Cream - Fresh Cream\Cream - Fresh Cream.wav

Пиковый уровень 100.0 %
Скорость извлечения 7.4 X
Качество диапазона 100.0 %
CRC теста A75AF2E9
CRC копии A75AF2E9
Копирование… OK

Ошибок не произошло


AccurateRip: сводка

Трек 1 : извлечено точно (доверие 33) [9B4E944B] (AR v2)
Трек 2 : извлечено точно (доверие 34) [3405A7BF] (AR v2)
Трек 3 : извлечено точно (доверие 34) [90C3966D] (AR v2)
Трек 4 : извлечено точно (доверие 34) [6B32567A] (AR v2)
Трек 5 : извлечено точно (доверие 33) [5D0A7A10] (AR v2)
Трек 6 : извлечено точно (доверие 33) [442F9496] (AR v2)
Трек 7 : извлечено точно (доверие 33) [BF2B7749] (AR v2)
Трек 8 : извлечено точно (доверие 33) [1A3DE9EA] (AR v2)
Трек 9 : извлечено точно (доверие 32) [019D14E5] (AR v2)
Трек 10 : извлечено точно (доверие 33) [56E83CFE] (AR v2)
Трек 11 : извлечено точно (доверие 33) [B4930AF2] (AR v2)
Трек 12 : извлечено точно (доверие 32) [E751B135] (AR v2)
Трек 13 : извлечено точно (доверие 32) [CBF0907C] (AR v2)

Все треки извлечены точно

Конец отчёта

==== Контрольная сумма отчёта 27A3DECEDF4F1E2D7A6859A5345AC3A5CA660C5C4BDC08A88741052A9152C7AC ====

foobar2000 1.2 / Dynamic Range Meter 1.1.1
log date: 2013-08-19 01:26:01

––––––––––––––––––––––––––––––––––––––––
Analyzed: Cream / Fresh Cream
––––––––––––––––––––––––––––––––––––––––

DR Peak RMS Duration Track
––––––––––––––––––––––––––––––––––––––––
DR10 -0.17 dB -14.51 dB 2:56 01-I Feel Free
DR9 -1.64 dB -14.36 dB 2:48 02-N.S.U.
DR11 -0.57 dB -15.51 dB 4:22 03-Sleepy Time Time
DR11 -0.22 dB -13.75 dB 2:01 04-Dreaming
DR10 0.00 dB -14.56 dB 3:21 05-Sweet Wine
DR12 -0.07 dB -15.38 dB 6:32 06-Spoonful
DR10 -0.45 dB -13.28 dB 3:08 07-Cat's Squirrel
DR12 0.00 dB -14.95 dB 2:10 08-Four Until Late
DR10 -0.15 dB -12.48 dB 4:44 09-Rollin 'And Tumblin'
DR10 -0.99 dB -12.44 dB 4:00 10-I'm So Glad
DR12 -0.31 dB -17.62 dB 5:11 11-Toad
DR11 -1.61 dB -14.26 dB 2:47 12-The Coffee Song
DR10 -0.49 dB -14.34 dB 2:22 13-Wrapping Paper
––––––––––––––––––––––––––––––––––––––––

Number of tracks: 13
Official DR value: DR11

Samplerate: 44100 Hz
Channels: 2
Bits per sample: 16
Bitrate: 938 kbps
Codec: FLAC
================================================================================




Cream - Albums Collection 1966-1972 (7CD) Non-Remastered Releases

Cream - Disraeli Gears (1967)
EAC | FLAC | Image (Cue&Log) ~ 250 Mb | Mp3 (CBR320) ~ 97 Mb
Label: Polydor/PolyGram | # 823 636-2 | Time: 00:33:30 | Scans included

Cream teamed up with producer Felix Pappalardi for their second album, Disraeli Gears, a move that helped push the power trio toward psychedelia and also helped give the album a thematic coherence missing from the debut. This, of course, means that Cream get further away from the pure blues improvisatory troupe they were intended to be, but it does get them to be who they truly are: a massive, innovative power trio. The blues still courses throughout Disraeli Gears – the swirling kaleidoscopic "Strange Brew" is built upon a riff lifted from Albert King – but it's filtered into saturated colors, as it is on "Sunshine of Your Love," or it's slowed down and blurred out, as it is on the ominous murk of "Tales of Brave Ulysses." It's a pure psychedelic move that's spurred along by Jack Bruce's flourishing collaboration with Pete Brown. Together, this pair steers the album away from recycled blues-rock and toward its eccentric British core, for with the fuzzy freakout "Swlabr," the music hall flourishes of "Dance the Night Away," the swinging "Take It Back," and of course, the old music hall song "Mother's Lament," this is a very British record. Even so, this crossed the ocean and also became a major hit in America, because regardless of how whimsical certain segments are, Cream are still a heavy rock trio and Disraeli Gears is a quintessential heavy rock album of the '60s. Yes, its psychedelic trappings tie it forever to 1967, but the imagination of the arrangements, the strength of the compositions, and especially the force of the musicianship make this album transcend its time as well.

Review by Stephen Thomas Erlewine, Allmusic.com


Tracklist:

01. Strange Brew (02:48)
02. Sunshine Of Your Love (04:12)
03. World Of Pain (03:02)
04. Dance The Night Away (03:34)
05. Blue Condition (03:29)
06. Tales Of Brave Ulysses (02:47)
07. Swlabr (02:31)
08. We're Going Wrong (03:25)
09. Outside Woman Blues (02:23)
10. Take It Back (03:04)
11. Mother's Lament (01:47)


Exact Audio Copy V1.0 beta 3 from 29. August 2011

Отчёт EAC об извлечении, выполненном 15. августа 2013, 17:20

Cream / Disraeli Gears

Дисковод: SONY CD-RW CRX230ED Adapter: 0 ID: 1

Режим чтения : Достоверность
Использование точного потока : Да
Отключение кэша аудио : Да
Использование указателей C2 : Нет

Коррекция смещения при чтении : 6
Способность читать области Lead-in и Lead-out : Нет
Заполнение пропущенных сэмплов тишиной : Да
Удаление блоков с тишиной в начале и конце : Нет
При вычислениях CRC использовались нулевые сэмплы : Да
Интерфейс : Установленный внешний ASPI-интерфейс

Выходной формат : Внутренние WAV-операции
Формат сэмплов : 44.100 Гц; 16 бит; стерео


TOC извлечённого CD

Трек | Старт | Длительность | Начальный сектор | Конечный сектор
––––––––––––––––––––––––––––––––––-
1 | 0:00.33 | 2:51.02 | 33 | 12859
2 | 2:51.35 | 4:14.03 | 12860 | 31912
3 | 7:05.38 | 3:04.02 | 31913 | 45714
4 | 10:09.40 | 3:37.18 | 45715 | 62007
5 | 13:46.58 | 3:31.42 | 62008 | 77874
6 | 17:18.25 | 2:49.20 | 77875 | 90569
7 | 20:07.45 | 2:34.00 | 90570 | 102119
8 | 22:41.45 | 3:27.08 | 102120 | 117652
9 | 26:08.53 | 2:26.65 | 117653 | 128667
10 | 28:35.43 | 3:07.30 | 128668 | 142722
11 | 31:42.73 | 1:47.52 | 142723 | 150799


Характеристики диапазона извлечения и сообщения об ошибках

Выбранный диапазон

Имя файла E:\MusicCD\Torrent\Cream\Cream - Disraeli Gears\Cream - Disraeli Gears.wav

Пиковый уровень 93.7 %
Скорость извлечения 6.8 X
Качество диапазона 100.0 %
CRC теста 5C755A12
CRC копии 5C755A12
Копирование… OK

Ошибок не произошло


AccurateRip: сводка

Трек 1 : извлечено точно (доверие 9) [B87016A2] (AR v2)
Трек 2 : извлечено точно (доверие 9) [E0F9A991] (AR v2)
Трек 3 : извлечено точно (доверие 9) [E159FA86] (AR v2)
Трек 4 : извлечено точно (доверие 9) [C6D32B60] (AR v2)
Трек 5 : извлечено точно (доверие 9) [94830D6A] (AR v2)
Трек 6 : извлечено точно (доверие 9) [1294F020] (AR v2)
Трек 7 : извлечено точно (доверие 8) [57DD4EFA] (AR v2)
Трек 8 : извлечено точно (доверие 8) [5A2C73E4] (AR v2)
Трек 9 : извлечено точно (доверие 9) [333CC9EF] (AR v2)
Трек 10 : извлечено точно (доверие 9) [4B4C13A8] (AR v2)
Трек 11 : извлечено точно (доверие 9) [0808D91E] (AR v2)

Все треки извлечены точно

Конец отчёта

==== Контрольная сумма отчёта CAD5A070C2C32DBC2D7EF0070662FA0FF0DC50AA8524B1794ABE402A79CEA235 ====

foobar2000 1.2 / Dynamic Range Meter 1.1.1
log date: 2013-08-19 01:25:49

––––––––––––––––––––––––––––––––––––––––
Analyzed: Cream / Disraeli Gears
––––––––––––––––––––––––––––––––––––––––

DR Peak RMS Duration Track
––––––––––––––––––––––––––––––––––––––––
DR13 -2.16 dB -16.17 dB 2:51 01-Strange Brew
DR12 -0.56 dB -15.45 dB 4:14 02-Sunshine Of Your Love
DR11 -3.95 dB -17.20 dB 3:04 03-World Of Pain
DR12 -3.50 dB -17.23 dB 3:37 04-Dance The Night Away
DR12 -3.18 dB -16.20 dB 3:32 05-Blue Condition
DR11 -3.04 dB -16.32 dB 2:49 06-Tales Of Brave Ulysses
DR12 -2.40 dB -15.69 dB 2:34 07-Swlabr
DR12 -1.99 dB -18.54 dB 3:27 08-We're Going Wrong
DR12 -2.87 dB -16.84 dB 2:27 09-Outside Woman Blues
DR12 -2.11 dB -16.41 dB 3:07 10-Take It Back
DR12 -4.67 dB -21.75 dB 1:48 11-Mother's Lament
––––––––––––––––––––––––––––––––––––––––

Number of tracks: 11
Official DR value: DR12

Samplerate: 44100 Hz
Channels: 2
Bits per sample: 16
Bitrate: 894 kbps
Codec: FLAC
================================================================================




Cream - Albums Collection 1966-1972 (7CD) Non-Remastered Releases

Cream - Wheels of Fire (1968) 2CDs
EAC | FLAC | Image (Cue&Log) ~ 550 Mb | Mp3 (CBR320) ~ 216 Mb
Label: Polydor/PolyGram | # 827 578-2 | Time: 01:20:23 | Scans included

If Disraeli Gears was the album where Cream came into their own, its successor, Wheels of Fire, finds the trio in full fight, capturing every side of their multi-faceted personality, even hinting at the internal pressures that soon would tear the band asunder. A dense, unwieldy double album split into an LP of new studio material and an LP of live material, it's sprawling and scattered, at once awesome in its achievement and maddening in how it falls just short of greatness. It misses its goal not because one LP works and the other doesn't, but because both the live and studio sets suffer from strikingly similar flaws, deriving from the constant power struggle between the trio. Of the three, Ginger Baker comes up short, contributing the passable "Passing the Time" and "Those Were the Days," which are overshadowed by how he extends his solo drum showcase "Toad" to a numbing quarter of an hour and trips upon the Wind & the Willows whimsy of "Pressed Rat and Warthog," whose studied eccentricity pales next to Eric Clapton's nimble, eerily cheerful "Anyone for Tennis." In almost every regard, Wheels of Fire is a terrific showcase for Clapton as a guitarist, especially on the first side of the live album with "Crossroads," a mighty encapsulation of all of his strengths. Some of that is studio trickery, as producer Felix Pappalardi cut together the best bits of a winding improvisation to a tight four minutes, giving this track a relentless momentum that's exceptionally exciting, but there's no denying that Clapton is at a peak here, whether he's tearing off solos on a 17-minute "Spoonful" or goosing "White Room" toward the heights of madness. But it's the architect of "White Room," bassist Jack Bruce, who, along with his collaborator Peter Brown, reaches a peak as a songwriter. Aside from the monumental "White Room," he has the lovely, wistful "As You Said," the cinematic "Deserted Cities of the Heart," and the slow, cynical blues "Politician," all among Cream's very best work. And in many ways Wheels of Fire is indeed filled with Cream's very best work, since it also captures the fury and invention (and indulgence) of the band at its peak on the stage and in the studio, but as it tries to find a delicate balance between these three titanic egos, it doesn't quite add up to something greater than the sum of its parts. But taken alone, those individual parts are often quite tremendous.

Review by Stephen Thomas Erlewine, Allmusic.com


Tracklist:

CD1:

01. White Room (04:57)
02. Sitting On Top Of The World (04:57)
03. Passing TheTime (04:30)
04. As You Said (04:18)
05. Pressed Rat And Warthog (03:13)
06. Politician (04:11)
07. Those Were The Days (02:54)
08. Born Under A Bad Sign (03:08)
09. Deserted Cities Of The Heart (03:37)

CD2:

01. Crossroads (04:14)
02. Spoonful (16:43)
03. Traintime (07:00)
04. Toad (16:15)


Exact Audio Copy V1.0 beta 3 from 29. August 2011

Отчёт EAC об извлечении, выполненном 15. августа 2013, 16:36

Cream / Wheels Of Fire - CD 1

Дисковод: SONY CD-RW CRX230ED Adapter: 0 ID: 1

Режим чтения : Достоверность
Использование точного потока : Да
Отключение кэша аудио : Да
Использование указателей C2 : Нет

Коррекция смещения при чтении : 6
Способность читать области Lead-in и Lead-out : Нет
Заполнение пропущенных сэмплов тишиной : Да
Удаление блоков с тишиной в начале и конце : Нет
При вычислениях CRC использовались нулевые сэмплы : Да
Интерфейс : Установленный внешний ASPI-интерфейс

Выходной формат : Внутренние WAV-операции
Формат сэмплов : 44.100 Гц; 16 бит; стерео


TOC извлечённого CD

Трек | Старт | Длительность | Начальный сектор | Конечный сектор
––––––––––––––––––––––––––––––––––-
1 | 0:00.33 | 4:58.25 | 33 | 22407
2 | 4:58.58 | 4:58.37 | 22408 | 44794
3 | 9:57.20 | 4:32.63 | 44795 | 65257
4 | 14:30.08 | 4:21.25 | 65258 | 84857
5 | 18:51.33 | 3:15.37 | 84858 | 99519
6 | 22:06.70 | 4:13.38 | 99520 | 118532
7 | 26:20.33 | 2:57.37 | 118533 | 131844
8 | 29:17.70 | 3:10.38 | 131845 | 146132
9 | 32:28.33 | 3:37.45 | 146133 | 162452


Характеристики диапазона извлечения и сообщения об ошибках

Выбранный диапазон

Имя файла E:\MusicCD\Torrent\Cream\Cream - Wheels Of Fire\Cream - Wheels Of Fire - CD 1.wav

Пиковый уровень 87.4 %
Скорость извлечения 5.4 X
Качество диапазона 100.0 %
CRC теста B96FEEE4
CRC копии B96FEEE4
Копирование… OK

Ошибок не произошло


AccurateRip: сводка

Трек 1 : извлечено точно (доверие 28) [61755DD3] (AR v2)
Трек 2 : извлечено точно (доверие 28) [D75D160C] (AR v2)
Трек 3 : извлечено точно (доверие 27) [2C934971] (AR v2)
Трек 4 : извлечено точно (доверие 28) [36283539] (AR v2)
Трек 5 : извлечено точно (доверие 28) [B10DBBD1] (AR v2)
Трек 6 : извлечено точно (доверие 29) [3C73B8BB] (AR v2)
Трек 7 : извлечено точно (доверие 28) [1E790FFF] (AR v2)
Трек 8 : извлечено точно (доверие 27) [D4ACBA68] (AR v2)
Трек 9 : извлечено точно (доверие 26) [22E07CBF] (AR v2)

Все треки извлечены точно

Конец отчёта

==== Контрольная сумма отчёта A451E1C450207214E4F1D5938B89C66FB9A2F7A30CA0D1413CECB84A5365C8EB ====

foobar2000 1.2 / Dynamic Range Meter 1.1.1
log date: 2013-08-19 01:26:42

––––––––––––––––––––––––––––––––––––––––
Analyzed: Cream / Wheels Of Fire - CD 1
––––––––––––––––––––––––––––––––––––––––

DR Peak RMS Duration Track
––––––––––––––––––––––––––––––––––––––––
DR14 -1.58 dB -17.52 dB 4:58 01-White Room
DR12 -2.76 dB -17.79 dB 4:58 02-Sitting On Top Of The World
DR13 -2.68 dB -20.24 dB 4:33 03-Passing TheTime
DR11 -1.49 dB -16.91 dB 4:21 04-As You Said
DR13 -1.99 dB -16.55 dB 3:15 05-Pressed Rat And Warthog
DR13 -1.80 dB -16.24 dB 4:14 06-Politician
DR13 -1.94 dB -17.76 dB 2:57 07-Those Were The Days
DR13 -1.16 dB -17.23 dB 3:11 08-Born Under A Bad Sign
DR13 -2.90 dB -18.23 dB 3:38 09-Deserted Cities Of The Heart
––––––––––––––––––––––––––––––––––––––––

Number of tracks: 9
Official DR value: DR13

Samplerate: 44100 Hz
Channels: 2
Bits per sample: 16
Bitrate: 894 kbps
Codec: FLAC
================================================================================


Exact Audio Copy V1.0 beta 3 from 29. August 2011

Отчёт EAC об извлечении, выполненном 15. августа 2013, 16:56

Cream / Wheels Of Fire - CD 2

Дисковод: SONY CD-RW CRX230ED Adapter: 0 ID: 1

Режим чтения : Достоверность
Использование точного потока : Да
Отключение кэша аудио : Да
Использование указателей C2 : Нет

Коррекция смещения при чтении : 6
Способность читать области Lead-in и Lead-out : Нет
Заполнение пропущенных сэмплов тишиной : Да
Удаление блоков с тишиной в начале и конце : Нет
При вычислениях CRC использовались нулевые сэмплы : Да
Интерфейс : Установленный внешний ASPI-интерфейс

Выходной формат : Внутренние WAV-операции
Формат сэмплов : 44.100 Гц; 16 бит; стерео


TOC извлечённого CD

Трек | Старт | Длительность | Начальный сектор | Конечный сектор
––––––––––––––––––––––––––––––––––-
1 | 0:00.33 | 4:15.00 | 33 | 19157
2 | 4:15.33 | 16:46.37 | 19158 | 94644
3 | 21:01.70 | 7:00.73 | 94645 | 126217
4 | 28:02.68 | 16:15.27 | 126218 | 199369


Характеристики диапазона извлечения и сообщения об ошибках

Выбранный диапазон

Имя файла E:\MusicCD\Torrent\Cream\Cream - Wheels Of Fire\Cream - Wheels Of Fire - CD 2.wav

Пиковый уровень 80.5 %
Скорость извлечения 5.6 X
Качество диапазона 100.0 %
CRC теста 040DFFE0
CRC копии 040DFFE0
Копирование… OK

Ошибок не произошло


AccurateRip: сводка

Трек 1 : извлечено точно (доверие 27) [7687D05F] (AR v2)
Трек 2 : извлечено точно (доверие 26) [9820403D] (AR v2)
Трек 3 : извлечено точно (доверие 27) [58B68205] (AR v2)
Трек 4 : извлечено точно (доверие 23) [C9436CB2] (AR v2)

Все треки извлечены точно

Конец отчёта

==== Контрольная сумма отчёта 4162DB7B641C83CC8A3A236F7216EE1659CB5B782F63D605FCC94FC8977D14B8 ====

foobar2000 1.2 / Dynamic Range Meter 1.1.1
log date: 2013-08-19 01:26:54

––––––––––––––––––––––––––––––––––––––––
Analyzed: Cream / Wheels Of Fire - CD 2
––––––––––––––––––––––––––––––––––––––––

DR Peak RMS Duration Track
––––––––––––––––––––––––––––––––––––––––
DR12 -1.88 dB -15.86 dB 4:15 01-Crossroads
DR12 -2.30 dB -17.12 dB 16:46 02-Spoonful
DR12 -4.71 dB -20.73 dB 7:01 03-Traintime
DR14 -2.87 dB -20.12 dB 16:15 04-Toad
––––––––––––––––––––––––––––––––––––––––

Number of tracks: 4
Official DR value: DR12

Samplerate: 44100 Hz
Channels: 2
Bits per sample: 16
Bitrate: 830 kbps
Codec: FLAC
================================================================================




Cream - Albums Collection 1966-1972 (7CD) Non-Remastered Releases

Cream - Goodbye (1969)
EAC | FLAC | Image (Cue&Log) ~ 251 Mb | Mp3 (CBR320) ~ 94 Mb
Label: Polydor/PolyGram | # 823 660-2 | Time: 00:33:20 | Scans included

After a mere three albums in just under three years, Cream called it quits in 1969. Being proper gentlemen, they said their formal goodbyes with a tour and a farewell album called – what else? – Goodbye. As a slim, six-song single LP, it's far shorter than the rambling, out-of-control Wheels of Fire, but it boasts the same structure, evenly dividing its time between tracks cut on-stage and in the studio. While the live side contains nothing as indelible as "Crossroads," the live music on the whole is better than that on Wheels of Fire, capturing the trio at an empathetic peak as a band. It's hard, heavy rock, with Cream digging deep into their original "Politician" with the same intensity as they do on "Sitting on Top of the World," but it's the rampaging "I'm So Glad" that illustrates how far they've come; compare it to the original studio version on Fresh Cream and it's easy to see just how much further they're stretching their improvisation. The studio side also finds them at something of a peak. Boasting a song apiece from each member, it opens with the majestic classic "Badge," co-written by Eric Clapton and George Harrison and ranking among both of their best work. It's followed by Jack Bruce's "Doing That Scrapyard Thing," an overstuffed near-masterpiece filled with wonderful, imaginative eccentricities, and finally, there's Ginger Baker's tense, dramatic "What a Bringdown," easily the best original he contributed to the group. Like all of Cream's albums outside Disraeli Gears, Goodbye is an album of moments, not a tight cohesive work, but those moments are all quite strong on their own terms, making this a good and appropriate final bow.

Review by Stephen Thomas Erlewine, Allmusic.com


Tracklist:

01. I'm So Glad (09:12)
02. Politician (06:17)
03. Sitting On Top Of The World (05:01)
04. Badge (02:45)
05. Doing That Scrapyard Thing (03:14)
06. What A Bringdown (03:58)
07. Anyone For Tennis (02:36)


Exact Audio Copy V1.0 beta 3 from 29. August 2011

Отчёт EAC об извлечении, выполненном 15. августа 2013, 17:08

Cream / Goodbye

Дисковод: SONY CD-RW CRX230ED Adapter: 0 ID: 1

Режим чтения : Достоверность
Использование точного потока : Да
Отключение кэша аудио : Да
Использование указателей C2 : Нет

Коррекция смещения при чтении : 6
Способность читать области Lead-in и Lead-out : Нет
Заполнение пропущенных сэмплов тишиной : Да
Удаление блоков с тишиной в начале и конце : Нет
При вычислениях CRC использовались нулевые сэмплы : Да
Интерфейс : Установленный внешний ASPI-интерфейс

Выходной формат : Внутренние WAV-операции
Формат сэмплов : 44.100 Гц; 16 бит; стерео


TOC извлечённого CD

Трек | Старт | Длительность | Начальный сектор | Конечный сектор
––––––––––––––––––––––––––––––––––-
1 | 0:00.00 | 9:12.02 | 0 | 41401
2 | 9:12.02 | 6:19.70 | 41402 | 69896
3 | 15:31.72 | 5:04.60 | 69897 | 92756
4 | 20:36.57 | 2:47.65 | 92757 | 105346
5 | 23:24.47 | 3:18.35 | 105347 | 120231
6 | 26:43.07 | 4:00.10 | 120232 | 138241
7 | 30:43.17 | 2:37.00 | 138242 | 150016


Характеристики диапазона извлечения и сообщения об ошибках

Выбранный диапазон

Имя файла E:\MusicCD\Torrent\Cream\Cream - Goodbye\Cream - Goodbye.wav

Пиковый уровень 93.7 %
Скорость извлечения 7.1 X
Качество диапазона 100.0 %
CRC теста 3D68A4BF
CRC копии 3D68A4BF
Копирование… OK

Ошибок не произошло


AccurateRip: сводка

Трек 1 : извлечено точно (доверие 4) [4282A7DF] (AR v1)
Трек 2 : извлечено точно (доверие 4) [E9DA4364] (AR v1)
Трек 3 : извлечено точно (доверие 4) [774E916F] (AR v1)
Трек 4 : извлечено точно (доверие 4) [A83FC8F5] (AR v1)
Трек 5 : извлечено точно (доверие 4) [79AC20FC] (AR v1)
Трек 6 : извлечено точно (доверие 4) [7B8117F3] (AR v1)
Трек 7 : извлечено точно (доверие 4) [C7298904] (AR v1)

Все треки извлечены точно

Конец отчёта

==== Контрольная сумма отчёта 491AC0898666C3313350EA6940C17449BCEAC27D06C49FC7B5656079D063BD07 ====

foobar2000 1.2 / Dynamic Range Meter 1.1.1
log date: 2013-08-19 01:26:09

––––––––––––––––––––––––––––––––––––––––
Analyzed: Cream / Goodbye
––––––––––––––––––––––––––––––––––––––––

DR Peak RMS Duration Track
––––––––––––––––––––––––––––––––––––––––
DR11 -1.81 dB -15.30 dB 9:12 01-I'm So Glad
DR11 -1.39 dB -15.22 dB 6:20 02-Politician
DR11 -0.94 dB -14.09 dB 5:05 03-Sitting On Top Of The World
DR11 -1.67 dB -15.35 dB 2:48 04-Badge
DR10 -1.62 dB -14.62 dB 3:18 05-Doing That Scrapyard Thing
DR11 -1.36 dB -14.62 dB 4:00 06-What A Bringdown
DR12 -0.56 dB -16.99 dB 2:37 07-Anyone For Tennis
––––––––––––––––––––––––––––––––––––––––

Number of tracks: 7
Official DR value: DR11

Samplerate: 44100 Hz
Channels: 2
Bits per sample: 16
Bitrate: 912 kbps
Codec: FLAC
================================================================================




Cream - Albums Collection 1966-1972 (7CD) Non-Remastered Releases

Cream - Live Cream (1970)
EAC | FLAC | Image (Cue&Log) ~ 291 Mb | Mp3 (CBR320) ~ 110 Mb
Label: RSO/PolyGram | # 827 577-2 | Time: 00:41:40 | Scans included

Cream was a band born to the stage, a fact that the band and their record label realized the public fully understood by the number one U.S. chart placement for Wheels of Fire, with its entire live disc, and the number two chart peak for Goodbye, the posthumous release that was dominated by concert recordings. And in response to those success, we got Live Cream, Vol. 1 (originally known simply as Live Cream) in the spring of 1970, nearly 18 months after the trio's breakup. This could well be their most consistently brilliant album for sheer musicianship, though it is also a peculiar one on a couple of counts, some of which probably prevented it from reaching quite as wide an audience as it might have otherwise. Released in April 1970 and derived from tapes made at three May 1968 California shows, all of the live tracks here consist of songs originally featured on the group's least ambitious and most rudimentary album, Fresh Cream, dating from 1966 – and as it happens, there's not a hit represented among the five songs, a fact that probably made this release seem more appealing to hardcore fans than to casual and curious listeners (who didn't know what they were missing). The performances here show how far the group had come in the nearly two years since laying down the studio originals – take side one of the original LP, where they stretch out their playing, as well as boost it to new levels of intensity, on "N.S.U." and "Sleepy Time Time," so that the renditions here are the definitive ones, and by themselves should have made this album an essential acquisition back in 1970. But that brings us to the original side two and the 15-minute rendition of "Sweet Wine," an excursion by all three players that is worth the quarter-hour time commitment of the listener. The live portion of the album ends with their searing, rollicking high energy rendition of Muddy Waters' "Rollin' and Tumblin'." And then, for reasons not clear – except perhaps simply that it was there, in the vaults, and seemed like a valuable piece of property, which it was (and what else were they going to do with it?) – the producers close Live Cream with a studio cut, "Lawdy Mama," an Eric Clapton-inspired take on a traditional tune that subsequently evolved into the hit "Strange Brew" during what became the Disraeli Gears sessions. It's not a match for everything we've heard, but in the spring of 1970 no one was exactly complaining over being handed a previously unissued studio track by the Cream, as a bonus to the concert performances here. As it turned out, there were more live tracks from some of these same shows to draw on in future releases and reissues, which would include a couple of the group's hits; but Live Cream offers the overall highest quality, both in terms of clarity and fidelity, and the performances, which, in addition to the essential great playing (better in some ways than what was heard on some of the much-vaunted live tracks from Wheels of Fire), include excellent vocalizing by Clapton and Jack Bruce. Not that vocalizing looms that large here – the live tracks are all given extended jazz-based treatment, and the dialog among the three musicians as the jams develop is fascinating. Foreground and background seem to dissolve as all three musicians take charge, using the full range of their instruments. And where Bruce goes with his bass, especially on "Sweet Wine," is every bit as rewarding as the places that Clapton's guitar takes us; and Ginger Baker's playing is a trip all its own. Performances like this single-handedly raised the stakes of musicianship in rock.

Review by Bruce Eder, Allmusic.com


Tracklist:

01. N.S.U. (10:11)
02. Sleepy Time Time (06:48)
03. Sweet Wine (15:13)
04. Rollin' And Tumblin' (06:33)
05. Lawdy Mama (02:47)


Exact Audio Copy V1.0 beta 3 from 29. August 2011

Отчёт EAC об извлечении, выполненном 1. августа 2013, 20:28

Cream / Live Cream

Дисковод: SONY CD-RW CRX230ED Adapter: 0 ID: 1

Режим чтения : Достоверность
Использование точного потока : Да
Отключение кэша аудио : Да
Использование указателей C2 : Нет

Коррекция смещения при чтении : 6
Способность читать области Lead-in и Lead-out : Нет
Заполнение пропущенных сэмплов тишиной : Да
Удаление блоков с тишиной в начале и конце : Нет
При вычислениях CRC использовались нулевые сэмплы : Да
Интерфейс : Установленный внешний ASPI-интерфейс

Выходной формат : Внутренние WAV-операции
Формат сэмплов : 44.100 Гц; 16 бит; стерео


TOC извлечённого CD

Трек | Старт | Длительность | Начальный сектор | Конечный сектор
––––––––––––––––––––––––––––––––––-
1 | 0:00.33 | 10:12.52 | 33 | 45984
2 | 10:13.10 | 6:49.73 | 45985 | 76732
3 | 17:03.08 | 15:14.30 | 76733 | 145312
4 | 32:17.38 | 6:34.72 | 145313 | 174934
5 | 38:52.35 | 2:47.38 | 174935 | 187497


Характеристики диапазона извлечения и сообщения об ошибках

Выбранный диапазон

Имя файла E:\MusicCD\Torrent\Cream\Cream - Live Cream\Cream - Live Cream.wav

Пиковый уровень 99.8 %
Скорость извлечения 6.8 X
Качество диапазона 99.9 %
CRC теста 4A96EFB3
CRC копии 4A96EFB3
Копирование… OK

Ошибок не произошло


AccurateRip: сводка

Трек 1 : извлечено точно (доверие 7) [8752F1BE] (AR v2)
Трек 2 : извлечено точно (доверие 7) [84D478A8] (AR v2)
Трек 3 : извлечено точно (доверие 7) [32FFE001] (AR v2)
Трек 4 : извлечено точно (доверие 7) [8E3470DD] (AR v2)
Трек 5 : извлечено точно (доверие 7) [F7189052] (AR v2)

Все треки извлечены точно

Конец отчёта

==== Контрольная сумма отчёта E4657C16D8AE4207915C6FA2A1C729AC59D81C0A379722A11A5CE85A882EB789 ====

foobar2000 1.2 / Dynamic Range Meter 1.1.1
log date: 2013-08-19 01:26:21

––––––––––––––––––––––––––––––––––––––––
Analyzed: Cream / Live Cream
––––––––––––––––––––––––––––––––––––––––

DR Peak RMS Duration Track
––––––––––––––––––––––––––––––––––––––––
DR11 -0.02 dB -13.72 dB 10:13 01-N.S.U.
DR11 -0.59 dB -13.52 dB 6:50 02-Sleepy Time Time
DR12 -1.57 dB -16.50 dB 15:14 03-Sweet Wine
DR11 -1.75 dB -15.26 dB 6:35 04-Rollin' And Tumblin'
DR11 -1.60 dB -14.85 dB 2:48 05-Lawdy Mama
––––––––––––––––––––––––––––––––––––––––

Number of tracks: 5
Official DR value: DR11

Samplerate: 44100 Hz
Channels: 2
Bits per sample: 16
Bitrate: 898 kbps
Codec: FLAC
================================================================================




Cream - Albums Collection 1966-1972 (7CD) Non-Remastered Releases

Cream - Live Cream II (1972)
EAC | FLAC | Image (Cue&Log) ~ 294 Mb | Mp3 (CBR320) ~ 111 Mb
Label: RSO/PolyGram | # 823 661-2 | Time: 00:41:16 | Scans included

An oft-overlooked curio, Live Cream, Vol. 2 appeared at a very odd time, with very little warning, almost two years after its predecessor – and at virtually the same time as the related (though not overlapping) History of Eric Clapton. And both showed up, not coincidentally, at a point when Clapton, unbeknownst to most of the public, was sidelined with a crippling heroin addiction – this album helped keep him in the public eye, as a singer as well as a guitarist. On its face, Live Cream, Vol. 2 is a more ambitious album that its predecessor, offering more songs and including concert versions of two of the group's AM radio hits (as opposed to the album tracks that comprised the repertory on Live Cream, Vol. 1). And it is just about essential listening for anyone who wants to understand what Cream was about, which was live performance. Utilizing – for the time – state of the art mobile recording equipment, it was a significant achievement at the time in capturing the genuine sound of a high-wattage power trio on-stage, playing away at full volume; and the overall sonic excellence here must surely be credited to engineers Tom Dowd and Bill Halverson. The feeling that you are in the front row is very much in evidence, and this is largely due to their ability to capture the band's live fury with clarity and intimacy, down to every nuance of Ginger Baker's playing. As for the performances, this record does capture the band at their peak, though perhaps not at the very best moments of that peak – the group made their reputation as a live act with epic, lengthy jams that verged on jazz, but the repertory represented here (as opposed to that on Live Cream, Vol. 1) is more focused on their pop/rock efforts, such as "White Room," "Sunshine of Your Love," "Tales of Brave Ulysses," etc., which don't lend themselves as easily (or at all) to opening out in extended jams, in the manner of, say, "N.S.U." or "Sweet Wine," or the legendary "Spoonful"; additionally, numbers such as "Sunshine of Your Love" and, in particular, "White Room," require more vocal dexterity than Clapton and bassist/singer Jack Bruce could muster in this kind of concert setting – their singing, especially on "White Room" comes close to breaking down ("Sunshine of Your Love" fares better), whereas their playing holds together, almost better than perfect at times. "Deserted Cities of the Heart" – which opens the album – comes off exceptionally well as a concert piece, the bass and guitar actually combining to overcome the absences of swooping cellos, acoustic guitars, and other accompanying instruments from the studio rendition. And there is one priceless example of Cream in a full-tilt jam, on the 13-plus-minute closing cut, "Steppin' Out" – the band's sheer energy overcomes what minor deficiencies there are in the overall sound quality. And coupled with the compact, four- to five-minute versions of "Deserted Cities of the Heart" and "Tales of Brave Ulysses," among others, the album is a vital, intense, and enjoyable listen that is ultimately rewarding. The original LP had its sonic limitations, and the original late-'80s CD showcased these more severely, but the 1998 remastered CD, part of The Cream Remasters series, solved most of those problems and offered the best sound ever heard for this album.

Review by Bruce Eder, Allmusic.com


Tracklist:

01. Deserted Cities Of The Heart (04:32)
02. White Room (05:40)
03. Politician (05:06)
04. Tales Of Brave Ulysses (04:45)
05. Sunshine Of Your Love (07:24)
06. Steppin' Out (13:39)


Exact Audio Copy V1.0 beta 3 from 29. August 2011

Отчёт EAC об извлечении, выполненном 15. августа 2013, 13:36

Cream / Live Cream Volume II

Дисковод: SONY CD-RW CRX230ED Adapter: 0 ID: 1

Режим чтения : Достоверность
Использование точного потока : Да
Отключение кэша аудио : Да
Использование указателей C2 : Нет

Коррекция смещения при чтении : 6
Способность читать области Lead-in и Lead-out : Нет
Заполнение пропущенных сэмплов тишиной : Да
Удаление блоков с тишиной в начале и конце : Нет
При вычислениях CRC использовались нулевые сэмплы : Да
Интерфейс : Установленный внешний ASPI-интерфейс

Выходной формат : Внутренние WAV-операции
Формат сэмплов : 44.100 Гц; 16 бит; стерео


TOC извлечённого CD

Трек | Старт | Длительность | Начальный сектор | Конечный сектор
––––––––––––––––––––––––––––––––––-
1 | 0:00.32 | 4:34.30 | 32 | 20611
2 | 4:34.62 | 5:41.70 | 20612 | 46256
3 | 10:16.57 | 5:07.58 | 46257 | 69339
4 | 15:24.40 | 4:46.67 | 69340 | 90856
5 | 20:11.32 | 7:26.05 | 90857 | 124311
6 | 27:37.37 | 13:39.28 | 124312 | 185764


Характеристики диапазона извлечения и сообщения об ошибках

Выбранный диапазон

Имя файла E:\MusicCD\Torrent\Cream\Cream - Live Cream Volume II\Cream - Live Cream Volume II.wav

Пиковый уровень 100.0 %
Скорость извлечения 5.5 X
Качество диапазона 100.0 %
CRC теста 7FFDEC67
CRC копии 7FFDEC67
Копирование… OK

Ошибок не произошло


AccurateRip: сводка

Трек 1 : извлечено точно (доверие 13) [27990036] (AR v2)
Трек 2 : извлечено точно (доверие 13) [92F49DC8] (AR v2)
Трек 3 : извлечено точно (доверие 13) [5869029B] (AR v2)
Трек 4 : извлечено точно (доверие 13) [FAF3124B] (AR v2)
Трек 5 : извлечено точно (доверие 13) [31F7E59F] (AR v2)
Трек 6 : извлечено точно (доверие 13) [F8D08F58] (AR v2)

Все треки извлечены точно

Конец отчёта

==== Контрольная сумма отчёта C23B33197FDF865A66E53DDF1FF29D242D74543C73F088970F2B4378C68B3F01 ====

foobar2000 1.2 / Dynamic Range Meter 1.1.1
log date: 2013-08-19 01:26:33

––––––––––––––––––––––––––––––––––––––––
Analyzed: Cream / Live Cream Volume II
––––––––––––––––––––––––––––––––––––––––

DR Peak RMS Duration Track
––––––––––––––––––––––––––––––––––––––––
DR13 0.00 dB -15.51 dB 4:34 01-Deserted Cities Of The Heart
DR14 0.00 dB -15.60 dB 5:42 02-White Room
DR13 -0.12 dB -15.78 dB 5:08 03-Politician
DR13 -0.60 dB -15.65 dB 4:47 04-Tales Of Brave Ulysses
DR13 0.00 dB -15.19 dB 7:26 05-Sunshine Of Your Love
DR14 0.00 dB -16.81 dB 13:39 06-Steppin' Out
––––––––––––––––––––––––––––––––––––––––

Number of tracks: 6
Official DR value: DR13

Samplerate: 44100 Hz
Channels: 2
Bits per sample: 16
Bitrate: 906 kbps
Codec: FLAC
================================================================================




All thanks to original releaser

More interesting music in My Blog

See also:
Cream - I Feel Free: Ultimate Cream (2005)