Tags
Language
Tags
July 2024
Su Mo Tu We Th Fr Sa
30 1 2 3 4 5 6
7 8 9 10 11 12 13
14 15 16 17 18 19 20
21 22 23 24 25 26 27
28 29 30 31 1 2 3

Brand X - Studio Albums Collection 1976-1980 (6CD) Virgin Charisma Paper Sleeve Series Reissue 2006

Posted By: Designol
Brand X - Studio Albums Collection 1976-1980 (6CD) Virgin Charisma Paper Sleeve Series Reissue 2006

Brand X - Studio Albums 1976-1980 (6CD)
Virgin Charisma Paper Sleeve Series Reissue 2006

EAC | FLAC | Image (Cue&Log) ~ 1.78 Gb | Mp3 (CBR320) ~ 813 Mb | Scans included
Label: Toshiba EMI Ltd/Virgin/Charisma | # VJCP-68782-68787 | Time: 04:27:33
Jazz Rock, Fusion, Art Rock, Prog-Rock

Brand X was a jazz fusion band active 1975–1980 and 1992–1999. Noted members included Phil Collins (drums), Percy Jones (bass), John Goodsall (guitar) and Robin Lumley (keyboards). In 1992, original members Goodsall and Jones formed a new trio version of Brand X, with drummer Frank Katz.

Brand X were a British jazz-rock fusion outfit formed by Genesis drummer Phil Collins and Atomic Rooster guitarist John Goodsall as a side project from their regular groups. Their initial lineup also included keyboardist Robin Lumley and bassist Percy Jones (the Liverpool Scene, the Scaffold). Brand X's debut album, Unorthodox Behaviour, was released in 1976; a live album, Livestock, and the studio effort Moroccan Roll followed in 1977. Collins left the group to concentrate on Genesis, and for 1978's Masques, he was replaced by Al Di Meola drummer Chuck Burgi, as well as additional keyboardist Peter Robinson, who had played with Stanley Clarke. Three further albums – 1979's Product, 1980's Do They Hurt?, and 1982's Is There Anything About? – followed before the group disbanded. In the mid-'90s, Lumley, Goodsall, and Jones reunited, issuing several live collections in the years to follow.

BSteve Huey, Allmusic.com

Brand X - Studio Albums Collection 1976-1980 (6CD) Virgin Charisma Paper Sleeve Series Reissue 2006





Brand X - Studio Albums Collection 1976-1980 (6CD) Virgin Charisma Paper Sleeve Series Reissue 2006

Brand X - Unorthodox Behaviour (1976)
Virgin Charisma Paper Sleeve Series Reissue 2006

EAC | FLAC | Image (Cue&Log) ~ 274 Mb | Mp3 (CBR320) ~ 126 Mb | Scans included
Label: Toshiba EMI Ltd/Virgin/Charisma | # VJCP-68782 | Time: 00:40:43

Phil Collins' seemingly endless well of energy afforded him two careers: one as the drummer/vocalist in Genesis, and a second as a prolific session musician. It was in this second scenario that Collins hooked up with Percy Jones, John Goodsall, and Robin Lumley during sessions for Brian Eno, Eddie Howell, and Jack Lancaster. The quartet soon formed Brand X, a fusion jazz band that matched the prodigious rhythms of Collins and fretless bassist Jones with the atmospheric melodies of Goodsall and Lumley. Unorthodox Behaviour sets the stage for what would follow: music that plies the same sonic territory as Weather Report, Mahavishnu Orchestra, and the like, punctuated by the distinctive styles of individual members. The songs, though credited to the band, reveal two factions at work, with Jones and Collins teaming for percussive sections and Goodsall and Lumley handling the lyrical passages. When Jones and Collins take the lead, as on the opening "Nuclear Burn" and sections of "Unorthodox Behaviour" and "Running on Three," the music takes a frenetic, mathematical tack. Goodsall and Lumley generally provide the mood, the dominant trait on "Euthanasia Waltz" and "Touch Wood." Middle ground is found on the funky "Born Ugly" and "Smacks of Euphoric Hysteria," true fusions of rock and jazz. Unorthodox Behaviour samples a variety of styles: from melodic to energetic, ethereal to mathematical. Without a standout soloist like John McLaughlin or Wayne Shorter, Brand X does run the risk of sounding like a generic fusion jazz outfit, but their compositional skills pick up the slack nicely. Those interested in the band may do well to start with this album, although their next three records are just as good in terms of quality.

Review by Dave Connolly, Allmusic.com

Tracklist:

1. Nuclear Burn (6:20)
2. Euthanasia Waltz (5:39)
3. Born Ugly (8:13)
4. Smacks of Euphoric Hysteria (4:26)
5. Unorthadox Behaviour (8:25)
6. Running on Three (4:37)
7. Touch Wood (3:03)


Exact Audio Copy V0.99 prebeta 4 from 23. January 2008

Отчёт EAC об извлечении, выполненном 5. апреля 2009, 21:45

Brand X / Unorthodox Behaviour

Дисковод: Optiarc DVD RW AD-7200S Adapter: 1 ID: 1

Режим чтения : Достоверность
Использование точного потока : Да
Отключение кэша аудио : Да
Использование указателей C2 : Нет

Коррекция смещения при чтении : 48
Способность читать области Lead-in и Lead-out : Нет
Заполнение пропущенных сэмплов тишиной : Да
Удаление блоков с тишиной в начале и конце : Нет
При вычислениях CRC использовались нулевые сэмплы : Нет
Интерфейс : Установленный внешний ASPI-интерфейс

Выходной формат : Внутренние WAV-операции
Формат сэмплов : 44.100 Гц; 16 бит; стерео


TOC извлечённого CD

Трек | Старт | Длительность | Начальный сектор | Конечный сектор
––––––––––––––––––––––––––––––––––-
1 | 0:00.00 | 6:23.09 | 0 | 28733
2 | 6:23.09 | 5:42.46 | 28734 | 54429
3 | 12:05.55 | 8:15.63 | 54430 | 91617
4 | 20:21.43 | 4:30.39 | 91618 | 111906
5 | 24:52.07 | 8:29.56 | 111907 | 150137
6 | 33:21.63 | 4:38.41 | 150138 | 171028
7 | 38:00.29 | 3:03.31 | 171029 | 184784


Характеристики диапазона извлечения и сообщения об ошибках

Выбранный диапазон

Имя файла D:\Вадим\Brand X - Unorthodox Behaviour.wav

Пиковый уровень 100.0 %
Качество диапазона 100.0 %
CRC копии 5C5F6311
Копирование… OK

Ошибок не произошло

Конец отчёта

foobar2000 1.1.16 / Dynamic Range Meter 1.1.1
log date: 2012-11-29 20:49:58

––––––––––––––––––––––––––––––––––––––––
Analyzed: Brand X / Unorthodox Behaviour
––––––––––––––––––––––––––––––––––––––––

DR Peak RMS Duration Track
––––––––––––––––––––––––––––––––––––––––
DR8 0.00 dB -11.21 dB 6:23 01-01 - Nuclear Burn
DR10 -0.03 dB -13.51 dB 5:43 02-02 - Euthanasia Waltz
DR11 0.00 dB -12.78 dB 8:16 03-03 - Born Ugly
DR10 0.00 dB -12.29 dB 4:31 04-04 - Smacks of Euphoric Hysteria
DR14 -0.10 dB -17.04 dB 8:30 05-05 - Unorthodox Behaviour
DR9 0.00 dB -11.27 dB 4:39 06-06 - Running on Three
DR11 -7.29 dB -24.96 dB 3:03 07-07 - Touch Wood
––––––––––––––––––––––––––––––––––––––––

Number of tracks: 7
Official DR value: DR11

Samplerate: 44100 Hz
Channels: 2
Bits per sample: 16
Bitrate: 824 kbps
Codec: FLAC
================================================================================




Brand X - Studio Albums Collection 1976-1980 (6CD) Virgin Charisma Paper Sleeve Series Reissue 2006

Brand X - Morrocan Roll (1977)
Virgin Charisma Paper Sleeve Series Reissue 2006

EAC | FLAC | Image (Cue&Log) ~ 337 Mb | Mp3 (CBR320) ~ 151 Mb | Scans included
Label: Toshiba EMI Ltd/Virgin/Charisma | # VJCP-68783 | Time: 00:49:32

Morrocan Roll is not a step toward the rock & roll side of the fusion equation, but rather an experiment with Eastern sounds and softer textures that trades in the thunderstorms of their debut for rhythmically rich siroccos. Expanded to a quintet with the addition of percussionist Morris Pert, Brand X balances their arrangements with more equanimity, resulting in a subdued sound that is mesmerizing rather than arresting. The songs are written by individual members (their debut credited the band), but this doesn't yield the results you might expect: while Percy Jones' "Orbits" is essentially a showcase for the fretless bass, Lumley's "Disco Suicide" shares more with Frank Zappa than the artist's typically dreamy tones, and it's Phil Collins' "Why Should I Lend You Mine" that sounds most like the work of Lumley. The better compositions come from John Goodsall, including the opening "Sun in the Night" (featuring sitar and a smattering of vocals from Collins), the parched-sounding "Hate Zone," and the album-ending "Macrocosm." Jones' "Malaga Virgen" is another highlight, led by the artist's popping bass, delivered with a unique mix of restraint and explosive energy. Morrocan Roll is notable for a heightened sense of humor, from lighthearted liner notes to its everything but the kitchen sink ending. If the music is more spiritually informed than their flashy debut, the contemplative listener will find this brand of subdued fusion jazz equally rewarding.

Review by Dave Connolly, Allmusic.com

Tracklist:

1. Sun In The Night (4:25)
2. Why Should I Lend You Mine (11:16)
3. …Maybe I'll Lend You Mine After All (2:10)
4. Hate Zone (4:41)
5. Collapsar (1:35)
6. Disco Suicide (7:55)
7. Orbits (1:38)
8. Malaga Virgin (8:28)
9. Macrocosm (7:24)


Exact Audio Copy V0.99 prebeta 4 from 23. January 2008

Отчёт EAC об извлечении, выполненном 5. апреля 2009, 22:28

Brand X / Moroccan Roll

Дисковод: Optiarc DVD RW AD-7200S Adapter: 1 ID: 1

Режим чтения : Достоверность
Использование точного потока : Да
Отключение кэша аудио : Да
Использование указателей C2 : Нет

Коррекция смещения при чтении : 48
Способность читать области Lead-in и Lead-out : Нет
Заполнение пропущенных сэмплов тишиной : Да
Удаление блоков с тишиной в начале и конце : Нет
При вычислениях CRC использовались нулевые сэмплы : Нет
Интерфейс : Установленный внешний ASPI-интерфейс

Выходной формат : Внутренние WAV-операции
Формат сэмплов : 44.100 Гц; 16 бит; стерео


TOC извлечённого CD

Трек | Старт | Длительность | Начальный сектор | Конечный сектор
––––––––––––––––––––––––––––––––––-
1 | 0:00.00 | 4:25.52 | 0 | 19926
2 | 4:25.52 | 11:22.64 | 19927 | 71140
3 | 15:48.41 | 2:03.51 | 71141 | 80416
4 | 17:52.17 | 4:41.32 | 80417 | 101523
5 | 22:33.49 | 1:35.55 | 101524 | 108703
6 | 24:09.29 | 7:55.47 | 108704 | 144375
7 | 32:05.01 | 1:38.06 | 144376 | 151731
8 | 33:43.07 | 8:29.06 | 151732 | 189912
9 | 42:12.13 | 7:21.24 | 189913 | 223011


Характеристики диапазона извлечения и сообщения об ошибках

Выбранный диапазон

Имя файла D:\Вадим\Brand X - Moroccan Roll.wav

Пиковый уровень 100.0 %
Качество диапазона 100.0 %
CRC копии 5BEE822A
Копирование… OK

Ошибок не произошло

Конец отчёта

foobar2000 1.1.16 / Dynamic Range Meter 1.1.1
log date: 2012-11-29 20:50:24

––––––––––––––––––––––––––––––––––––––––
Analyzed: Brand X / Moroccan Roll
––––––––––––––––––––––––––––––––––––––––

DR Peak RMS Duration Track
––––––––––––––––––––––––––––––––––––––––
DR10 0.00 dB -13.86 dB 4:26 01-01 - Sun In The Night
DR11 -0.15 dB -16.40 dB 11:23 02-02 - Why Should I Lend You Mine (When You've Broken Yours Off Already) . . .
DR12 -5.29 dB -23.34 dB 2:04 03-03 - . . . Maybe I'll Lend You Mine After All
DR9 0.00 dB -11.80 dB 4:41 04-04 - Hate Zone
DR10 -7.29 dB -20.69 dB 1:36 05-05 - Collapsar
DR8 0.00 dB -11.98 dB 7:56 06-06 - Disco Suicide
DR16 -2.64 dB -25.80 dB 1:38 07-07 - Orbits
DR11 -0.14 dB -14.86 dB 8:29 08-08 - Malaga Virgen
DR10 -0.07 dB -12.01 dB 7:21 09-09 - Macrocosm
––––––––––––––––––––––––––––––––––––––––

Number of tracks: 9
Official DR value: DR11

Samplerate: 44100 Hz
Channels: 2
Bits per sample: 16
Bitrate: 846 kbps
Codec: FLAC
================================================================================




Brand X - Studio Albums Collection 1976-1980 (6CD) Virgin Charisma Paper Sleeve Series Reissue 2006

Brand X - Livestock (1977)
Virgin Charisma Paper Sleeve Series Reissue 2006

EAC | FLAC | Image (Cue&Log) ~ 299 Mb | Mp3 (CBR320) ~ 137 Mb | Scans included
Label: Toshiba EMI Ltd/Virgin/Charisma | # VJCP-68784 | Time: 00:41:30

Lest the momentum of Moroccan Roll and its relative chart success go to waste, Brand X released a stopgap solution with Livestock, featuring three recent live tracks and two stockpiled studio tracks that actually predate the Moroccan Roll sessions by two months. As might be expected, it's not their most enduring work, although the inclusion of three new originals and the clean recording obtained from the Hammersmith Odeon and Marquee Club performances produce respectable results. Two of the three live tracks feature drummer Kenwood Dennard, who lends his superlative skins to the smooth fusion of "Nightmare Patrol" and a frenzied reading of the popular "Malaga Virgen." (Genesis had finished their tour that same year, so you can't begrudge Phil Collins the holiday.) Collins' lone live appearance occurs on the two-part "Isis Mourning," which begins as an atmospheric piece punctuated by Pert's percussion and Percy's popping bass before stabilizing in the second part under Collins' steady rhythm. The two studio tracks are "-Ish," a hazy and occasionally funky jam that initially borrows the bassline better known from "Malaga Virgen," and an alternate version of "Euthanasia Waltz" that skips lightly over familiar terrain. The drum section remained in flux for their next album, as Collins took a brief hiatus from the band and Dennard continued to build his jazz resume on albums by Jaco Pastorius, Larry Coryell, Miles Davis, and Sting. While Livestock is arguably the least essential of their first seven albums, fans shouldn't be discouraged from picking this one up.

Review by Dave Connolly, Allmusic.com

Tracklist:

1. Nightmare Patrol (7:50)
2. -Ish (8:20)
3. Euthanasia Waltz (5:30)
4. Isis Mourning (part one) (5:30)
5. Isis Mourning (part two) (4:45)
6. Malaga Virgin (9:35)


Exact Audio Copy V0.99 prebeta 4 from 23. January 2008

Отчёт EAC об извлечении, выполненном 6. апреля 2009, 9:27

Brand X / Livestock

Дисковод: Optiarc DVD RW AD-7200S Adapter: 1 ID: 1

Режим чтения : Достоверность
Использование точного потока : Да
Отключение кэша аудио : Да
Использование указателей C2 : Нет

Коррекция смещения при чтении : 48
Способность читать области Lead-in и Lead-out : Нет
Заполнение пропущенных сэмплов тишиной : Да
Удаление блоков с тишиной в начале и конце : Нет
При вычислениях CRC использовались нулевые сэмплы : Нет
Интерфейс : Установленный внешний ASPI-интерфейс

Выходной формат : Внутренние WAV-операции
Формат сэмплов : 44.100 Гц; 16 бит; стерео


TOC извлечённого CD

Трек | Старт | Длительность | Начальный сектор | Конечный сектор
––––––––––––––––––––––––––––––––––-
1 | 0:00.00 | 7:57.73 | 0 | 35847
2 | 7:57.73 | 8:31.20 | 35848 | 74192
3 | 16:29.18 | 5:26.23 | 74193 | 98665
4 | 21:55.41 | 10:17.52 | 98666 | 144992
5 | 32:13.18 | 9:04.54 | 144993 | 185846


Характеристики диапазона извлечения и сообщения об ошибках

Выбранный диапазон

Имя файла D:\Вадим\Brand X - Livestock.wav

Пиковый уровень 100.0 %
Качество диапазона 100.0 %
CRC копии 29E6B81C
Копирование… OK

Ошибок не произошло

Конец отчёта

foobar2000 1.1.16 / Dynamic Range Meter 1.1.1
log date: 2012-11-29 20:50:10

––––––––––––––––––––––––––––––––––––––––
Analyzed: Brand X / Livestock
––––––––––––––––––––––––––––––––––––––––

DR Peak RMS Duration Track
––––––––––––––––––––––––––––––––––––––––
DR9 0.00 dB -11.52 dB 7:58 01-01 - Nightmare Patrol
DR9 0.00 dB -12.52 dB 8:31 02-02 - ISH
DR8 0.00 dB -11.20 dB 5:26 03-03 - Euthanasia Waltz
DR11 0.00 dB -14.75 dB 10:18 04-04 - Isis Mourning. Part I. Part II
DR8 0.00 dB -11.06 dB 9:05 05-05 - Malaga Virgen
––––––––––––––––––––––––––––––––––––––––

Number of tracks: 5
Official DR value: DR9

Samplerate: 44100 Hz
Channels: 2
Bits per sample: 16
Bitrate: 867 kbps
Codec: FLAC
================================================================================




Brand X - Studio Albums Collection 1976-1980 (6CD) Virgin Charisma Paper Sleeve Series Reissue 2006

Brand X - Masques (1978)
Virgin Charisma Paper Sleeve Series Reissue 2006

EAC | FLAC | Image (Cue&Log) ~ 315 Mb | Mp3 (CBR320) ~ 131 Mb | Scans included
Label: Toshiba EMI Ltd/Virgin/Charisma | # VJCP-68785 | Time: 00:48:27

Without the drumming of Phil Collins, who does appear on some of Brand X's albums, Masques still maintains a snug, jazzy-prog milieu and comes off clean and tight. Each song has a different beat, speed, and tempo with a satisfying assortment of keyboards and percussion instruments to keep the entire album afloat. Resounding xylophone and chimes outline the music on the seven tracks, with "Earth Dance" and "The Poke" coming up a little bit stronger than the rest. Most notably is the superb musical interplay of all the instruments used, and the way in which they enhance and benefit one another. The progressive rock sound does evolve by way of lengthy guitar passages from John Goodsall and accelerated keyboard fingering from Morris Pert, adding spice and vivaciousness while popping up when least expected. Masques is a firm studio album, and will keep listeners fascinated with the band.

Review by Mike DeGagne, Allmusic.com

Tracklist:

1. The Poke (5:06)
2. Masques (3:17)
3. Black Moon (4:48)
4. Deadly Nightshade (10:54)
5. Earthdance (6:10)
6. Access to Data (8:04)
7. The Ghost of Mayfield Lodge (10:08)


Exact Audio Copy V0.99 prebeta 4 from 23. January 2008

Отчёт EAC об извлечении, выполненном 6. апреля 2009, 9:43

Brand X / Masques

Дисковод: Optiarc DVD RW AD-7200S Adapter: 1 ID: 1

Режим чтения : Достоверность
Использование точного потока : Да
Отключение кэша аудио : Да
Использование указателей C2 : Нет

Коррекция смещения при чтении : 48
Способность читать области Lead-in и Lead-out : Нет
Заполнение пропущенных сэмплов тишиной : Да
Удаление блоков с тишиной в начале и конце : Нет
При вычислениях CRC использовались нулевые сэмплы : Нет
Интерфейс : Установленный внешний ASPI-интерфейс

Выходной формат : Внутренние WAV-операции
Формат сэмплов : 44.100 Гц; 16 бит; стерео


TOC извлечённого CD

Трек | Старт | Длительность | Начальный сектор | Конечный сектор
––––––––––––––––––––––––––––––––––-
1 | 0:00.00 | 5:10.40 | 0 | 23289
2 | 5:10.40 | 3:16.20 | 23290 | 38009
3 | 8:26.60 | 4:48.70 | 38010 | 59679
4 | 13:15.55 | 11:22.67 | 59680 | 110896
5 | 24:38.47 | 6:08.35 | 110897 | 138531
6 | 30:47.07 | 8:00.65 | 138532 | 174596
7 | 38:47.72 | 10:14.42 | 174597 | 220688


Характеристики диапазона извлечения и сообщения об ошибках

Выбранный диапазон

Имя файла D:\Вадим\Brand X - Masques.wav

Пиковый уровень 100.0 %
Качество диапазона 100.0 %
CRC копии B406EB65
Копирование… OK

Ошибок не произошло

Конец отчёта

foobar2000 1.1.16 / Dynamic Range Meter 1.1.1
log date: 2012-11-29 20:50:38

––––––––––––––––––––––––––––––––––––––––
Analyzed: Brand X / Masques
––––––––––––––––––––––––––––––––––––––––

DR Peak RMS Duration Track
––––––––––––––––––––––––––––––––––––––––
DR9 0.00 dB -10.92 dB 5:11 01-01 - The Poke
DR17 -0.85 dB -23.04 dB 3:16 02-02 - Masques
DR14 0.00 dB -17.55 dB 4:49 03-03 - Black Moon
DR10 -0.03 dB -13.18 dB 11:23 04-04 - Deadly Nightshade
DR11 -0.04 dB -14.45 dB 6:08 05-05 - Earth Dance
DR10 0.00 dB -12.76 dB 8:01 06-06 - Access To Data
DR11 0.00 dB -15.70 dB 10:15 07-07 - The Ghost Of Mayfield Lodge
––––––––––––––––––––––––––––––––––––––––

Number of tracks: 7
Official DR value: DR12

Samplerate: 44100 Hz
Channels: 2
Bits per sample: 16
Bitrate: 844 kbps
Codec: FLAC
================================================================================




Brand X - Studio Albums Collection 1976-1980 (6CD) Virgin Charisma Paper Sleeve Series Reissue 2006

Brand X - Product (1979)
Virgin Charisma Paper Sleeve Series Reissue 2006

EAC | FLAC | Image (Cue&Log) ~ 317 Mb | Mp3 (CBR320) ~ 141 Mb | Scans included
Label: Toshiba EMI Ltd/Virgin/Charisma | # VJCP-68786 | Time: 00:48:50

Brand X's most eclectic album to date, Product is perhaps most notable for its attempts at a pop crossover in the Phil Collins-sung "Don't Make Waves" and "Soho." The range of styles presented here – hard and soft fusion, pop, progressive rock – results from the now-interchangeable nature of the Brand X lineup, which, in addition to the returning Collins and Robin Lumley, is expanded to include bassist John Giblin and drummer Mike Clarke (Chuck Burgi having left after Masques). While the pop songs have a tart, new wave sound to them that is oddly ingratiating, they're likely to leave longtime fans scratching their heads. (Genesis fans may hear in "Soho" the musical inspiration for "Illegal Alien," and in Percy Jones' "Dance of the Illegal Aliens" its titular inspiration.) Despite the presence of the original quartet – Collins, Goodsall, Lumley, Jones – the four don't appear together on Product, although Goodsall is present for all but one song (the lone pairing of fretless bassists Percy Jones and John Giblin on "Wal to Wal"). Many of this album's tracks have found a place in the band's career retrospectives, including the airy fusion of "Dance of the Illegal Aliens" and the engaging "Algon." While Mike Clarke's impact on the music often goes unnoticed, John Giblin adds a new dimension to the band's sound with two soft, evocative songs: "Rhesus Perplexus" (in which Goodsall's acoustic guitar crosses into Pat Metheny territory) and "April." The remaining tracks, "Not Good Enough – See Me!" and "…And So to F…," are pleasant instrumentals with a more prominent role for the percussion; Collins thought enough of the latter to include a live version of it on a couple of 12" singles from his subsequent solo career. By nearly doubling the band's size, Product is able to indulge in an interesting game of musical chairs that occasionally overshadows the music itself. The band clearly has talent to spare, but can't seem to agree where to strike.

Review by Dave Connolly, Allmusic.com

Tracklist:

1. Don't Make Waves (5:08)
2. Dance of the Illegal Aliens (6:52)
3. Soho (3:47)
4. Not Good Enough- See Me! (7:27)
5. Algon (where an ordinary cup of drinking chocolate costs .£8.000.000.000) (6:07)
6. Rhesus Perplexus (4:06)
7. Wal to Wal (3:09)
8. …And So To F… (6:34)
9. April (2:40)


Exact Audio Copy V0.99 prebeta 4 from 23. January 2008

Отчёт EAC об извлечении, выполненном 6. апреля 2009, 10:47

Brand X / Product

Дисковод: Optiarc DVD RW AD-7200S Adapter: 1 ID: 1

Режим чтения : Достоверность
Использование точного потока : Да
Отключение кэша аудио : Да
Использование указателей C2 : Нет

Коррекция смещения при чтении : 48
Способность читать области Lead-in и Lead-out : Нет
Заполнение пропущенных сэмплов тишиной : Да
Удаление блоков с тишиной в начале и конце : Нет
При вычислениях CRC использовались нулевые сэмплы : Нет
Интерфейс : Установленный внешний ASPI-интерфейс

Выходной формат : Внутренние WAV-операции
Формат сэмплов : 44.100 Гц; 16 бит; стерео


TOC извлечённого CD

Трек | Старт | Длительность | Начальный сектор | Конечный сектор
––––––––––––––––––––––––––––––––––-
1 | 0:00.00 | 5:31.32 | 0 | 24856
2 | 5:31.32 | 7:49.63 | 24857 | 60094
3 | 13:21.20 | 3:44.06 | 60095 | 76900
4 | 17:05.26 | 7:30.53 | 76901 | 110703
5 | 24:36.04 | 6:10.73 | 110704 | 138526
6 | 30:47.02 | 4:01.48 | 138527 | 156649
7 | 34:48.50 | 3:14.38 | 156650 | 171237
8 | 38:03.13 | 6:28.62 | 171238 | 200399
9 | 44:32.00 | 2:07.61 | 200400 | 209985


Характеристики диапазона извлечения и сообщения об ошибках

Выбранный диапазон

Имя файла D:\Вадим\Brand X - Product.wav

Пиковый уровень 100.0 %
Качество диапазона 100.0 %
CRC копии 84198B29
Копирование… OK

Ошибок не произошло

Конец отчёта

foobar2000 1.1.16 / Dynamic Range Meter 1.1.1
log date: 2012-11-29 20:50:51

––––––––––––––––––––––––––––––––––––––––
Analyzed: Brand X / Product
––––––––––––––––––––––––––––––––––––––––

DR Peak RMS Duration Track
––––––––––––––––––––––––––––––––––––––––
DR9 0.00 dB -10.92 dB 5:31 01-01 - Don't Make Waves
DR9 0.00 dB -11.84 dB 7:50 02-02 - Dance Of The Illegal Aliens
DR8 0.00 dB -10.59 dB 3:44 03-03 - Soho
DR9 0.00 dB -11.95 dB 7:31 04-04 - Not Good Enough - See Me!
DR7 0.00 dB -10.36 dB 6:11 05-05 - Algon {Where An Ordinary Cup Of Drinking Chocolate Costs L8,000,000,000}
DR12 -0.01 dB -14.55 dB 4:02 06-06 - Rhesus Perplexus
DR17 -0.29 dB -20.84 dB 3:15 07-07 - Wal To Wal
DR9 0.00 dB -11.37 dB 6:29 08-08 - …And So To F…
DR11 -7.55 dB -24.42 dB 2:08 09-09 - April
––––––––––––––––––––––––––––––––––––––––

Number of tracks: 9
Official DR value: DR10

Samplerate: 44100 Hz
Channels: 2
Bits per sample: 16
Bitrate: 847 kbps
Codec: FLAC
================================================================================




Brand X - Studio Albums Collection 1976-1980 (6CD) Virgin Charisma Paper Sleeve Series Reissue 2006

Brand X - Do They Hurt? (1980)
Virgin Charisma Paper Sleeve Series Reissue 2006

EAC | FLAC | Image (Cue&Log) ~ 276 Mb | Mp3 (CBR320) ~ 125 Mb | Scans included
Label: Toshiba EMI Ltd/Virgin/Charisma | # VJCP-68787 | Time: 00:39:40

Brand X is guilty of going through the motions on Do They Hurt? At this juncture in Brand X's career, John Goodsall and Percy Jones are the principal forces, with Phil Collins, Morris Pert, and Robin Lumley reduced to a couple of cameos. Peter Robinson, who adopts Lumley's role of providing dreamy keyboards, and drummer Mike Clarke pick up the slack well enough, though John Giblin appears only on one track (the solid if predictably Goodsallian "Voidarama"). The album's strongest track is Goodsall's "Cambodia," which features his mesmerizing arpeggios and heroic guitar leads in a solid progressive rock instrumental. Little else on Do They Hurt? sounds better than outtakes from previous efforts, however. "Noddy Goes to Sweden" and "Triumphant Limp" are under-inspired efforts from Percy Jones; "Fragile!" (cowritten by Jones and Robinson) lacks the marimba-laden magic that made "Disco Suicide" so interesting. The album's most intriguing, and in many ways frustrating, track is "Act of Will," another attempt at a pop crossover from Goodsall that squanders a good melody by employing heavily treated (and barely intelligible) vocals from the guitarist. The record's final song, "D.M.Z.," is little more than a case of noodling around in a familiar environment. Over the years, Goodsall and Jones have developed unique compositional styles – one listen will reveal who wrote what. But it's all been done better on earlier albums; without the eclectic approach of Product, Do They Hurt? reveals itself to be little more than a retread of earlier ideas. Of minor interest, Monty Python alumnus Michael Palin provides mildly amusing liner notes.

Review by Dave Connolly, Allmusic.com

Tracklist:

1. Noddy Goes To Sweden (4:30)
2. Voidarama (4:25)
3. Act of Will (4:44)
4. Fragile! (5:26)
5. Cambodia (4:30)
6. Triumphant Limp (7:28)
7. D.M.Z. (8:37)


Exact Audio Copy V0.99 prebeta 4 from 23. January 2008

Отчёт EAC об извлечении, выполненном 6. апреля 2009, 17:03

Brand X / Do They Hurt?

Дисковод: Optiarc DVD RW AD-7200S Adapter: 1 ID: 1

Режим чтения : Достоверность
Использование точного потока : Да
Отключение кэша аудио : Да
Использование указателей C2 : Нет

Коррекция смещения при чтении : 48
Способность читать области Lead-in и Lead-out : Нет
Заполнение пропущенных сэмплов тишиной : Да
Удаление блоков с тишиной в начале и конце : Нет
При вычислениях CRC использовались нулевые сэмплы : Нет
Интерфейс : Установленный внешний ASPI-интерфейс

Выходной формат : Внутренние WAV-операции
Формат сэмплов : 44.100 Гц; 16 бит; стерео


TOC извлечённого CD

Трек | Старт | Длительность | Начальный сектор | Конечный сектор
––––––––––––––––––––––––––––––––––-
1 | 0:00.00 | 4:30.10 | 0 | 20259
2 | 4:30.10 | 4:26.65 | 20260 | 40274
3 | 8:57.00 | 4:45.27 | 40275 | 61676
4 | 13:42.27 | 5:28.10 | 61677 | 86286
5 | 19:10.37 | 4:33.37 | 86287 | 106798
6 | 23:43.74 | 7:32.05 | 106799 | 140703
7 | 31:16.04 | 8:39.28 | 140704 | 179656


Характеристики диапазона извлечения и сообщения об ошибках

Выбранный диапазон

Имя файла D:\Вадим\Brand X - Do They Hurt.wav

Пиковый уровень 100.0 %
Качество диапазона 100.0 %
CRC копии 05032CA7
Копирование… OK

Ошибок не произошло

Конец отчёта

foobar2000 1.1.16 / Dynamic Range Meter 1.1.1
log date: 2012-11-29 20:51:03

––––––––––––––––––––––––––––––––––––––––
Analyzed: Brand X / Do They Hurt?
––––––––––––––––––––––––––––––––––––––––

DR Peak RMS Duration Track
––––––––––––––––––––––––––––––––––––––––
DR11 0.00 dB -13.65 dB 4:30 01-01 - Noddy Goes to Sweden
DR10 -0.01 dB -13.15 dB 4:27 02-02 - Voidarama
DR11 0.00 dB -13.97 dB 4:45 03-03 - Act of Will
DR12 0.00 dB -14.77 dB 5:28 04-04 - Fragile
DR9 -0.04 dB -11.66 dB 4:33 05-05 - Cambodia
DR13 -0.12 dB -17.05 dB 7:32 06-06 - Triumphant Limp
DR12 0.00 dB -14.85 dB 8:39 07-07 - D.M.Z.
––––––––––––––––––––––––––––––––––––––––

Number of tracks: 7
Official DR value: DR11

Samplerate: 44100 Hz
Channels: 2
Bits per sample: 16
Bitrate: 850 kbps
Codec: FLAC
================================================================================




All thanks to original releaser

More interesting music in My Blog