Tags
Language
Tags
July 2024
Su Mo Tu We Th Fr Sa
30 1 2 3 4 5 6
7 8 9 10 11 12 13
14 15 16 17 18 19 20
21 22 23 24 25 26 27
28 29 30 31 1 2 3

Boy & Bear - Albums Collection 2010-2013 (3CD)

Posted By: Designol
Boy & Bear - Albums Collection 2010-2013 (3CD)

Boy & Bear - Albums Collection 2010-2013 (3CD)
EAC | FLAC | Tracks (Cue&Log) ~ 678 Mb | Mp3 (CBR320) ~ 242 Mb
Indie Folk, Indie Rock, Folk-Rock | Time: 01:46:20 | Scans ~ 321 Mb

Formed in 2009 as a solo vehicle for Sydney-based singer/songwriter Dave Hosking, Boy & Bear specializes in evocative and heartfelt indie folk-rock in the vein of contemporaries like Fleet Foxes, Bombay Bicycle Club, and Mumford & Sons. Rounded out by guitarist Killian Gavin, bass player Dave Symes, and brothers Tim (drums) and Jon Hart (mandolin, keyboards), the Aussie quintet inked a record deal with Island Records on the strength of its independently released first single, "Mexican Mavis." The group's debut EP, With Emperor Antarctica, dropped in early 2010, followed in 2011 by Boy & Bear's debut long-player, Moonfire, which went platinum in their native Australia. The band's sophomore outing, 2013's Harlequin Dream, would go gold. Their next album was captured, as much as possible, live in the studio direct to tape with producer Ethan Johns (Paul McCartney, the Vaccines), and represented a shift into synth-aided guitar pop. Limit of Love arrived in October 2015.

James Christopher Monger, Allmusic.com

Boy & Bear - Albums Collection 2010-2013 (3CD)





Boy & Bear - Albums Collection 2010-2013 (3CD)

Boy & Bear - With Emperor Antartica (2010) EP
EAC | FLAC | Tracks (Cue&Log) ~ 97 Mb | Mp3 (CBR320) ~ 36 Mb
Label: Boy & Bear Ply Ltd | # 2739922 | Time: 00:15:52 | Scans ~ 94 Mb

As a Boy & Bear fan, this EP works great. B&B seems very consistent in the quality of the work and provide infectious folk/rock/pop with a certain spiritual and emotional depth. Fans of Fleet Foxes should take note of this band and give them a try. Similar flavor and consistency. Top notch.

Review by D. Cepulis, Amazon.com

Tracklist:

01. Blood to Gold (02:17)
02. Rabbit Song (02:57)
03. Mexican Mavis (03:06)
04. The Storm (03:55)
05. The Rain (03:35)


Exact Audio Copy V1.0 beta 3 from 29. August 2011

EAC extraction logfile from 10. November 2013, 11:55

Boy & Bear / With Emperor Antarctica

Used drive : PIONEER DVD-RW DVR-118L Adapter: 2 ID: 0

Read mode : Secure
Utilize accurate stream : Yes
Defeat audio cache : Yes
Make use of C2 pointers : No

Read offset correction : 6
Overread into Lead-In and Lead-Out : No
Fill up missing offset samples with silence : Yes
Delete leading and trailing silent blocks : No
Null samples used in CRC calculations : Yes
Used interface : Native Win32 interface for Win NT & 2000
Gap handling : Appended to previous track

Used output format : User Defined Encoder
Selected bitrate : 1024 kBit/s
Quality : High
Add ID3 tag : No
Command line compressor : C:\Program Files (x86)\Exact Audio Copy\Flac\flac.exe
Additional command line options : -8 -V -T "ARTIST=%artist%" -T "TITLE=%title%" -T "ALBUM=%albumtitle%" -T "DATE=%year%" -T "TRACKNUMBER=%tracknr%" -T "GENRE=%genre%" -T "PERFORMER=%albuminterpret%" -T "COMPOSER=%composer%" %haslyrics%–tag-from-file=LYRICS="%lyricsfile%"%haslyrics% -T "ALBUMARTIST=%albumartist%" -T "DISCNUMBER=%cdnumber%" -T "TOTALDISCS=%totalcds%" -T "TOTALTRACKS=%numtracks%" -T "COMMENT=%comment%" %source% -o %dest%


TOC of the extracted CD

Track | Start | Length | Start sector | End sector
––––––––––––––––––––––––––––-
1 | 0:00.00 | 2:17.25 | 0 | 10299
2 | 2:17.25 | 2:57.06 | 10300 | 23580
3 | 5:14.31 | 3:06.24 | 23581 | 37554
4 | 8:20.55 | 3:55.70 | 37555 | 55249
5 | 12:16.50 | 3:35.30 | 55250 | 71404


Track 1

Filename D:\CDRip\01 - Blood to Gold.wav

Pre-gap length 0:00:02.00

Peak level 100.0 %
Extraction speed 0.9 X
Track quality 100.0 %
Test CRC CCBDE976
Copy CRC CCBDE976
Accurately ripped (confidence 8) [3136557F] (AR v2)
Copy OK

Track 2

Filename D:\CDRip\02 - Rabbit Song.wav

Peak level 100.0 %
Extraction speed 1.1 X
Track quality 100.0 %
Test CRC A43E876D
Copy CRC A43E876D
Accurately ripped (confidence 8) [4BA21ADF] (AR v2)
Copy OK

Track 3

Filename D:\CDRip\03 - Mexican Mavis.wav

Peak level 97.7 %
Extraction speed 1.2 X
Track quality 100.0 %
Test CRC 908A04A1
Copy CRC 908A04A1
Accurately ripped (confidence 8) [93F7B7F4] (AR v2)
Copy OK

Track 4

Filename D:\CDRip\04 - The Storm.wav

Peak level 100.0 %
Extraction speed 1.3 X
Track quality 100.0 %
Test CRC 6DD1214F
Copy CRC 6DD1214F
Accurately ripped (confidence 8) [4AF95C9F] (AR v2)
Copy OK

Track 5

Filename D:\CDRip\05 - The Rain.wav

Peak level 100.0 %
Extraction speed 1.4 X
Track quality 100.0 %
Test CRC 39C3D543
Copy CRC 39C3D543
Accurately ripped (confidence 8) [59387C42] (AR v2)
Copy OK


All tracks accurately ripped

No errors occurred

End of status report

–– CUETools DB Plugin V2.1.3

[CTDB TOCID: USCblU2Vkw5TvIx3nL4dA_fNdsM-] found, Submit result: USCblU2Vkw5TvIx3nL4dA_fNdsM- has been confirmed
[3ab4b7bb] (3/3) Accurately ripped


==== Log checksum BB3390AE1661BB2786C3B378E2B9BB04F1D15E34C2B1FF9CC875C4202AE06328 ====

foobar2000 1.2 / Dynamic Range Meter 1.1.1
log date: 2013-11-11 21:31:39

––––––––––––––––––––––––––––––––––––––––
Analyzed: Boy & Bear / With Emperor Antarctica
––––––––––––––––––––––––––––––––––––––––

DR Peak RMS Duration Track
––––––––––––––––––––––––––––––––––––––––
DR6 0.00 dB -8.67 dB 2:17 01-Blood to Gold
DR6 0.00 dB -8.64 dB 2:57 02-Rabbit Song
DR7 -0.20 dB -9.38 dB 3:06 03-Mexican Mavis
DR7 0.00 dB -11.34 dB 3:56 04-The Storm
DR7 0.00 dB -9.90 dB 3:35 05-The Rain
––––––––––––––––––––––––––––––––––––––––

Number of tracks: 5
Official DR value: DR7

Samplerate: 44100 Hz
Channels: 2
Bits per sample: 16
Bitrate: 819 kbps
Codec: FLAC
================================================================================




Boy & Bear - Albums Collection 2010-2013 (3CD)

Boy & Bear - Moonfire (2011)
EAC | FLAC | Tracks (Cue&Log) ~ 279 Mb | Mp3 (CBR320) ~ 97 Mb | Scans ~ 84 Mb
Label: Universal Republic Records | # COMM034 - 602527954196 | Time: 00:42:40

Championed by Mumford & Sons on their 2010 Australian tour, support act Boy & Bear didn't exactly strike while the nu-folk iron was hot, waiting a full year to follow-up their debut EP, With Emperor Antarctica, with their first full-length album, Moonfire, recorded in Nashville with producer Joe Chiccarelli (My Morning Jacket, the Shins). Judging by its number two position in their homeland, the timing proved to be a smart move that has allowed the Sydney outfit to step out of the shadows of its British contemporaries. Lead vocalist Dave Hosking's earnest bluesy tones are undeniably in the same ballpark as Marcus Mumford, while the stripped-back mandolin-led "House & Farm" and the anthemic indie folk of "Big Man" and "Lordy May" could fit quite comfortably on Sigh No More. But the solo project turned five-piece band's ambitions extend far beyond those of the tweed waistcoat-wearing brigade. "Milk & Sticks" is a schizophrenic three minutes of experimental indie rock, which starts out as an Arcade Fire-esque new wave stomper before turning into an organ-led slice of baroque pop and then back again; "Part Time Believer," whose lush West Coast harmonies bear an uncanny resemblance to America's "A Horse with No Name," is an affectionate homage to Hosking's parents' record collection; and the reggae guitar hooks, lilting melodies, and Afro-beat percussion of "The Village" could give Vampire Weekend a run for their money in the Paul Simon pastiche stakes. The misplaced '60s-style psychedelic freak-outs on the barroom hoedown of "Golden Jubilee" suggest their experimental tendencies occasionally need reining in, while the gorgeously atmospheric but all too brief banjo-plucking interlude "Percy Warner Park" would surely have been more worth exploring further than the slightly pedestrian country-pop of "My Only One." But in an increasingly crowded contemporary folk scene, Boy & Bear should be applauded for producing an album that at least attempts to bring something new to the table. On the evidence of Moonfire, they might not need such star-studded plaudits in the near future.

Review by Jon O'Brien, Allmusic.com

Tracklist:

01. Lordy May (03:34)
02. Feeding Line (04:29)
03. Milk & Sticks (04:43)
04. Part Time Believer (04:14)
05. My Only One (05:49)
06. Percy Warner Park (01:03)
07. Golden Jubilee (03:18)
08. House & Farm (03:14)
09. The Village (01:35)
10. Beach (06:13)
11. Big Man (04:24)


Exact Audio Copy V1.0 beta 3 from 29. August 2011

EAC extraction logfile from 10. November 2013, 13:22

Boy & Bear / Moonfire

Used drive : PIONEER DVD-RW DVR-118L Adapter: 2 ID: 0

Read mode : Secure
Utilize accurate stream : Yes
Defeat audio cache : Yes
Make use of C2 pointers : No

Read offset correction : 6
Overread into Lead-In and Lead-Out : No
Fill up missing offset samples with silence : Yes
Delete leading and trailing silent blocks : No
Null samples used in CRC calculations : Yes
Used interface : Native Win32 interface for Win NT & 2000
Gap handling : Appended to previous track

Used output format : User Defined Encoder
Selected bitrate : 1024 kBit/s
Quality : High
Add ID3 tag : No
Command line compressor : C:\Program Files (x86)\Exact Audio Copy\Flac\flac.exe
Additional command line options : -8 -V -T "ARTIST=%artist%" -T "TITLE=%title%" -T "ALBUM=%albumtitle%" -T "DATE=%year%" -T "TRACKNUMBER=%tracknr%" -T "GENRE=%genre%" -T "PERFORMER=%albuminterpret%" -T "COMPOSER=%composer%" %haslyrics%–tag-from-file=LYRICS="%lyricsfile%"%haslyrics% -T "ALBUMARTIST=%albumartist%" -T "DISCNUMBER=%cdnumber%" -T "TOTALDISCS=%totalcds%" -T "TOTALTRACKS=%numtracks%" -T "COMMENT=%comment%" %source% -o %dest%


TOC of the extracted CD

Track | Start | Length | Start sector | End sector
––––––––––––––––––––––––––––-
1 | 0:00.00 | 3:34.00 | 0 | 16049
2 | 3:34.00 | 4:29.65 | 16050 | 36289
3 | 8:03.65 | 4:43.45 | 36290 | 57559
4 | 12:47.35 | 4:14.52 | 57560 | 76661
5 | 17:02.12 | 5:49.38 | 76662 | 102874
6 | 22:51.50 | 1:03.17 | 102875 | 107616
7 | 23:54.67 | 3:18.43 | 107617 | 122509
8 | 27:13.35 | 3:14.00 | 122510 | 137059
9 | 30:27.35 | 1:35.37 | 137060 | 144221
10 | 32:02.72 | 6:13.23 | 144222 | 172219
11 | 38:16.20 | 4:24.27 | 172220 | 192046


Track 1

Filename D:\CDRip\01 - Lordy May.wav

Pre-gap length 0:00:02.00

Peak level 98.9 %
Extraction speed 1.1 X
Track quality 100.0 %
Test CRC AC0A6642
Copy CRC AC0A6642
Accurately ripped (confidence 9) [C9392F24] (AR v2)
Copy OK

Track 2

Filename D:\CDRip\02 - Feeding Line.wav

Peak level 100.0 %
Extraction speed 1.2 X
Track quality 100.0 %
Test CRC 7B5F2678
Copy CRC 7B5F2678
Accurately ripped (confidence 9) [D3E86EDB] (AR v2)
Copy OK

Track 3

Filename D:\CDRip\03 - Milk & Sticks.wav

Pre-gap length 0:00:01.24

Peak level 100.0 %
Extraction speed 1.4 X
Track quality 100.0 %
Test CRC 2927F15F
Copy CRC 2927F15F
Accurately ripped (confidence 9) [B85A2C8B] (AR v2)
Copy OK

Track 4

Filename D:\CDRip\04 - Part Time Believer.wav

Pre-gap length 0:00:00.84

Peak level 100.0 %
Extraction speed 1.5 X
Track quality 100.0 %
Test CRC 510F14E5
Copy CRC 510F14E5
Accurately ripped (confidence 9) [0C92C4AA] (AR v2)
Copy OK

Track 5

Filename D:\CDRip\05 - My Only One.wav

Pre-gap length 0:00:01.80

Peak level 97.7 %
Extraction speed 1.7 X
Track quality 100.0 %
Test CRC 5B9087D9
Copy CRC 5B9087D9
Accurately ripped (confidence 9) [8FA6FEBC] (AR v2)
Copy OK

Track 6

Filename D:\CDRip\06 - Percy Warner Park.wav

Pre-gap length 0:00:00.50

Peak level 81.2 %
Extraction speed 1.1 X
Track quality 100.0 %
Test CRC C53FC058
Copy CRC C53FC058
Accurately ripped (confidence 9) [F51B9BDB] (AR v2)
Copy OK

Track 7

Filename D:\CDRip\07 - Golden Jubilee.wav

Peak level 98.8 %
Extraction speed 1.6 X
Track quality 100.0 %
Test CRC 241D84A9
Copy CRC 241D84A9
Accurately ripped (confidence 9) [3446A950] (AR v2)
Copy OK

Track 8

Filename D:\CDRip\08 - House & Farm.wav

Pre-gap length 0:00:01.17

Peak level 100.0 %
Extraction speed 1.7 X
Track quality 100.0 %
Test CRC 2BFBC532
Copy CRC 2BFBC532
Accurately ripped (confidence 9) [E6E333F4] (AR v2)
Copy OK

Track 9

Filename D:\CDRip\09 - The Village.wav

Pre-gap length 0:00:01.66

Peak level 83.1 %
Extraction speed 1.5 X
Track quality 100.0 %
Test CRC 0F6F3F94
Copy CRC 0F6F3F94
Accurately ripped (confidence 9) [6A7BD142] (AR v2)
Copy OK

Track 10

Filename D:\CDRip\10 - Beach.wav

Peak level 100.0 %
Extraction speed 2.0 X
Track quality 100.0 %
Test CRC 4415307B
Copy CRC 4415307B
Accurately ripped (confidence 9) [2D456D1B] (AR v2)
Copy OK

Track 11

Filename D:\CDRip\11 - Big Man.wav

Pre-gap length 0:00:01.44

Peak level 100.0 %
Extraction speed 2.0 X
Track quality 100.0 %
Test CRC F87A7302
Copy CRC F87A7302
Accurately ripped (confidence 9) [2FD3823E] (AR v2)
Copy OK


All tracks accurately ripped

No errors occurred

End of status report

–– CUETools DB Plugin V2.1.3

[CTDB TOCID: TLSzQyFOeB10s7F72rLm4jG0TU4-] found, Submit result: TLSzQyFOeB10s7F72rLm4jG0TU4- has been confirmed
[206a720e] (17/18) Accurately ripped
[3504ae46] (01/18) No match


==== Log checksum 1B3AF1E11C633EE4D21B67ECA19425DA851142C01A24A26C67A423B64458B440 ====

foobar2000 1.2 / Dynamic Range Meter 1.1.1
log date: 2013-11-11 21:31:58

––––––––––––––––––––––––––––––––––––––––
Analyzed: Boy & Bear / Moonfire
––––––––––––––––––––––––––––––––––––––––

DR Peak RMS Duration Track
––––––––––––––––––––––––––––––––––––––––
DR9 -0.09 dB -12.07 dB 3:34 01-Lordy May
DR6 0.00 dB -7.47 dB 4:30 02-Feeding Line
DR5 0.00 dB -6.96 dB 4:44 03-Milk & Sticks
DR6 0.00 dB -7.09 dB 4:15 04-Part Time Believer
DR6 -0.20 dB -7.96 dB 5:50 05-My Only One
DR8 -1.80 dB -12.50 dB 1:03 06-Percy Warner Park
DR5 -0.10 dB -6.58 dB 3:19 07-Golden Jubilee
DR8 0.00 dB -11.09 dB 3:14 08-House & Farm
DR9 -1.61 dB -12.87 dB 1:35 09-The Village
DR6 0.00 dB -9.14 dB 6:13 10-Beach
DR7 0.00 dB -9.38 dB 4:24 11-Big Man
––––––––––––––––––––––––––––––––––––––––

Number of tracks: 11
Official DR value: DR7

Samplerate: 44100 Hz
Channels: 2
Bits per sample: 16
Bitrate: 901 kbps
Codec: FLAC
================================================================================




Boy & Bear - Albums Collection 2010-2013 (3CD)

Boy & Bear - Harlequin Dream (2013)
EAC | FLAC | Tracks (Cue&Log) ~ 302 Mb | Mp3 (CBR320) ~ 109 Mb
Label: Nettwerk | # 0 6700 30989 22 | Time: 00:47:47 | Scans ~ 143 Mb

Following their debut award-winning album Moonfire, Boy & Bear released Harlequin Dream, their bold and brave 2013 album recorded in their hometown of Sydney at legendary Alberts Studio and mixed by Phil Ek (Band of Horses, Fleet Foxes, Modest Mouse). The lead single, "Southern Sun," has a powerful urgency not unlike the best of Bruce Springsteen or Fleetwood Mac, while a sprinkling of strings and brass brings life and color to such standouts as "Back down the Black," "Old Town Blues" and "Stranger." Boy & Bear's debut record Moonfire won five ARIA awards, including Album of the Year.

If you liked late 70's, early 80's folk rock, like or current folk revival, such as Fleet Foxes, Mumford & Son or the sundry others in the genre, you'll enjoy this album.I decided to check them out after hearing 'Southern Son' on the radio and bought the album after previewing the other songs on the album.Others have compared them with Fleetwood Mac or Bruce Springsteen, but for me the first song was a dead ringer for Chris Rea in the late '70s, who may be unfamiliar to most US listeners (Most well known song in the US would be 'Road to Hell' from 1989). I've really enjoyed the entire album and can't keep 'Southern Sun' out of my head. I look forward to checking out their first album!

Review by Ian Butteriss, Amazon.com

Tracklist:

01. Southern Sun (04:41)
02. Old Town Blues (03:23)
03. Harlequin Dream (04:20)
04. Three Headed Woman (04:02)
05. Bridges (04:05)
06. A Moment's Grace (04:52)
07. End Of The Line (03:46)
08. Back Down The Black (06:17)
09. Real Estate (02:57)
10. Stranger (04:57)
11. Arrow Flight (04:22)


Exact Audio Copy V1.0 beta 3 from 29. August 2011

EAC extraction logfile from 7. November 2013, 0:06

Boy & Bear / Harlequin Dream

Used drive : PIONEER DVD-RW DVR-118L Adapter: 2 ID: 0

Read mode : Secure
Utilize accurate stream : Yes
Defeat audio cache : Yes
Make use of C2 pointers : No

Read offset correction : 6
Overread into Lead-In and Lead-Out : No
Fill up missing offset samples with silence : Yes
Delete leading and trailing silent blocks : No
Null samples used in CRC calculations : Yes
Used interface : Native Win32 interface for Win NT & 2000
Gap handling : Appended to previous track

Used output format : User Defined Encoder
Selected bitrate : 1024 kBit/s
Quality : High
Add ID3 tag : No
Command line compressor : C:\Program Files (x86)\Exact Audio Copy\Flac\flac.exe
Additional command line options : -8 -V -T "ARTIST=%artist%" -T "TITLE=%title%" -T "ALBUM=%albumtitle%" -T "DATE=%year%" -T "TRACKNUMBER=%tracknr%" -T "GENRE=%genre%" -T "PERFORMER=%albuminterpret%" -T "COMPOSER=%composer%" %haslyrics%–tag-from-file=LYRICS="%lyricsfile%"%haslyrics% -T "ALBUMARTIST=%albumartist%" -T "DISCNUMBER=%cdnumber%" -T "TOTALDISCS=%totalcds%" -T "TOTALTRACKS=%numtracks%" -T "COMMENT=%comment%" %source% -o %dest%


TOC of the extracted CD

Track | Start | Length | Start sector | End sector
––––––––––––––––––––––––––––-
1 | 0:00.00 | 4:41.10 | 0 | 21084
2 | 4:41.10 | 3:23.43 | 21085 | 36352
3 | 8:04.53 | 4:20.10 | 36353 | 55862
4 | 12:24.63 | 4:02.74 | 55863 | 74086
5 | 16:27.62 | 4:05.69 | 74087 | 92530
6 | 20:33.56 | 4:52.59 | 92531 | 114489
7 | 25:26.40 | 3:46.38 | 114490 | 131477
8 | 29:13.03 | 6:17.03 | 131478 | 159755
9 | 35:30.06 | 2:57.22 | 159756 | 173052
10 | 38:27.28 | 4:57.62 | 173053 | 195389
11 | 43:25.15 | 4:22.50 | 195390 | 215089


Track 1

Filename D:\CDRip\01 - Southern Sun.wav

Pre-gap length 0:00:02.00

Peak level 98.7 %
Extraction speed 1.1 X
Track quality 100.0 %
Test CRC 8A4EBEBD
Copy CRC 8A4EBEBD
Cannot be verified as accurate (confidence 4) [01048924], AccurateRip returned [4459ABE0] (AR v2)
Copy OK

Track 2

Filename D:\CDRip\02 - Old Town Blues.wav

Pre-gap length 0:00:01.45

Peak level 97.6 %
Extraction speed 1.2 X
Track quality 100.0 %
Test CRC 9013ED81
Copy CRC 9013ED81
Cannot be verified as accurate (confidence 4) [3D8AE8F6], AccurateRip returned [528BD1C1] (AR v2)
Copy OK

Track 3

Filename D:\CDRip\03 - Harlequin Dream.wav

Pre-gap length 0:00:02.18

Peak level 98.6 %
Extraction speed 1.4 X
Track quality 100.0 %
Test CRC 6943EBEB
Copy CRC 6943EBEB
Cannot be verified as accurate (confidence 4) [69945ED9], AccurateRip returned [712DEB64] (AR v2)
Copy OK

Track 4

Filename D:\CDRip\04 - Three Headed Woman.wav

Peak level 97.1 %
Extraction speed 1.3 X
Track quality 99.9 %
Test CRC 67DFC8C7
Copy CRC 67DFC8C7
Cannot be verified as accurate (confidence 4) [188ACA4C], AccurateRip returned [CF2CF53D] (AR v2)
Copy OK

Track 5

Filename D:\CDRip\05 - Bridges.wav

Peak level 97.7 %
Extraction speed 1.6 X
Track quality 100.0 %
Test CRC 550D7ECE
Copy CRC 550D7ECE
Cannot be verified as accurate (confidence 4) [937D7787], AccurateRip returned [81A83EC9] (AR v2)
Copy OK

Track 6

Filename D:\CDRip\06 - A Moment's Grace.wav

Pre-gap length 0:00:01.37

Peak level 95.6 %
Extraction speed 1.5 X
Track quality 99.9 %
Test CRC C77EAB44
Copy CRC C77EAB44
Cannot be verified as accurate (confidence 4) [CF4E7D46], AccurateRip returned [E81603FF] (AR v2)
Copy OK

Track 7

Filename D:\CDRip\07 - End Of The Line.wav

Peak level 97.4 %
Extraction speed 1.7 X
Track quality 100.0 %
Test CRC 5DD748CA
Copy CRC 5DD748CA
Cannot be verified as accurate (confidence 4) [8FFCB249], AccurateRip returned [4BD6A2D3] (AR v2)
Copy OK

Track 8

Filename D:\CDRip\08 - Back Down The Black.wav

Pre-gap length 0:00:01.38

Peak level 96.7 %
Extraction speed 1.9 X
Track quality 100.0 %
Test CRC E0E7898F
Copy CRC E0E7898F
Cannot be verified as accurate (confidence 4) [B49E2EA8], AccurateRip returned [DAAF009A] (AR v2)
Copy OK

Track 9

Filename D:\CDRip\09 - Real Estate.wav

Peak level 98.6 %
Extraction speed 1.5 X
Track quality 99.9 %
Test CRC A007A217
Copy CRC A007A217
Cannot be verified as accurate (confidence 4) [87892432], AccurateRip returned [E89554F5] (AR v2)
Copy OK

Track 10

Filename D:\CDRip\10 - Stranger.wav

Peak level 100.0 %
Extraction speed 1.8 X
Track quality 99.9 %
Test CRC 11B469F0
Copy CRC 11B469F0
Cannot be verified as accurate (confidence 4) [FD65838E], AccurateRip returned [7C8938E3] (AR v2)
Copy OK

Track 11

Filename D:\CDRip\11 - Arrow Flight.wav

Peak level 96.8 %
Extraction speed 2.1 X
Track quality 100.0 %
Test CRC CF108A63
Copy CRC CF108A63
Cannot be verified as accurate (confidence 4) [AB485D74], AccurateRip returned [64B18D4B] (AR v2)
Copy OK


No tracks could be verified as accurate
You may have a different pressing from the one(s) in the database

No errors occurred

End of status report

–– CUETools DB Plugin V2.1.3

[CTDB TOCID: Sk8.4_yUy.MQ1JrNc1MKfXiPeDc-] found, Submit result: Sk8.4_yUy.MQ1JrNc1MKfXiPeDc- has been confirmed
[f25b0a51] (4/4) Accurately ripped


==== Log checksum B4F8581A249B2198FF6F515AAB28322A577A372436C59B3DD49940EF27C245AA ====

foobar2000 1.2 / Dynamic Range Meter 1.1.1
log date: 2013-11-11 21:32:13

––––––––––––––––––––––––––––––––––––––––
Analyzed: Boy & Bear / Harlequin Dream
––––––––––––––––––––––––––––––––––––––––

DR Peak RMS Duration Track
––––––––––––––––––––––––––––––––––––––––
DR6 -0.11 dB -8.07 dB 4:41 01-Southern Sun
DR6 -0.20 dB -7.61 dB 3:24 02-Old Town Blues
DR7 -0.12 dB -8.76 dB 4:20 03-Harlequin Dream
DR7 -0.25 dB -9.06 dB 4:03 04-Three Headed Woman
DR6 -0.20 dB -8.42 dB 4:06 05-Bridges
DR8 -0.38 dB -10.42 dB 4:53 06-A Moment's Grace
DR7 -0.23 dB -9.36 dB 3:47 07-End Of The Line
DR7 -0.29 dB -10.81 dB 6:17 08-Back Down The Black
DR7 -0.12 dB -9.02 dB 2:57 09-Real Estate
DR6 0.00 dB -7.90 dB 4:58 10-Stranger
DR7 -0.28 dB -9.25 dB 4:23 11-Arrow Flight
––––––––––––––––––––––––––––––––––––––––

Number of tracks: 11
Official DR value: DR7

Samplerate: 44100 Hz
Channels: 2
Bits per sample: 16
Bitrate: 843 kbps
Codec: FLAC
================================================================================




All thanks to original releaser

More interesting music in My Blog