Tags
Language
Tags
March 2023
Su Mo Tu We Th Fr Sa
26 27 28 1 2 3 4
5 6 7 8 9 10 11
12 13 14 15 16 17 18
19 20 21 22 23 24 25
26 27 28 29 30 31 1

Anne Gastinel, Pablo Marquez - Iberica (2009)

Posted By: tirexiss
Anne Gastinel, Pablo Marquez - Iberica (2009)

Anne Gastinel, Pablo Marquez - Iberica (2009)
EAC | APE (image+.cue, log) | Covers Included | 01:18:31 | 403 MB
Genre: Classical | Label: Naïve | Catalog: V5182

It's curious why there are not more compositions for cello and guitar duo. The two overlap greatly in range, have wonderfully complementary timbres, and possess virtually none of the inherent balance problems encountered when pairing the cello with the more commonplace piano. The guitar is often thought of in term of Spanish or Latin-influenced music, and though there have been many compositions written for the cello by composers from these parts of the world, precious few have bothered to incorporate the guitar as a duo partner. Why? Good question, so thinks cellist Anne Gastinel and guitarist Pablo Márquez on their album entitled Ibérica. The disc features an immensely pleasing array of works by Manuel de Falla, Gaspar Cassadó, and Enrique Granados, for solo cello, solo guitar, and, by way of masterful transcription, cello and guitar duo. Though French by birth, Gastinel plays with completely convincing Latin flair and panache. Her immaculate technique allows her to emphasize each subtle nuance, every flashy ornament, and every detailed rubato with the utmost ease. Márquez is likewise a master of his craft; the two artists joined together makes for an enthralling and wholly satisfying listening experience. Both provide listeners with powerfully stylized solo performances, but it is when they perform in tandem that listeners are really treated to the amazing sonorities that these two instruments are capable of producing.

Anne Gastinel, Pablo Marquez - Iberica (2009)

Track List:

01. de Falla - Danza espanola No. 1
02-08. de Falla - Siete canciones populares espanolas
09. Cassado - Leyenda catalana
10. Cassado - Catalanesca
11. Cassado - Cancion de Leonardo
12. de Falla - Danza de la Molinera
13. de Falla - Cancion del fuego fatuo
14. Granados - Intermezzo
15. de Falla - Danza del Molinero
16-18. Cassado - Suite for Solo Cello
19. Granados - Ocho tonadillas en estilo antiguo - El mirar de la maja
20. Granados - Danza espanola No. 5
21-27. Granados - Ocho tonadillas en estilo antiguo
28. de Falla - Relato del pescador

Performers:
Anne Gastinel - cello,
Pablo Marquez - guitar

V0.99 prebeta 5 from 4. May 2009

Journal d'extraction EAC depuis 16. Octobre 2009, 7:10

Artiste inconnu / Titre inconnu

Lecteur utilisй : TSSTcorpCDDVDW SH-S203B Adapter: 4 ID: 0

Mode lecture : :
: Oui
: Non
: Non

Correction Offset Ecriture : : 6
Lecture йtendue en Lead-In et Lead-Out : Non
Remplacer les samples manquants par du silence : Oui
Effacer les blocs silencieux situйs en dйbut et fin : Non
: Non
: Interface Native Win32 pour Win NT & 2000

Format de sortie utilisй : : Routines WAV interne
: 44.100 Hz; 16 Bit; Stйrйo

| | | |
––––––––––––––––––––––
1 | 0:00.00 | 3:38.56 | 0 | 16405
2 | 3:38.56 | 2:09.13 | 16406 | 26093
3 | 5:47.69 | 1:18.37 | 26094 | 31980
4 | 7:06.31 | 2:27.12 | 31981 | 43017
5 | 9:33.43 | 3:04.33 | 43018 | 56850
6 | 12:38.01 | 1:48.59 | 56851 | 65009
7 | 14:26.60 | 1:22.39 | 65010 | 71198
8 | 15:49.24 | 1:33.42 | 71199 | 78215
9 | 17:22.66 | 3:37.45 | 78216 | 94535
10 | 21:00.36 | 2:28.39 | 94536 | 105674
11 | 23:29.00 | 3:05.38 | 105675 | 119587
12 | 26:34.38 | 4:10.26 | 119588 | 138363
13 | 30:44.64 | 1:25.74 | 138364 | 144812
14 | 32:10.63 | 4:42.39 | 144813 | 166001
15 | 36:53.27 | 2:45.62 | 166002 | 178438
16 | 39:39.14 | 5:58.70 | 178439 | 205358
17 | 45:38.09 | 3:17.65 | 205359 | 220198
18 | 48:55.74 | 6:12.24 | 220199 | 248122
19 | 55:08.23 | 2:28.50 | 248123 | 259272
20 | 57:36.73 | 3:46.16 | 259273 | 276238
21 | 61:23.14 | 1:13.35 | 276239 | 281748
22 | 62:36.49 | 2:08.22 | 281749 | 291370
23 | 64:44.71 | 3:11.16 | 291371 | 305711
24 | 67:56.12 | 1:25.64 | 305712 | 312150
25 | 69:22.01 | 2:20.51 | 312151 | 322701
26 | 71:42.52 | 0:46.74 | 322702 | 326225
27 | 72:29.51 | 4:04.11 | 326226 | 344536
28 | 76:33.62 | 1:57.35 | 344537 | 353346

Propriйtйs Etats et Erreurs

Gammes sйlectionnйes

Nom fichier E:\Klassik up\iberica\IAGPM\Artiste inconnu - Titre inconnu.wav

Niveau Max 92.6 %
qualitй intervalle 100.0 %
Copie CRC 94175D6C
Copie Ok

Pas d'erreur apparue

Piste 1
Piste 2
Piste 3
Piste 4
Piste 5
Piste 6
Piste 7
Piste 8
Piste 9
Piste 10
Piste 11
Piste 12
Piste 13
Piste 14
Piste 15
Piste 16
Piste 17
Piste 18
Piste 19
Piste 20
Piste 21
Piste 22
Piste 23
Piste 24
Piste 25
Piste 26
Piste 27
Piste 28

Fin du rapport d'йtat

Thanks to the Original ripper (unknown)!

Download: