Tags
Language
Tags
June 2024
Su Mo Tu We Th Fr Sa
26 27 28 29 30 31 1
2 3 4 5 6 7 8
9 10 11 12 13 14 15
16 17 18 19 20 21 22
23 24 25 26 27 28 29
30 1 2 3 4 5 6

VA - Jazz Is Dead - JID020: Remixes (2023) [Official Digital Download]

Posted By: delpotro
VA - Jazz Is Dead - JID020: Remixes (2023) [Official Digital Download]

VA - Jazz Is Dead - JID020: Remixes (2023)
FLAC (tracks) 24-bit/44,1 kHz | Front Cover | Time - 36:13 minutes | 399 MB
Jazz-Funk, Beats | Label: Jazz Is Dead, Official Digital Download

For Remixes JID020, the label has tapped a few of their favorite contemporary artists and producers to offer their own take on the music of Series 2. The album features a variety of dynamic personalities with remixes from London based artists Shabaka Hutchins and Theon Cross, New York tastemaker Melanie Charles, LA based producer Bei Ru, Brazil’s Dj Nyack, Detroit based producer Tall Black Guy, Bay Area producer Mophono and the LA based house duo LO & Diisko.

The album begins with Mophono’s reinvention of the late Tony Allen’s “Don’t Believe the Dancers” immediately placing listeners in a trance with percussive sounds that further animate Allen’s traditional Afrobeat patterns; paying homage to the era of music Allen created alongside Fela Kuti’s Africa 70. The track comes to a close with Mophono’s sampling of Allen’s voice, a call to drummers all around the world to continue to build and expand on the art of drumming.

On the remix of Jean Carne’s “Black Rainbows” featuring vocals by Loren Oden, Melanie Charles plays on the fantasy-like feelings of the original recording, delivering a refreshing ode to Blackness. The lyrics fall into an evocative mantra as Charles sings along with Carne and Oden painting visions of Black beauty.

Henry Franklin is a longstanding contributor to the genre as one of jazz’s most influential heartbeats. The song “African Sun” incorporates distinctly West African rhythms alongside jazz modalities, a meeting of two cultures ripped apart but in continuous conversation with each other. Through this reimagining, Shabaka Hutchins continues this cross-cultural conversation, achieving a strong musical meditation that mimics the rise and fall of the sun.

Overall, JID020 earns its place in the Jazz Is Dead catalog as it further celebrates the spirit of collaboration amongst artists young and old. What unites these the DJs, producers, and musicians with the Jazz Is Dead ethos is their unbent dedication to remaining true to their own vibe and sound all the while preserving the energy and feeling of the original recordings.

Tracklist:
01. Don't Believe The Dancers (Mophono Remix)
02. Phoenix (Theon Cross Remix)
03. Reflections (Bei Ru Remix)
04. Love Brings Happiness (Tall Black Guy and Kaidi Tatham Remix)
05. Black Rainbow (Melanie Charles Remix)
06. African Sun (Shabaka Hutchings Remix)
07. Altitude (L.O. & Diisco Remix)
08. Running With The Tribe (DJ Nyack Remix)

foobar2000 1.4.1 / Dynamic Range Meter 1.1.1
log date: 2023-11-28 14:52:28

––––––––––––––––––––––––––––––––––––––––
Analyzed: Various Artists - Jazz Is Dead / Remixes JID020
––––––––––––––––––––––––––––––––––––––––

DR Peak RMS Duration Track
––––––––––––––––––––––––––––––––––––––––
DR7 -0.33 dB -8.81 dB 5:15 01-Don't Believe The Dancers (Mophono Remix)
DR4 -0.33 dB -5.84 dB 4:05 02-Phoenix (Theon Cross Remix)
DR7 -0.33 dB -9.13 dB 3:07 03-Reflections (Bei Ru Remix)
DR5 -0.33 dB -7.09 dB 5:26 04-Love Brings Happiness (Tall Black Guy and Kaidi Tatham Remix)
DR6 -0.33 dB -8.39 dB 3:12 05-Black Rainbow (Melanie Charles Remix)
DR6 -0.33 dB -7.24 dB 8:35 06-African Sun (Shabaka Hutchings Remix)
DR6 -0.33 dB -9.04 dB 2:40 07-Altitude (L.O. & Diisco Remix)
DR7 -0.33 dB -8.18 dB 3:52 08-Running With The Tribe (DJ Nyack Remix)
––––––––––––––––––––––––––––––––––––––––

Number of tracks: 8
Official DR value: DR6

Samplerate: 44100 Hz
Channels: 2
Bits per sample: 24
Bitrate: 1535 kbps
Codec: FLAC
================================================================================


Thanks to the Original customer!