Tags
Language
Tags
May 2024
Su Mo Tu We Th Fr Sa
28 29 30 1 2 3 4
5 6 7 8 9 10 11
12 13 14 15 16 17 18
19 20 21 22 23 24 25
26 27 28 29 30 31 1

Isaac Stern, New York Philharmonic, Leonard Bernstein - Alban Berg & Belá Bartók Violin Concertos (Remastered) (2022) [24/96]

Posted By: delpotro
Isaac Stern, New York Philharmonic, Leonard Bernstein - Alban Berg & Belá Bartók Violin Concertos (Remastered) (2022) [24/96]

Isaac Stern, New York Philharmonic & Leonard Bernstein - Alban Berg & Belá Bartók Violin Concertos (Remastered) (2022)
FLAC (tracks) 24-bit/96 kHz | Front Cover & Digital Booklet | Time - 73:14 minutes | 1,35 GB
Classical | Label: Praga Digitals, Official Digital Download

Early in 1935, the American violinist Louis Krasner suggested to Berg that he write a violin concerto, but Berg, involved with the orchestration of his opera Lulu, was not then interested in a new project. However, the death from poliomelytis of his young friend Manon Gropius, daughter of Mahler’s widow, that spring so saddened him that he decided to compose a concerto as a memorial to her. Te score was finished on August 11, 1935 – record time for the slow-working, meticulous Berg. Dedicated ‘to the memory of an angel’ the Violin Concerto was to be his last completed work, for on December 24 he died of septicemia of the age of fifty. Krasner gave the world premiere on April 19, 1936, in Barcelona, under Hermann Scherchen.

Tracklist:
01. Berg: Violin Concerto "To the Memory of an Angel": I. Andante - Allegretto
02. Berg: Violin Concerto "To the Memory of an Angel": II. Allegro (ma sempre rubato) - Adagio
03. Bartók: Rhapsody for Violin and Orchestra No. 2, Sz. 90: I. Lassù (Moderato) - Mäßig
04. Bartók: Rhapsody for Violin and Orchestra No. 2, Sz. 90: II. Friss (Allegro moderato) - Gemächlich
05. Bartók: Violin Concerto No. 2, Sz. 112: I. Allegro non troppo
06. Bartók: Violin Concerto No. 2, Sz. 112: II. Andante tranquillo - Allegro scherzando - Tempo primo
07. Bartók: Violin Concerto No. 2, Sz. 112: III. Allegro molto

foobar2000 1.4.1 / Dynamic Range Meter 1.1.1
log date: 2024-04-17 22:40:36

––––––––––––––––––––––––––––––––––––––––
Analyzed: Isaac Stern / Alban Berg & Belá Bartók: Violin Concertos
––––––––––––––––––––––––––––––––––––––––

DR Peak RMS Duration Track
––––––––––––––––––––––––––––––––––––––––
DR13 -1.23 dB -19.72 dB 10:18 01-I. Andante - Allegretto
DR14 -1.44 dB -19.52 dB 15:13 02-II. Allegro (ma sempre rubato) - Adagio
DR12 -1.94 dB -18.13 dB 4:44 03-I. Lassù (Moderato) - Mäßig
DR13 -1.01 dB -17.51 dB 6:34 04-II. Friss (Allegro moderato) - Gemächlich
DR13 -1.01 dB -18.72 dB 15:22 05-I. Allegro non troppo
DR13 -2.43 dB -21.32 dB 10:05 06-II. Andante tranquillo - Allegro scherzando - Tempo primo
DR13 -1.24 dB -17.96 dB 10:57 07-III. Allegro molto
––––––––––––––––––––––––––––––––––––––––

Number of tracks: 7
Official DR value: DR13

Samplerate: 96000 Hz
Channels: 2
Bits per sample: 24
Bitrate: 2737 kbps
Codec: FLAC
================================================================================


Thanks to the Original customer!