Tags
Language
Tags
April 2024
Su Mo Tu We Th Fr Sa
31 1 2 3 4 5 6
7 8 9 10 11 12 13
14 15 16 17 18 19 20
21 22 23 24 25 26 27
28 29 30 1 2 3 4

Shane Fitzgerald - Way Too Late- Live at Kilburn Mill (2024) [Official Digital Download]

Posted By: pyatak
Shane Fitzgerald - Way Too Late- Live at Kilburn Mill (2024) [Official Digital Download]

Shane Fitzgerald - Way Too Late- Live at Kilburn Mill (2024) [Official Digital Download]
FLAC (tracks) 24-bit/48 kHz | Front Cover | Time - 30:31 minutes | 371 MB
Blues | Studio Master, Official Digital Download

Shane Fitzgerald is a versatile jazz, funk, blues, and rock guitarist from the South Coast. He writes, records, and produces his music while playing solo and full band gigs.

TRACKLIST

1. Shane Fitzgerald - Workin' Man Blues (Live)
2. Shane Fitzgerald - Started Somthing (Live)
3. Shane Fitzgerald - Savannah (Live)
4. Shane Fitzgerald - Friend of the Devil (Live)

foobar2000 1.6.2 / Dynamic Range Meter 1.1.1
log date: 2024-02-28 17:31:36

––––––––––––––––––––––––––––––––––––––––
Analyzed: Shane Fitzgerald / Way Too Late: Live at Kilburn Mill
––––––––––––––––––––––––––––––––––––––––

DR Peak RMS Duration Track
––––––––––––––––––––––––––––––––––––––––
DR10 -1.04 dB -12.64 dB 10:05 01-Workin' Man Blues (Live)
DR10 -1.04 dB -12.85 dB 5:03 02-Started Somthing (Live)
DR9 -1.04 dB -12.33 dB 5:55 03-Savannah (Live)
DR10 -1.04 dB -12.37 dB 9:28 04-Friend of the Devil (Live)
––––––––––––––––––––––––––––––––––––––––

Number of tracks: 4
Official DR value: DR10

Samplerate: 48000 Hz
Channels: 2
Bits per sample: 24
Bitrate: 1715 kbps
Codec: FLAC
================================================================================



Thanks to the Original customer.