Tags
Language
Tags
October 2022
Su Mo Tu We Th Fr Sa
25 26 27 28 29 30 1
2 3 4 5 6 7 8
9 10 11 12 13 14 15
16 17 18 19 20 21 22
23 24 25 26 27 28 29
30 31 1 2 3 4 5

M.C. Hammer - Please Hammer Don't Hurt 'Em (1990/2021) [Official Digital Download 24/192]

Posted By: pyatak
M.C. Hammer - Please Hammer Don't Hurt 'Em (1990/2021) [Official Digital Download 24/192]

M.C. Hammer - Please Hammer Don't Hurt 'Em (1990/2021) [Official Digital Download 24/192]
FLAC (tracks) 24-bit/192 kHz | Front Cover | Time - 45:03 minutes | 1,76 GB
Hip-Hop, R&B | Studio Master, Official Digital Download

Please Hammer Don't Hurt 'Em is the third studio album by MC Hammer, released on February 12, 1990, by Capitol Records and EMI Records. The album was produced, recorded, and mixed by Felton Pilate and James Earley.

The album ranked number one for 21 weeks on the US Billboard 200, due primarily to the success of the single "U Can't Touch This". Likewise, the album saw longevity on the Top R&B/Hip-Hop Albums chart, peaking at number one and staying at the top for 28 weeks. It was the top selling album of 1990 in the United States and one of the bestselling hip hop albums of all time.

TRACKLIST

1. M.C. Hammer - Here Comes The Hammer
2. M.C. Hammer - U Can't Touch This
3. M.C. Hammer - Have You Seen Her
4. M.C. Hammer - On Your Face
5. M.C. Hammer - Help The Children
6. M.C. Hammer - Dancin' Machine
7. M.C. Hammer - Pray
8. M.C. Hammer - Crime Story
9. M.C. Hammer - She's Soft And Wet
10. M.C. Hammer - Lets Go Deeper

foobar2000 1.6.2 / Dynamic Range Meter 1.1.1
log date: 2021-09-12 13:29:43

––––––––––––––––––––––––––––––––––––––––
Analyzed: M.C. Hammer / Please Hammer Don't Hurt 'Em
––––––––––––––––––––––––––––––––––––––––

DR Peak RMS Duration Track
––––––––––––––––––––––––––––––––––––––––
DR7 -0.34 dB -7.73 dB 4:31 01-Here Comes The Hammer
DR8 -0.34 dB -9.49 dB 4:16 02-U Can't Touch This
DR9 -0.34 dB -10.40 dB 4:42 03-Have You Seen Her
DR8 -0.34 dB -8.95 dB 4:32 04-On Your Face
DR10 -0.34 dB -11.47 dB 5:19 05-Help The Children
DR7 -0.34 dB -8.50 dB 2:56 06-Dancin' Machine
DR7 -0.34 dB -8.55 dB 5:13 07-Pray
DR6 -0.34 dB -8.90 dB 5:08 08-Crime Story
DR7 -0.34 dB -8.58 dB 3:25 09-She's Soft And Wet
DR9 -0.34 dB -9.86 dB 5:16 10-Lets Go Deeper
––––––––––––––––––––––––––––––––––––––––

Number of tracks: 10
Official DR value: DR8

Samplerate: 192000 Hz
Channels: 2
Bits per sample: 24
Bitrate: 5618 kbps
Codec: FLAC
================================================================================



Thanks to the Original customer.