Tags
Language
Tags
September 2022
Su Mo Tu We Th Fr Sa
28 29 30 31 1 2 3
4 5 6 7 8 9 10
11 12 13 14 15 16 17
18 19 20 21 22 23 24
25 26 27 28 29 30 1

Lo Greco Bros - Influencias Latinas (2022)

Posted By: v3122
Lo Greco Bros - Influencias Latinas (2022)

Lo Greco Bros - Influencias Latinas (2022)
FLAC (Tracks) 24-bit/44.1 kHz | Official Digital Download | Time: 01:05:24
Latin, Jazz, Electronic | Irma records | ~ 460 Mb

Gianni & Enzo Lo Greco (Lo Greco Bros, Soulstance Quintet Lo Greco) is one of the tightest rhythm sections in the Italian and international music scene today. The two brothers have built a solid reputation thanks to Albums they have recorded that have always been very appreciated by critics, fans and musicians of all kinds. Their Team feature is the great ability to involve the audience in their improvisational textures.
They have collaborated with Chet Baker, Brian Auger, Ray Charles, Stevie Wonder, Elton John, Jobim, Lalo Schifrin, Dee Dee Bridgewater, Nicola Conte, Rosalia De Souza, Gerardo Frisina and many other internationally renowned artists.
Well known are also their production skills, one that stands out is “This Is What You Are” the worldwide Hit by Mario Biondi. Very talented musicians with the project ‘Lo Greco Bros Quartet’ keep in time with today’ sound of great quality jazz. The new project began recording original compositions for the current quartet with special attention to sound built around the rhythmic and melodic and harmonic atmosphere with the sole purpose to improvise, as primary jazz philosophy, along with the sax and the piano and merge the excitement with the listener in a mutual creative stimulation
Lo Greco Bros - Influencias Latinas (2022):

Tracklist:

01 - Funquero (00:05:11)
02 - Gioconda (00:04:39)
03 - Malanga (00:06:03)
04 - Mi Luz (00:04:44)
05 - Sweet Congas (00:04:57)
06 - Que' Rico (00:06:14)
07 - Tumba Funk (00:06:59)
08 - Modern Rhumba (00:05:38)
09 - El Sabor Del Ritmo (00:04:29)
10 - Miami Dream (00:05:16)
11 - Cadenas (00:05:06)
12 - Mi Isla (00:06:03)

foobar2000 1.6.11 / Dynamic Range Meter 1.1.1
log date: 2022-08-16 06:35:03

––––––––––––––––––––––––––––––––––––––––
Analyzed: Lo Greco Bros / Influencias Latinas
––––––––––––––––––––––––––––––––––––––––

DR Peak RMS Duration Track
––––––––––––––––––––––––––––––––––––––––
DR7 -0.20 dB -8.45 dB 5:11 01-Funquero
DR7 -0.20 dB -8.85 dB 4:39 02-Gioconda
DR7 -0.20 dB -7.96 dB 6:03 03-Malanga
DR8 -0.20 dB -9.21 dB 4:45 04-Mi Luz
DR7 -0.20 dB -8.07 dB 4:57 05-Sweet Congas
DR10 -0.20 dB -11.43 dB 6:15 06-Que' Rico
DR7 -0.20 dB -9.10 dB 6:59 06-Tumba Funk
DR7 -0.20 dB -8.18 dB 5:38 07-Modern Rhumba
DR8 -0.20 dB -8.73 dB 4:29 08-El Sabor Del Ritmo
DR7 -0.20 dB -8.35 dB 5:17 09-Miami Dream
DR7 -0.20 dB -8.53 dB 5:06 10-Cadenas
DR8 -0.20 dB -9.96 dB 6:04 11-Mi Isla
––––––––––––––––––––––––––––––––––––––––

Number of tracks: 12
Official DR value: DR7

Samplerate: 44100 Hz
Channels: 2
Bits per sample: 24
Bitrate: 968 kbps
Codec: FLAC

All thanks go to the original releaser

Lo Greco Bros in my Blog

Download Lo Greco Bros - Influencias Latinas (2022):