Tags
Language
Tags
July 2024
Su Mo Tu We Th Fr Sa
30 1 2 3 4 5 6
7 8 9 10 11 12 13
14 15 16 17 18 19 20
21 22 23 24 25 26 27
28 29 30 31 1 2 3

Sarah Vaughan - Four Classic Albums (2019)

Posted By: delpotro
Sarah Vaughan - Four Classic Albums (2019)

Sarah Vaughan - Four Classic Albums (2023)
XLD Rip | FLAC (tracks+log+.cue) - 751 Mb | MP3 CBR 320 kbps - 351 Mb | 02:33:05
Vocal Jazz | Label: Avid Jazz

AVID Jazz continues with its Four Classic Albums series with a re-mastered 2CD set release from Sarah Vaughan ('Sarah Vaughan', 'Swingin' Easy', 'At Mister Kelly's'; and 'No Count Sarah').

Along with the more obvious names like Ella, Billie and Peggy we have many other fine jazz singers such as Anita O'Day (AMSC1136, 1129 & 963), Dakota Staton (AMSC1312 & 1259); Jeri Southern (AMSC1291); Chris Connor (AMSC1089); Ernestine Anderson (AMSC1170); Lurlean Hunter (AMSC1171); Morgana King (AMSC1021) the list is indeed, extensive. Some you may know, others perhaps not, but they are all wonderful singers and all deserve your attention, believe us! To this fabulous catalogue we can now add, perhaps a little belatedly, you may reasonably argue, the legendary Sarah Vaughan. One of the very few female jazz singers along with the afore mentioned Ella Fitzgerald and Billie Holiday who can truly be called a jazz icon.
Tracklist:
CD1
01. Lullaby of Birdland
02. April in Paris
03. He's My Guy
04. Jim
05. You're Not the Kind
06. Embraceable You
07. I'm Glad There Is You
08. September Song
09. It's Crazy
10. Shulie A Bop
11. Lover Man
12. I Cried for You
13. Polka Dots and Moonbeams
14. All of Me
15. Words Can't Describe
16. Prelude to a Kiss
17. You Hit the Spot
18. Pennies from Heaven
19. If I Knew Then (What I Know Now)
20. Body and Soul
21. They Can't Take That Away from Me

CD2
01. September in the Rain
02. Willow Weep for Me
03. Just One of Those Things
04. Be Anything (But Darling Be Mine)
05. Thou Swell
06. Stairway to the Stars
07. Honeysuckle Rose
08. Just a Gigolo
09. How High the Moon
10. Smoke Gets in Your Eyes
11. Doodlin'
12. Darn That Dream
13. Just One of Those Things
14. Moonlight in Vermont
15. No Count Blues
16. Cheek to Cheek
17. Stardust
18. Missing You

X Lossless Decoder version 20230416 (156.0)

XLD extraction logfile from 2023-06-19 13:32:15 -0700

Sarah Vaughan / Four Classic Albums (Disc 1)

Used drive : HL-DT-ST DVDRAM GP60NB50 (revision RF01)
Media type : Pressed CD

Ripper mode : XLD Secure Ripper
Disable audio cache : OK for the drive with a cache less than 1375KiB
Make use of C2 pointers : NO
Read offset correction : 6
Max retry count : 20
Gap status : Analyzed, Appended (except HTOA)

TOC of the extracted CD
Track | Start | Length | Start sector | End sector
––––––––––––––––––––––––––––-
1 | 00:00:00 | 04:01:48 | 0 | 18122
2 | 04:01:48 | 06:21:41 | 18123 | 46738
3 | 10:23:14 | 04:13:42 | 46739 | 65755
4 | 14:36:56 | 05:52:09 | 65756 | 92164
5 | 20:28:65 | 04:44:05 | 92165 | 113469
6 | 25:12:70 | 04:50:58 | 113470 | 135277
7 | 30:03:53 | 05:11:24 | 135278 | 158626
8 | 35:15:02 | 05:46:17 | 158627 | 184593
9 | 41:01:19 | 04:56:42 | 184594 | 206835
10 | 45:57:61 | 02:41:22 | 206836 | 218932
11 | 48:39:08 | 03:17:54 | 218933 | 233761
12 | 51:56:62 | 01:41:65 | 233762 | 241401
13 | 53:38:52 | 02:35:15 | 241402 | 253041
14 | 56:13:67 | 03:17:18 | 253042 | 267834
15 | 59:31:10 | 04:34:09 | 267835 | 288393
16 | 64:05:19 | 02:46:60 | 288394 | 300903
17 | 66:52:04 | 03:02:28 | 300904 | 314581
18 | 69:54:32 | 03:06:50 | 314582 | 328581
19 | 73:01:07 | 02:32:47 | 328582 | 340028
20 | 75:33:54 | 03:14:11 | 340029 | 354589
21 | 78:47:65 | 02:40:57 | 354590 | 366646

AccurateRip Summary (DiscID: 00452072-04043e4d-32131815)
Track 01 : OK (v2, confidence 2/2)
Track 02 : OK (v2, confidence 2/2)
Track 03 : OK (v2, confidence 2/2)
Track 04 : OK (v2, confidence 2/2)
Track 05 : OK (v2, confidence 2/2)
Track 06 : OK (v2, confidence 2/2)
Track 07 : OK (v2, confidence 2/2)
Track 08 : OK (v2, confidence 2/2)
Track 09 : OK (v2, confidence 2/2)
Track 10 : OK (v2, confidence 2/2)
Track 11 : OK (v2, confidence 2/2)
Track 12 : OK (v2, confidence 2/2)
Track 13 : OK (v2, confidence 2/2)
Track 14 : OK (v2, confidence 2/2)
Track 15 : OK (v2, confidence 2/2)
Track 16 : OK (v2, confidence 2/2)
Track 17 : OK (v2, confidence 2/2)
Track 18 : OK (v2, confidence 2/2)
Track 19 : OK (v2, confidence 2/2)
Track 20 : OK (v2, confidence 2/2)
Track 21 : OK (v2, confidence 2/2)
->All tracks accurately ripped.

All Tracks
Album gain : -1.61 dB
Peak : 0.991119
Statistics
Read error : 0
Jitter error (maybe fixed) : 0
Retry sector count : 0
Damaged sector count : 0

Track 01
Filename : /Volumes/El Segundo/Rips/Sarah Vaughan - Four Classic Albums (Disc 1) (2019) [FLAC]/01 Lullaby of Birdland.flac
Pre-gap length : 00:02:00

Track gain : -2.04 dB
Peak : 0.861298
CRC32 hash (test run) : 93A33788
CRC32 hash : 93A33788
CRC32 hash (skip zero) : B8FFA01D
AccurateRip v1 signature : 74FDE714
AccurateRip v2 signature : E351C4AE
->Accurately ripped (v2, confidence 2/2)
Statistics
Read error : 0
Jitter error (maybe fixed) : 0
Retry sector count : 0
Damaged sector count : 0

Track 02
Filename : /Volumes/El Segundo/Rips/Sarah Vaughan - Four Classic Albums (Disc 1) (2019) [FLAC]/02 April in Paris.flac
Pre-gap length : 00:02:00

Track gain : 0.67 dB
Peak : 0.664886
CRC32 hash (test run) : 92509D7A
CRC32 hash : 92509D7A
CRC32 hash (skip zero) : 6709D164
AccurateRip v1 signature : F3117191
AccurateRip v2 signature : 563C5767
->Accurately ripped (v2, confidence 2/2)
Statistics
Read error : 0
Jitter error (maybe fixed) : 0
Retry sector count : 0
Damaged sector count : 0

Track 03
Filename : /Volumes/El Segundo/Rips/Sarah Vaughan - Four Classic Albums (Disc 1) (2019) [FLAC]/03 He's My Guy.flac
Pre-gap length : 00:02:00

Track gain : -1.99 dB
Peak : 0.811462
CRC32 hash (test run) : 618F5D46
CRC32 hash : 618F5D46
CRC32 hash (skip zero) : C8DC3533
AccurateRip v1 signature : 66990C34
AccurateRip v2 signature : DBADED8B
->Accurately ripped (v2, confidence 2/2)
Statistics
Read error : 0
Jitter error (maybe fixed) : 0
Retry sector count : 0
Damaged sector count : 0

Track 04
Filename : /Volumes/El Segundo/Rips/Sarah Vaughan - Four Classic Albums (Disc 1) (2019) [FLAC]/04 Jim.flac
Pre-gap length : 00:02:00

Track gain : -0.20 dB
Peak : 0.977234
CRC32 hash (test run) : C849F1C8
CRC32 hash : C849F1C8
CRC32 hash (skip zero) : 0EA87347
AccurateRip v1 signature : F0C9CBCD
AccurateRip v2 signature : FD141EBC
->Accurately ripped (v2, confidence 2/2)
Statistics
Read error : 0
Jitter error (maybe fixed) : 0
Retry sector count : 0
Damaged sector count : 0

Track 05
Filename : /Volumes/El Segundo/Rips/Sarah Vaughan - Four Classic Albums (Disc 1) (2019) [FLAC]/05 You're Not the Kind.flac
Pre-gap length : 00:02:00

Track gain : -3.81 dB
Peak : 0.901764
CRC32 hash (test run) : A4FA2B57
CRC32 hash : A4FA2B57
CRC32 hash (skip zero) : FA435684
AccurateRip v1 signature : 75CB150A
AccurateRip v2 signature : E7021BFF
->Accurately ripped (v2, confidence 2/2)
Statistics
Read error : 0
Jitter error (maybe fixed) : 0
Retry sector count : 0
Damaged sector count : 0

Track 06
Filename : /Volumes/El Segundo/Rips/Sarah Vaughan - Four Classic Albums (Disc 1) (2019) [FLAC]/06 Embraceable You.flac
Pre-gap length : 00:02:00

Track gain : -0.73 dB
Peak : 0.819641
CRC32 hash (test run) : 0E60871A
CRC32 hash : 0E60871A
CRC32 hash (skip zero) : 65ACA9AA
AccurateRip v1 signature : 614E0D18
AccurateRip v2 signature : 0AF77399
->Accurately ripped (v2, confidence 2/2)
Statistics
Read error : 0
Jitter error (maybe fixed) : 0
Retry sector count : 0
Damaged sector count : 0

Track 07
Filename : /Volumes/El Segundo/Rips/Sarah Vaughan - Four Classic Albums (Disc 1) (2019) [FLAC]/07 I'm Glad There Is You.flac
Pre-gap length : 00:02:00

Track gain : -1.74 dB
Peak : 0.713989
CRC32 hash (test run) : C517FC78
CRC32 hash : C517FC78
CRC32 hash (skip zero) : DDC85D7D
AccurateRip v1 signature : 72EC210D
AccurateRip v2 signature : 53850C8B
->Accurately ripped (v2, confidence 2/2)
Statistics
Read error : 0
Jitter error (maybe fixed) : 0
Retry sector count : 0
Damaged sector count : 0

Track 08
Filename : /Volumes/El Segundo/Rips/Sarah Vaughan - Four Classic Albums (Disc 1) (2019) [FLAC]/08 September Song.flac
Pre-gap length : 00:02:00

Track gain : -1.17 dB
Peak : 0.700562
CRC32 hash (test run) : 609DE24E
CRC32 hash : 609DE24E
CRC32 hash (skip zero) : 067BCD7C
AccurateRip v1 signature : 1DF32B10
AccurateRip v2 signature : 09715568
->Accurately ripped (v2, confidence 2/2)
Statistics
Read error : 0
Jitter error (maybe fixed) : 0
Retry sector count : 0
Damaged sector count : 0

Track 09
Filename : /Volumes/El Segundo/Rips/Sarah Vaughan - Four Classic Albums (Disc 1) (2019) [FLAC]/09 It's Crazy.flac
Pre-gap length : 00:02:00

Track gain : -2.63 dB
Peak : 0.867401
CRC32 hash (test run) : 412C0869
CRC32 hash : 412C0869
CRC32 hash (skip zero) : 6FDA51AE
AccurateRip v1 signature : 38C3F56D
AccurateRip v2 signature : 8AC9854C
->Accurately ripped (v2, confidence 2/2)
Statistics
Read error : 0
Jitter error (maybe fixed) : 0
Retry sector count : 0
Damaged sector count : 0

Track 10
Filename : /Volumes/El Segundo/Rips/Sarah Vaughan - Four Classic Albums (Disc 1) (2019) [FLAC]/10 Shulie A Bop.flac
Pre-gap length : 00:02:00

Track gain : -0.95 dB
Peak : 0.909698
CRC32 hash (test run) : E108702F
CRC32 hash : E108702F
CRC32 hash (skip zero) : 8CAD106B
AccurateRip v1 signature : 1FE80B1C
AccurateRip v2 signature : EF30DEC3
->Accurately ripped (v2, confidence 2/2)
Statistics
Read error : 0
Jitter error (maybe fixed) : 0
Retry sector count : 0
Damaged sector count : 0

Track 11
Filename : /Volumes/El Segundo/Rips/Sarah Vaughan - Four Classic Albums (Disc 1) (2019) [FLAC]/11 Lover Man.flac
Pre-gap length : 00:02:00

Track gain : 1.51 dB
Peak : 0.556122
CRC32 hash (test run) : 2FC42FD7
CRC32 hash : 2FC42FD7
CRC32 hash (skip zero) : F1EAD265
AccurateRip v1 signature : B88F2F26
AccurateRip v2 signature : 4D5DC4F8
->Accurately ripped (v2, confidence 2/2)
Statistics
Read error : 0
Jitter error (maybe fixed) : 0
Retry sector count : 0
Damaged sector count : 0

Track 12
Filename : /Volumes/El Segundo/Rips/Sarah Vaughan - Four Classic Albums (Disc 1) (2019) [FLAC]/12 I Cried for You.flac
Pre-gap length : 00:02:00

Track gain : -4.41 dB
Peak : 0.974915
CRC32 hash (test run) : 15A3B352
CRC32 hash : 15A3B352
CRC32 hash (skip zero) : 8CDC116F
AccurateRip v1 signature : B29731F5
AccurateRip v2 signature : 021B7414
->Accurately ripped (v2, confidence 2/2)
Statistics
Read error : 0
Jitter error (maybe fixed) : 0
Retry sector count : 0
Damaged sector count : 0

Track 13
Filename : /Volumes/El Segundo/Rips/Sarah Vaughan - Four Classic Albums (Disc 1) (2019) [FLAC]/13 Polka Dots and Moonbeams.flac
Pre-gap length : 00:02:00

Track gain : 0.46 dB
Peak : 0.589172
CRC32 hash (test run) : 3D0829EE
CRC32 hash : 3D0829EE
CRC32 hash (skip zero) : E558F498
AccurateRip v1 signature : 71FAA08D
AccurateRip v2 signature : 3584DE6F
->Accurately ripped (v2, confidence 2/2)
Statistics
Read error : 0
Jitter error (maybe fixed) : 0
Retry sector count : 0
Damaged sector count : 0

Track 14
Filename : /Volumes/El Segundo/Rips/Sarah Vaughan - Four Classic Albums (Disc 1) (2019) [FLAC]/14 All of Me.flac
Pre-gap length : 00:02:00

Track gain : -3.42 dB
Peak : 0.809296
CRC32 hash (test run) : 28F0521F
CRC32 hash : 28F0521F
CRC32 hash (skip zero) : DD3C7857
AccurateRip v1 signature : A937FCE9
AccurateRip v2 signature : 73B11CBD
->Accurately ripped (v2, confidence 2/2)
Statistics
Read error : 0
Jitter error (maybe fixed) : 0
Retry sector count : 0
Damaged sector count : 0

Track 15
Filename : /Volumes/El Segundo/Rips/Sarah Vaughan - Four Classic Albums (Disc 1) (2019) [FLAC]/15 Words Can't Describe.flac
Pre-gap length : 00:02:00

Track gain : -0.38 dB
Peak : 0.883270
CRC32 hash (test run) : C70097BA
CRC32 hash : C70097BA
CRC32 hash (skip zero) : 28038217
AccurateRip v1 signature : 3111BB39
AccurateRip v2 signature : E2922BC3
->Accurately ripped (v2, confidence 2/2)
Statistics
Read error : 0
Jitter error (maybe fixed) : 0
Retry sector count : 0
Damaged sector count : 0

Track 16
Filename : /Volumes/El Segundo/Rips/Sarah Vaughan - Four Classic Albums (Disc 1) (2019) [FLAC]/16 Prelude to a Kiss.flac
Pre-gap length : 00:02:00

Track gain : 1.68 dB
Peak : 0.631866
CRC32 hash (test run) : BFB26980
CRC32 hash : BFB26980
CRC32 hash (skip zero) : DA93CB5D
AccurateRip v1 signature : CAFE321F
AccurateRip v2 signature : 364071FA
->Accurately ripped (v2, confidence 2/2)
Statistics
Read error : 0
Jitter error (maybe fixed) : 0
Retry sector count : 0
Damaged sector count : 0

Track 17
Filename : /Volumes/El Segundo/Rips/Sarah Vaughan - Four Classic Albums (Disc 1) (2019) [FLAC]/17 You Hit the Spot.flac
Pre-gap length : 00:02:00

Track gain : -2.02 dB
Peak : 0.991119
CRC32 hash (test run) : 932D6D01
CRC32 hash : 932D6D01
CRC32 hash (skip zero) : 75DAFBD3
AccurateRip v1 signature : EC5DABB2
AccurateRip v2 signature : E0065617
->Accurately ripped (v2, confidence 2/2)
Statistics
Read error : 0
Jitter error (maybe fixed) : 0
Retry sector count : 0
Damaged sector count : 0

Track 18
Filename : /Volumes/El Segundo/Rips/Sarah Vaughan - Four Classic Albums (Disc 1) (2019) [FLAC]/18 Pennies from Heaven.flac
Pre-gap length : 00:02:00

Track gain : -1.65 dB
Peak : 0.891235
CRC32 hash (test run) : 21E09D62
CRC32 hash : 21E09D62
CRC32 hash (skip zero) : F3FF6995
AccurateRip v1 signature : BCCB7D1E
AccurateRip v2 signature : FAF7075A
->Accurately ripped (v2, confidence 2/2)
Statistics
Read error : 0
Jitter error (maybe fixed) : 0
Retry sector count : 0
Damaged sector count : 0

Track 19
Filename : /Volumes/El Segundo/Rips/Sarah Vaughan - Four Classic Albums (Disc 1) (2019) [FLAC]/19 If I Knew Then (What I Know Now).flac
Pre-gap length : 00:02:00

Track gain : -2.88 dB
Peak : 0.931427
CRC32 hash (test run) : 400792D5
CRC32 hash : 400792D5
CRC32 hash (skip zero) : A4710100
AccurateRip v1 signature : AB1C5907
AccurateRip v2 signature : 88BBD296
->Accurately ripped (v2, confidence 2/2)
Statistics
Read error : 0
Jitter error (maybe fixed) : 0
Retry sector count : 0
Damaged sector count : 0

Track 20
Filename : /Volumes/El Segundo/Rips/Sarah Vaughan - Four Classic Albums (Disc 1) (2019) [FLAC]/20 Body and Soul.flac
Pre-gap length : 00:02:00

Track gain : 1.12 dB
Peak : 0.844879
CRC32 hash (test run) : 59630C48
CRC32 hash : 59630C48
CRC32 hash (skip zero) : 856B74C1
AccurateRip v1 signature : 9CB1C445
AccurateRip v2 signature : AED35194
->Accurately ripped (v2, confidence 2/2)
Statistics
Read error : 0
Jitter error (maybe fixed) : 0
Retry sector count : 0
Damaged sector count : 0

Track 21
Filename : /Volumes/El Segundo/Rips/Sarah Vaughan - Four Classic Albums (Disc 1) (2019) [FLAC]/21 They Can't Take That Away from Me.flac
Pre-gap length : 00:02:00

Track gain : -1.62 dB
Peak : 0.977203
CRC32 hash (test run) : 7B4AC3E9
CRC32 hash : 7B4AC3E9
CRC32 hash (skip zero) : 232E8220
AccurateRip v1 signature : 077F6976
AccurateRip v2 signature : 200A8D87
->Accurately ripped (v2, confidence 2/2)
Statistics
Read error : 0
Jitter error (maybe fixed) : 0
Retry sector count : 0
Damaged sector count : 0

No errors occurred

End of status report

––-BEGIN XLD SIGNATURE––-
FBVwLKpx2_DC.hqUnIRVwJECoL4xIDHvFOWHyYlupuLnfGz9oQYLGwuN4hvRvRsO_IkU6ff5C_pEJkpVsMDkrAULQlu3xagHoGM00JC
––-END XLD SIGNATURE––-
X Lossless Decoder version 20230416 (156.0)

XLD extraction logfile from 2023-06-19 14:29:02 -0700

Sarah Vaughan / Four Classic Albums (Disc 2)

Used drive : HL-DT-ST DVDRAM GP60NB50 (revision RF01)
Media type : Pressed CD

Ripper mode : XLD Secure Ripper
Disable audio cache : OK for the drive with a cache less than 1375KiB
Make use of C2 pointers : NO
Read offset correction : 6
Max retry count : 20
Gap status : Analyzed, Appended (except HTOA)

TOC of the extracted CD
Track | Start | Length | Start sector | End sector
––––––––––––––––––––––––––––-
1 | 00:00:00 | 03:36:38 | 0 | 16237
2 | 03:36:38 | 05:20:69 | 16238 | 40306
3 | 08:57:32 | 03:15:52 | 40307 | 54983
4 | 12:13:09 | 04:48:28 | 54984 | 76611
5 | 17:01:37 | 02:47:14 | 76612 | 89150
6 | 19:48:51 | 05:07:49 | 89151 | 112224
7 | 24:56:25 | 03:39:23 | 112225 | 128672
8 | 28:35:48 | 04:18:24 | 128673 | 148046
9 | 32:53:72 | 03:00:51 | 148047 | 161597
10 | 35:54:48 | 03:59:49 | 161598 | 179571
11 | 39:54:22 | 04:36:42 | 179572 | 200313
12 | 44:30:64 | 03:45:13 | 200314 | 217201
13 | 48:16:02 | 02:32:64 | 217202 | 228665
14 | 50:48:66 | 03:21:03 | 228666 | 243743
15 | 54:09:69 | 05:29:09 | 243744 | 268427
16 | 59:39:03 | 05:10:51 | 268428 | 291728
17 | 64:49:54 | 03:18:49 | 291729 | 306627
18 | 68:08:28 | 03:28:17 | 306628 | 322244

AccurateRip Summary (DiscID: 002f181b-0271c758-0f10c812)
Track 01 : OK (v2, confidence 2/2)
Track 02 : OK (v2, confidence 2/2)
Track 03 : OK (v2, confidence 2/2)
Track 04 : OK (v2, confidence 2/2)
Track 05 : OK (v2, confidence 2/2)
Track 06 : OK (v2, confidence 2/2)
Track 07 : OK (v2, confidence 2/2)
Track 08 : OK (v2, confidence 2/2)
Track 09 : OK (v2, confidence 2/2)
Track 10 : OK (v2, confidence 2/2)
Track 11 : OK (v2, confidence 2/2)
Track 12 : OK (v2, confidence 2/2)
Track 13 : OK (v2, confidence 2/2)
Track 14 : OK (v2, confidence 2/2)
Track 15 : OK (v2, confidence 2/2)
Track 16 : OK (v2, confidence 2/2)
Track 17 : OK (v2, confidence 2/2)
Track 18 : OK (v2, confidence 2/2)
->All tracks accurately ripped.

All Tracks
Album gain : -2.78 dB
Peak : 0.995514
Statistics
Read error : 0
Jitter error (maybe fixed) : 0
Retry sector count : 0
Damaged sector count : 0

Track 01
Filename : /Volumes/El Segundo/Rips/Sarah Vaughan - Four Classic Albums (Disc 2) (2019) [FLAC]/01 September in the Rain.flac
Pre-gap length : 00:02:00

Track gain : -1.90 dB
Peak : 0.923859
CRC32 hash (test run) : 074BB42E
CRC32 hash : 074BB42E
CRC32 hash (skip zero) : AAA490F8
AccurateRip v1 signature : A3B9694F
AccurateRip v2 signature : 5E6127FD
->Accurately ripped (v2, confidence 2/2)
Statistics
Read error : 0
Jitter error (maybe fixed) : 0
Retry sector count : 0
Damaged sector count : 0

Track 02
Filename : /Volumes/El Segundo/Rips/Sarah Vaughan - Four Classic Albums (Disc 2) (2019) [FLAC]/02 Willow Weep for Me.flac
Pre-gap length : 00:02:00

Track gain : -0.66 dB
Peak : 0.918549
CRC32 hash (test run) : D7FF74CB
CRC32 hash : D7FF74CB
CRC32 hash (skip zero) : 50624131
AccurateRip v1 signature : 80002673
AccurateRip v2 signature : B1B69ED9
->Accurately ripped (v2, confidence 2/2)
Statistics
Read error : 0
Jitter error (maybe fixed) : 0
Retry sector count : 0
Damaged sector count : 0

Track 03
Filename : /Volumes/El Segundo/Rips/Sarah Vaughan - Four Classic Albums (Disc 2) (2019) [FLAC]/03 Just One of Those Things.flac
Pre-gap length : 00:02:00

Track gain : -2.90 dB
Peak : 0.906311
CRC32 hash (test run) : 7F4A279B
CRC32 hash : 7F4A279B
CRC32 hash (skip zero) : 235AFF1A
AccurateRip v1 signature : E8C2F21C
AccurateRip v2 signature : FD48EED3
->Accurately ripped (v2, confidence 2/2)
Statistics
Read error : 0
Jitter error (maybe fixed) : 0
Retry sector count : 0
Damaged sector count : 0

Track 04
Filename : /Volumes/El Segundo/Rips/Sarah Vaughan - Four Classic Albums (Disc 2) (2019) [FLAC]/04 Be Anything (But Darling Be Mine).flac
Pre-gap length : 00:02:00

Track gain : -1.14 dB
Peak : 0.993774
CRC32 hash (test run) : 04BF793E
CRC32 hash : 04BF793E
CRC32 hash (skip zero) : 3FF364A3
AccurateRip v1 signature : D25FE257
AccurateRip v2 signature : DDC8B918
->Accurately ripped (v2, confidence 2/2)
Statistics
Read error : 0
Jitter error (maybe fixed) : 0
Retry sector count : 0
Damaged sector count : 0

Track 05
Filename : /Volumes/El Segundo/Rips/Sarah Vaughan - Four Classic Albums (Disc 2) (2019) [FLAC]/05 Thou Swell.flac
Pre-gap length : 00:02:00

Track gain : -3.96 dB
Peak : 0.893494
CRC32 hash (test run) : 9A5A909B
CRC32 hash : 9A5A909B
CRC32 hash (skip zero) : 2614E5A3
AccurateRip v1 signature : 158FCD6F
AccurateRip v2 signature : 45C93333
->Accurately ripped (v2, confidence 2/2)
Statistics
Read error : 0
Jitter error (maybe fixed) : 0
Retry sector count : 0
Damaged sector count : 0

Track 06
Filename : /Volumes/El Segundo/Rips/Sarah Vaughan - Four Classic Albums (Disc 2) (2019) [FLAC]/06 Stairway to the Stars.flac
Pre-gap length : 00:02:00

Track gain : -1.45 dB
Peak : 0.945770
CRC32 hash (test run) : 69766619
CRC32 hash : 69766619
CRC32 hash (skip zero) : C1E3CDB6
AccurateRip v1 signature : D09FCC92
AccurateRip v2 signature : E141A4A7
->Accurately ripped (v2, confidence 2/2)
Statistics
Read error : 0
Jitter error (maybe fixed) : 0
Retry sector count : 0
Damaged sector count : 0

Track 07
Filename : /Volumes/El Segundo/Rips/Sarah Vaughan - Four Classic Albums (Disc 2) (2019) [FLAC]/07 Honeysuckle Rose.flac
Pre-gap length : 00:02:00

Track gain : -2.81 dB
Peak : 0.893341
CRC32 hash (test run) : 7729402C
CRC32 hash : 7729402C
CRC32 hash (skip zero) : EB57019E
AccurateRip v1 signature : B855478F
AccurateRip v2 signature : 07B2C141
->Accurately ripped (v2, confidence 2/2)
Statistics
Read error : 0
Jitter error (maybe fixed) : 0
Retry sector count : 0
Damaged sector count : 0

Track 08
Filename : /Volumes/El Segundo/Rips/Sarah Vaughan - Four Classic Albums (Disc 2) (2019) [FLAC]/08 Just a Gigolo.flac
Pre-gap length : 00:02:00

Track gain : -0.24 dB
Peak : 0.953461
CRC32 hash (test run) : B4C8453B
CRC32 hash : B4C8453B
CRC32 hash (skip zero) : 38D38438
AccurateRip v1 signature : 3943F8A4
AccurateRip v2 signature : DAB05C61
->Accurately ripped (v2, confidence 2/2)
Statistics
Read error : 0
Jitter error (maybe fixed) : 0
Retry sector count : 0
Damaged sector count : 0

Track 09
Filename : /Volumes/El Segundo/Rips/Sarah Vaughan - Four Classic Albums (Disc 2) (2019) [FLAC]/09 How High the Moon.flac
Pre-gap length : 00:02:00

Track gain : -4.09 dB
Peak : 0.969604
CRC32 hash (test run) : C20ACC34
CRC32 hash : C20ACC34
CRC32 hash (skip zero) : F10A239A
AccurateRip v1 signature : ED54F396
AccurateRip v2 signature : 7B450600
->Accurately ripped (v2, confidence 2/2)
Statistics
Read error : 0
Jitter error (maybe fixed) : 0
Retry sector count : 0
Damaged sector count : 0

Track 10
Filename : /Volumes/El Segundo/Rips/Sarah Vaughan - Four Classic Albums (Disc 2) (2019) [FLAC]/10 Smoke Gets in Your Eyes.flac
Pre-gap length : 00:02:00

Track gain : -3.61 dB
Peak : 0.903534
CRC32 hash (test run) : 93CDCEBE
CRC32 hash : 93CDCEBE
CRC32 hash (skip zero) : 31D72BDA
AccurateRip v1 signature : B4BA8665
AccurateRip v2 signature : 9ADFC2BF
->Accurately ripped (v2, confidence 2/2)
Statistics
Read error : 0
Jitter error (maybe fixed) : 0
Retry sector count : 0
Damaged sector count : 0

Track 11
Filename : /Volumes/El Segundo/Rips/Sarah Vaughan - Four Classic Albums (Disc 2) (2019) [FLAC]/11 Doodlin'.flac
Pre-gap length : 00:02:00

Track gain : -3.99 dB
Peak : 0.988312
CRC32 hash (test run) : C093FDDD
CRC32 hash : C093FDDD
CRC32 hash (skip zero) : 818E4ED5
AccurateRip v1 signature : 5A7C0240
AccurateRip v2 signature : 5FF017D5
->Accurately ripped (v2, confidence 2/2)
Statistics
Read error : 0
Jitter error (maybe fixed) : 0
Retry sector count : 0
Damaged sector count : 0

Track 12
Filename : /Volumes/El Segundo/Rips/Sarah Vaughan - Four Classic Albums (Disc 2) (2019) [FLAC]/12 Darn That Dream.flac
Pre-gap length : 00:02:00

Track gain : -1.27 dB
Peak : 0.769714
CRC32 hash (test run) : B2630112
CRC32 hash : B2630112
CRC32 hash (skip zero) : E7B6412F
AccurateRip v1 signature : 2824213B
AccurateRip v2 signature : 60524307
->Accurately ripped (v2, confidence 2/2)
Statistics
Read error : 0
Jitter error (maybe fixed) : 0
Retry sector count : 0
Damaged sector count : 0

Track 13
Filename : /Volumes/El Segundo/Rips/Sarah Vaughan - Four Classic Albums (Disc 2) (2019) [FLAC]/13 Just One of Those Things.flac
Pre-gap length : 00:02:00

Track gain : -5.33 dB
Peak : 0.920563
CRC32 hash (test run) : 8292EF7A
CRC32 hash : 8292EF7A
CRC32 hash (skip zero) : ECB462A9
AccurateRip v1 signature : 43DB6DD1
AccurateRip v2 signature : 9040AD2A
->Accurately ripped (v2, confidence 2/2)
Statistics
Read error : 0
Jitter error (maybe fixed) : 0
Retry sector count : 0
Damaged sector count : 0

Track 14
Filename : /Volumes/El Segundo/Rips/Sarah Vaughan - Four Classic Albums (Disc 2) (2019) [FLAC]/14 Moonlight in Vermont.flac
Pre-gap length : 00:02:00

Track gain : -2.57 dB
Peak : 0.819611
CRC32 hash (test run) : 2EDB88D4
CRC32 hash : 2EDB88D4
CRC32 hash (skip zero) : EC519B2B
AccurateRip v1 signature : F39C2553
AccurateRip v2 signature : 706D4651
->Accurately ripped (v2, confidence 2/2)
Statistics
Read error : 0
Jitter error (maybe fixed) : 0
Retry sector count : 0
Damaged sector count : 0

Track 15
Filename : /Volumes/El Segundo/Rips/Sarah Vaughan - Four Classic Albums (Disc 2) (2019) [FLAC]/15 No Count Blues.flac
Pre-gap length : 00:02:00

Track gain : -2.14 dB
Peak : 0.995514
CRC32 hash (test run) : 795B0272
CRC32 hash : 795B0272
CRC32 hash (skip zero) : 173EDD5D
AccurateRip v1 signature : 6E7D5D0D
AccurateRip v2 signature : 65B98104
->Accurately ripped (v2, confidence 2/2)
Statistics
Read error : 0
Jitter error (maybe fixed) : 0
Retry sector count : 0
Damaged sector count : 0

Track 16
Filename : /Volumes/El Segundo/Rips/Sarah Vaughan - Four Classic Albums (Disc 2) (2019) [FLAC]/16 Cheek to Cheek.flac
Pre-gap length : 00:02:00

Track gain : -3.47 dB
Peak : 0.849976
CRC32 hash (test run) : 2B2153CB
CRC32 hash : 2B2153CB
CRC32 hash (skip zero) : DFCF3706
AccurateRip v1 signature : 22D005A2
AccurateRip v2 signature : 28544E5F
->Accurately ripped (v2, confidence 2/2)
Statistics
Read error : 0
Jitter error (maybe fixed) : 0
Retry sector count : 0
Damaged sector count : 0

Track 17
Filename : /Volumes/El Segundo/Rips/Sarah Vaughan - Four Classic Albums (Disc 2) (2019) [FLAC]/17 Stardust.flac
Pre-gap length : 00:02:00

Track gain : -3.32 dB
Peak : 0.914886
CRC32 hash (test run) : 7ED9051C
CRC32 hash : 7ED9051C
CRC32 hash (skip zero) : 9CF0C8B2
AccurateRip v1 signature : 1434B576
AccurateRip v2 signature : 7143BDE5
->Accurately ripped (v2, confidence 2/2)
Statistics
Read error : 0
Jitter error (maybe fixed) : 0
Retry sector count : 0
Damaged sector count : 0

Track 18
Filename : /Volumes/El Segundo/Rips/Sarah Vaughan - Four Classic Albums (Disc 2) (2019) [FLAC]/18 Missing You.flac
Pre-gap length : 00:02:00

Track gain : -2.34 dB
Peak : 0.843079
CRC32 hash (test run) : 9065E7DF
CRC32 hash : 9065E7DF
CRC32 hash (skip zero) : 685B4DDE
AccurateRip v1 signature : B39125E0
AccurateRip v2 signature : D8B4E93C
->Accurately ripped (v2, confidence 2/2)
Statistics
Read error : 0
Jitter error (maybe fixed) : 0
Retry sector count : 0
Damaged sector count : 0

No errors occurred

End of status report

––-BEGIN XLD SIGNATURE––-
ql9hwPCXezs9FUn4XnlbufSJIMihcvxJo5sMXtWdz5QrtSwk3zZbjU7QSkULObcVUDomPMyICQ2PdVLO7l5AiG907oq31em8nT.CtTa
––-END XLD SIGNATURE––-

Thanks to the Original ripper !