Tags
Language
Tags
July 2024
Su Mo Tu We Th Fr Sa
30 1 2 3 4 5 6
7 8 9 10 11 12 13
14 15 16 17 18 19 20
21 22 23 24 25 26 27
28 29 30 31 1 2 3

Melt Yourself Down - Pray For Me I Don't Fit In (2022)

Posted By: delpotro
Melt Yourself Down - Pray For Me I Don't Fit In (2022)

Melt Yourself Down - Pray For Me I Don't Fit In (2022)
EAC Rip | FLAC (tracks+log+.cue) - 294 Mb | MP3 CBR 320 kbps - 96 Mb | 00:41:41
Art Rock, Dance Rock, Post-Punk, Fusion, Jazz Rock | Label: Decca Records

Lauded London 6-piece Melt Yourself Down are back armed with a new approach for their fourth studio album Pray For Me I Don’t Fit In. Created for misfits, by misfits, Pray For Me I Don’t Fit In sees Melt Yourself Down embrace a celebratory punk agenda. Having realised they are never going to fit the mould, the group deliberately draw on their myriad influences, speaking all languages musically and lyrically. Led by the potent sounds of Sax pioneer Pete Wareham, the punchy sax hooks pay homage to the traditional horn sections of late 60’s early 70’s era of Jazz, Soul and Rock n Roll, while showcasing African pentatonic scales and dance-inducing rhythms with raw 70’s rock and punk. This album sees vocalist Kushal Gaya celebrate his diversity - tonally, texturally, and emotionally while embracing lyrical depth. Recorded and produced by band favourite Ben Hillier (Blur, Depeche Mode and Nadine Shah), delivering his distinct musical depth, resonance, and dark drive so essential to Melt Yourself Down’s sound. This album is the band’s most cohesive work to date.
Tracklist:
1. Pray For Me I Don't Fit In (5:31)
2. Boots of Leather (3:15)
3. For Real (4:45)
4. Nightsiren (4:03)
5. All We Have (4:06)
6. Fun Fun Fun (3:55)
7. Balance (4:10)
8. Sunset Flip (3:37)
9. Ghosts On The Run (4:08)
10. I Got Time (4:11)

Exact Audio Copy V1.6 from 23. October 2020

EAC extraction logfile from 28. January 2023, 8:48

Melt Yourself Down / Pray For Me I Don't Fit In

Used drive : HL-DT-STDVDRAM GP65NB60 Adapter: 1 ID: 0

Read mode : Secure
Utilize accurate stream : Yes
Defeat audio cache : Yes
Make use of C2 pointers : No

Read offset correction : 6
Overread into Lead-In and Lead-Out : No
Fill up missing offset samples with silence : Yes
Delete leading and trailing silent blocks : No
Null samples used in CRC calculations : Yes
Used interface : Native Win32 interface for Win NT & 2000
Gap handling : Appended to previous track

Used output format : User Defined Encoder
Selected bitrate : 1024 kBit/s
Quality : High
Add ID3 tag : No
Command line compressor : C:\Program Files (x86)\Exact Audio Copy\Flac\flac.exe
Additional command line options : -8 -V -T "ARTIST=%artist%" -T "TITLE=%title%" -T "ALBUM=%albumtitle%" -T "DATE=%year%" -T "TRACKNUMBER=%tracknr%" -T "GENRE=%genre%" -T "PERFORMER=%albuminterpret%" -T "COMPOSER=%composer%" -T "ALBUMARTIST=%albumartist%" -T "DISCNUMBER=%cdnumber%" -T "TOTALDISCS=%totalcds%" -T "TOTALTRACKS=%numtracks%" -T "COMMENT=%comment%" %source% -o %dest%


TOC of the extracted CD

Track | Start | Length | Start sector | End sector
––––––––––––––––––––––––––––-
1 | 0:00.00 | 5:32.03 | 0 | 24902
2 | 5:32.03 | 3:14.74 | 24903 | 39526
3 | 8:47.02 | 4:44.43 | 39527 | 60869
4 | 13:31.45 | 4:02.45 | 60870 | 79064
5 | 17:34.15 | 4:05.38 | 79065 | 97477
6 | 21:39.53 | 3:55.33 | 97478 | 115135
7 | 25:35.11 | 4:10.05 | 115136 | 133890
8 | 29:45.16 | 3:37.29 | 133891 | 150194
9 | 33:22.45 | 4:08.30 | 150195 | 168824
10 | 37:31.00 | 4:10.38 | 168825 | 187612


Track 1

Filename D:\Rips\Melt Yourself Down - Pray For Me I Don't Fit In (2022) {382 6557} [CD FLAC]\01 - Pray For Me I Don't Fit In.wav

Pre-gap length 0:00:02.00

Peak level 97.8 %
Extraction speed 2.8 X
Track quality 100.0 %
Test CRC C4B9EAB8
Copy CRC C4B9EAB8
Accurately ripped (confidence 2) [8B3C4FBB] (AR v2)
Copy OK

Track 2

Filename D:\Rips\Melt Yourself Down - Pray For Me I Don't Fit In (2022) {382 6557} [CD FLAC]\02 - Boots Of Leather.wav

Peak level 97.1 %
Extraction speed 2.9 X
Track quality 100.0 %
Test CRC CE26664F
Copy CRC CE26664F
Accurately ripped (confidence 2) [CCE61B6A] (AR v2)
Copy OK

Track 3

Filename D:\Rips\Melt Yourself Down - Pray For Me I Don't Fit In (2022) {382 6557} [CD FLAC]\03 - For Real.wav

Peak level 97.8 %
Extraction speed 3.4 X
Track quality 100.0 %
Test CRC F259CC90
Copy CRC F259CC90
Accurately ripped (confidence 2) [E759DFF7] (AR v2)
Copy OK

Track 4

Filename D:\Rips\Melt Yourself Down - Pray For Me I Don't Fit In (2022) {382 6557} [CD FLAC]\04 - Nightsiren.wav

Peak level 97.4 %
Extraction speed 3.5 X
Track quality 100.0 %
Test CRC 12DC4BAA
Copy CRC 12DC4BAA
Accurately ripped (confidence 2) [2B5EAB2E] (AR v2)
Copy OK

Track 5

Filename D:\Rips\Melt Yourself Down - Pray For Me I Don't Fit In (2022) {382 6557} [CD FLAC]\05 - All We Have.wav

Peak level 97.7 %
Extraction speed 3.8 X
Track quality 100.0 %
Test CRC 5130C0C7
Copy CRC 5130C0C7
Accurately ripped (confidence 2) [D69C0179] (AR v2)
Copy OK

Track 6

Filename D:\Rips\Melt Yourself Down - Pray For Me I Don't Fit In (2022) {382 6557} [CD FLAC]\06 - Fun Fun Fun.wav

Peak level 97.7 %
Extraction speed 3.9 X
Track quality 100.0 %
Test CRC 01FA45BE
Copy CRC 01FA45BE
Accurately ripped (confidence 2) [CF594A42] (AR v2)
Copy OK

Track 7

Filename D:\Rips\Melt Yourself Down - Pray For Me I Don't Fit In (2022) {382 6557} [CD FLAC]\07 - Balance.wav

Peak level 97.8 %
Extraction speed 4.2 X
Track quality 100.0 %
Test CRC 6B6ABA5A
Copy CRC 6B6ABA5A
Accurately ripped (confidence 2) [5E028469] (AR v2)
Copy OK

Track 8

Filename D:\Rips\Melt Yourself Down - Pray For Me I Don't Fit In (2022) {382 6557} [CD FLAC]\08 - Sunset Flip.wav

Peak level 97.7 %
Extraction speed 4.2 X
Track quality 100.0 %
Test CRC 257D3354
Copy CRC 257D3354
Accurately ripped (confidence 2) [D8464542] (AR v2)
Copy OK

Track 9

Filename D:\Rips\Melt Yourself Down - Pray For Me I Don't Fit In (2022) {382 6557} [CD FLAC]\09 - Ghosts On The Run.wav

Peak level 97.8 %
Extraction speed 4.4 X
Track quality 100.0 %
Test CRC 47028D6F
Copy CRC 47028D6F
Accurately ripped (confidence 2) [B9C0CB77] (AR v2)
Copy OK

Track 10

Filename D:\Rips\Melt Yourself Down - Pray For Me I Don't Fit In (2022) {382 6557} [CD FLAC]\10 - I Got Time.wav

Peak level 96.7 %
Extraction speed 4.4 X
Track quality 100.0 %
Test CRC 50F0685A
Copy CRC 50F0685A
Accurately ripped (confidence 2) [992D254D] (AR v2)
Copy OK


All tracks accurately ripped

No errors occurred

End of status report

–– CUETools DB Plugin V2.1.6

[CTDB TOCID: 6Rcol4gaZ9MIBUKNZos140.X97M-] found
Submit result: 6Rcol4gaZ9MIBUKNZos140.X97M- has been confirmed
Track | CTDB Status
1 | (9/9) Accurately ripped
2 | (9/9) Accurately ripped
3 | (9/9) Accurately ripped
4 | (9/9) Accurately ripped
5 | (9/9) Accurately ripped
6 | (9/9) Accurately ripped
7 | (9/9) Accurately ripped
8 | (9/9) Accurately ripped
9 | (9/9) Accurately ripped
10 | (9/9) Accurately ripped


==== Log checksum 6BEE7D9EDC67224AF367F6BC993481ED71A64769612DEBD0578AC9F0E3AB2828 ====

Thanks to the Original ripper !