Tags
Language
Tags
July 2024
Su Mo Tu We Th Fr Sa
30 1 2 3 4 5 6
7 8 9 10 11 12 13
14 15 16 17 18 19 20
21 22 23 24 25 26 27
28 29 30 31 1 2 3

Arnold Bax - Tone Poems, Vol. 1 (2006)

Posted By: pgf000
Arnold Bax - Tone Poems, Vol. 1 (2006)

Arnold Bax - Tone Poems, Vol. 1 (2006)
Arnold Bax (Composer), Vernon Handley (Conductor), BBC Philharmonic Orchestra (Orchestra)
EAC Rip | FLAC+CUE+LOG | 290 MB | +PDF booklet
MP3 CBR 320kbps | 176 MB
Classical/Symphonic | Chandos | 75:41

This disc is conducted by Gramophone award-winner Vernon Handley, famous for his Bax interpretations and includes the rarely recorded Sinfonietta. "'These four orchestral pieces by Arnold Bax make for dangerous listening: you’ll be battered by storms and swept out to sea. Given Bax’s chromatic language and avoidance of clear-cut design you risk losing consciousness too: this isn’t a disc for continuous listening. Still Handley loves such opulent music; the BBC Philharmonic radiate in Chandos’ rich sound; and two pieces, November Woods and The Garden of Fand, are among Bax’s most seductive." (The Times)
1. Arnold Bax - In The Faery Hills (15:17)
2. Arnold Bax - November Woods (20:39)
3. Arnold Bax - The Garden of Fand (17:38)
4. Arnold Bax - Sinfonietta - I: Alla breve (8:34)
5. Arnold Bax - Sinfonietta - II: Andante con moto (8:35)
6. Arnold Bax - Sinfonietta - III: Allegro (4:58)
Exact Audio Copy V0.99 prebeta 5 from 4. May 2009

EAC extraction logfile from 31. October 2010, 20:36

Arnold Bax / Tone Poems

Used drive : SlimtypeDVD A DS8A4S Adapter: 1 ID: 0

Read mode : Secure
Utilize accurate stream : Yes
Defeat audio cache : No
Make use of C2 pointers : Yes

Read offset correction : 6
Overread into Lead-In and Lead-Out : No
Fill up missing offset samples with silence : Yes
Delete leading and trailing silent blocks : No
Null samples used in CRC calculations : No
Used interface : Native Win32 interface for Win NT & 2000

Used output format : User Defined Encoder
Selected bitrate : 768 kBit/s
Quality : High
Add ID3 tag : No
Command line compressor : C:\Program Files (x86)\Exact Audio Copy\FLAC\FLAC.EXE
Additional command line options : -6 -V -T "ARTIST=%a" -T "TITLE=%t" -T "ALBUM=%g" -T "DATE=%y" -T "TRACKNUMBER=%n" -T "GENRE=%m" -T "COMMENT=%e" %s -o %d


TOC of the extracted CD

Track | Start | Length | Start sector | End sector
––––––––––––––––––––––––––––-
1 | 0:00.00 | 15:17.48 | 0 | 68822
2 | 15:17.48 | 20:39.15 | 68823 | 161762
3 | 35:56.63 | 17:38.00 | 161763 | 241112
4 | 53:34.63 | 8:34.25 | 241113 | 279687
5 | 62:09.13 | 8:35.40 | 279688 | 318352
6 | 70:44.53 | 4:58.22 | 318353 | 340724


Range status and errors

Selected range

Filename C:\DvD\Arnold Bax - Tone Poems.wav

Peak level 90.0 %
Range quality 100.0 %
Copy CRC 30E34435
Copy OK

No errors occurred


AccurateRip summary

Track 1 accurately ripped (confidence 6) [398A57F7]
Track 2 accurately ripped (confidence 6) [2F3D2163]
Track 3 accurately ripped (confidence 6) [8F78A812]
Track 4 accurately ripped (confidence 6) [498DF93F]
Track 5 accurately ripped (confidence 6) [31B9BD5F]
Track 6 accurately ripped (confidence 5) [066748EF]

All tracks accurately ripped

End of status report