VA - Children Of Nuggets: Original Artyfacts From The Second Psychedelic Era 1976-1996 (2005) REPOST

Posted By: uff
VA - Children Of Nuggets: Original Artyfacts From The Second Psychedelic Era 1976-1996 (2005) REPOST

VA - Children Of Nuggets: Original Artyfacts From The Second Psychedelic Era 1976-1996 (2005)
Rock | 4cd | EAC Rip | Flac + Cue + Log | covers
Rhino R2 74639 | rel: 2005 | 3270Mb

As its title makes clear, Children of Nuggets is the first Nuggets release to stretch beyond the '60s heyday of garage rock and psychedelic music. Instead of once again returning to that seemingly bottomless well – which has not only brought the original 1972 double LP, Nuggets, but such imitators as the Pebbles and Rubble series, plus Rhino's expanded four-disc 1998 box set and its 2001 sequel, which focused on singles from the U.K. and around the world – the four-disc box Children of Nuggets is devoted to bands from the '70s, '80s, and '90s (but primarily the '80s) that were inspired by the original Nuggets LP, along with other trashy, intoxicating rock and guitar pop from the '60s. They weren't just inspired by this music – they patterned themselves after it, from the sound to the look of classic garage psych. This might seem like a dodgy proposition, either as music or for the subject of an exhaustive retrospective like this, but the garage and psych revival of the '80s – which also encompassed such diverse but related movements as power pop, British C-86 indie pop, the paisley underground, punk-blues, cowpunk, and surf rock – was a surprisingly fertile scene, as this absolutely terrific box set proves. Far from sounding monotonous, Children of Nuggets has a tremendous variety of sounds, styles, and attitudes. As producer Alec Palao states in his introductory liner notes, the idea was to adhere to Lenny Kaye's idea for the original Nuggets LP, which was to "compile together the good tracks from all those albums that only have one good track," not caring whether the featured songs adhered to a strict definition of what was or was not garage or psych. Of course, Palao and his co-producer, Gary Stewart, and their assistants on this project do have a template to follow and not just because there are bands that were tagged at the time as '60s revivalists. They have Kaye's work to guide them; plus they have the work of Greg Shaw, the journalist and record label head who championed this music at first in his fanzine, Who Put the Bomp, and then on his Bomp and Voxx labels. Stewart salutes Shaw at the conclusion of the booklet for Children of Nuggets, and in a way, this set does function as a tribute to the music Shaw helped shepherd during the '80s, since it celebrates all kinds of '60s-inspired guitar pop made in the post-punk years – music that arguably wouldn't have existed without Shaw's input.
Yet, as the best music should, the music on Children of Nuggets transcends such behind-the-scenes particulars and exists simply as flat-out great music. Sure, there are some bands that faithfully re-create the sounds of the '60s, but most of the groups are inspired by the '60s, picking up their favorite elements – whether it's dirty, raunchy guitars, jangling 12-strings, sweet harmonies, trippy swirling guitars, or catchy choruses – and assembling them in a manner that sounds fresh, new, and invigorating. Yes, some of the production sounds a little tied to its time, but no more than the singles from the first two Nuggets boxes. What matters is that this box crackles with energy and is filled with great songs, whether they're hard rock & roll, tongue-in-cheek neo-psychedelia, Beatles and Byrds homages, dreamy, mysterious indie pop, or straight-up power pop. There are a handful of big names here, but only the La's are represented with anything close to their best-known song – not only that, but "There She Goes" is the only thing here that could be called well known. The other big names are represented by some of their earliest and, in many cases, best songs: there's "(I Thought) You Wanted to Know" and "If and When" by Chris Stamey & the dB's, the Smithereens have "Strangers When We Meet" and "Beauty and Sadness," Primal Scream are captured in their pre-Screamadelica incarnation with "Gentle Tuesday," the Posies show a strong British Invasion bent on "I May Hate You Sometimes," Teenage Fanclub's "Metal Baby" is pulled from their cult classic, Bandwagonesque, while the Bangles show up with their earliest songs, "The Real World" and "Getting out of Hand," which was released under the name the Bangs. A few songs here show up regularly on '80s comps – the Hoodoo Gurus' "I Want You Back," the Lyres' "Help You Ann," the Spongetones' "She Goes out with Everybody," the Church's "The Unguarded Moment" – but most of this is devoted to bands that had one or two songs that were staples on college radio and are now forgotten to all but the die-hard underground garage rock fans. Now that they're part of this compulsively listenable set, they help define the canon of underground rock and pop of the post-punk years: surrounded by other bands of a similar mind and vision, these songs sound like forgotten classics. And that's why Children of Nuggets is such a resounding success – it not only shines a light on the bands that carried the torch for this kind of music in the '80s, this box, like the original double LP, helps rescue worthy bands from the scrap heap of history and, in the process, becomes an essential piece of rock history itself.

––––––––––––––––––-

VA - Children Of Nuggets: Original Artyfacts From The Second Psychedelic Era 1976-1996 (2005) REPOST

Volume 1


Track listing
01. The Dukes Of Stratosphear - Vanishing Girl (2:28)
02. The Lyres - Help You Ann (2:30)
03. Bangles - The Real World (2:35)
04. The Barracudas - We're Living In Violent Times (2:47)
05. The Nashville Ramblers - The Trains (3:07)
06. Watermelon Men - Seven Years (2:47)
07. The Smithereens - Strangers When We Meet (3:46)
08. The Soft Boys - Wading Through A Ventilator (3:20)
09. Flamin' Groovies - I Can't Hide (3:14)
10. The Fleshtones - The Girl From Baltimore (2:30)
11. That Petrol Emotion - It's A Good Thing (2:34)
12. The Stems - She's Fine (2:35)
13. The Point - All My Life (2:05)
14. The Creeps - Down At The Nightclub (3:18)
15. The Spongetones - (My Girl) Maryanne (2:43)
16. Salvation Army - She Turns To Flowers (2:32)
17. The Rain Parade - You Are My Friend (3:06)
18. The Inmates - Mr. Unreliable (2:52)
19. Chris Stamey And The DBs - (I Thought) You Wanted To Know (3:18)
20. The Last - She Don't Know Why I'm Here (Single Version) (3:25)
21. Biff, Bang, Pow! - There Must Be A Better Life (3:05)
22. The Lime Spiders - Slave Girl (2:51)
23. The Posies - I May Hate You Sometimes (3:23)
24. The Times - I Helped Patrick McGoohan Escape (3:04)
25. The Pandoras - It's About Time (2:22)
26. The Swingin' Neckbreakers - I Live For Buzz (2:26)
27. The Hoodoo Gurus - I Want You Back (3:10)


EAC extraction logfile from 7. March 2009, 17:04 for CD
Various / Children Of Nuggets: Original Artyfacts From The Second Psychedelic Era 1976-1996 (Disc 1)

Used drive : TSSTcorpCDDVDW SH-S223Q Adapter: 2 ID: 1
Read mode : Secure with NO C2, accurate stream, disable cache
Read offset correction : 6
Overread into Lead-In and Lead-Out : No

Used output format : C:\Program Files\Exact Audio Copy\FLAC\flac.exe (User Defined Encoder)
192 kBit/s
Additional command line options : -V -5 -T "artist=%a" -T "title=%t" -T "album=%g" -T "date=%y" -T "tracknumber=%n" -T "genre=%m" %s

Other options :
Fill up missing offset samples with silence : Yes
Delete leading and trailing silent blocks : No
Installed external ASPI interface


Track 1
Filename G:\Audio\up\Children of Nuggets\Children of Nuggets Cd1\01 - The Dukes Of Stratosphear - Vanishing Girl.wav

Pre-gap length 0:00:02.00

Peak level 98.8 %
Track quality 100.0 %
Test CRC 1CE1AECE
Copy CRC 1CE1AECE
Copy OK

Track 2
Filename G:\Audio\up\Children of Nuggets\Children of Nuggets Cd1\02 - The Lyres - Help You Ann.wav

Pre-gap length 0:00:01.42

Peak level 91.3 %
Track quality 100.0 %
Test CRC 6A885ED4
Copy CRC 6A885ED4
Copy OK

Track 3
Filename G:\Audio\up\Children of Nuggets\Children of Nuggets Cd1\03 - Bangles - The Real World.wav

Peak level 99.8 %
Track quality 100.0 %
Test CRC A4A8061F
Copy CRC A4A8061F
Copy OK

Track 4
Filename G:\Audio\up\Children of Nuggets\Children of Nuggets Cd1\04 - The Barracudas - We're Living In Violent Times.wav

Peak level 96.2 %
Track quality 100.0 %
Test CRC 800DD03A
Copy CRC 800DD03A
Copy OK

Track 5
Filename G:\Audio\up\Children of Nuggets\Children of Nuggets Cd1\05 - The Nashville Ramblers - The Trains.wav

Peak level 83.1 %
Track quality 100.0 %
Test CRC 644F6B94
Copy CRC 644F6B94
Copy OK

Track 6
Filename G:\Audio\up\Children of Nuggets\Children of Nuggets Cd1\06 - Watermelon Men - Seven Years.wav

Peak level 98.1 %
Track quality 100.0 %
Test CRC DE744A5C
Copy CRC DE744A5C
Copy OK

Track 7
Filename G:\Audio\up\Children of Nuggets\Children of Nuggets Cd1\07 - The Smithereens - Strangers When We Meet.wav

Peak level 99.8 %
Track quality 100.0 %
Test CRC 0DF417DA
Copy CRC 0DF417DA
Copy OK

Track 8
Filename G:\Audio\up\Children of Nuggets\Children of Nuggets Cd1\08 - The Soft Boys - Wading Through A Ventilator.wav

Peak level 98.3 %
Track quality 100.0 %
Test CRC 5B3239D5
Copy CRC 5B3239D5
Copy OK

Track 9
Filename G:\Audio\up\Children of Nuggets\Children of Nuggets Cd1\09 - Flamin' Groovies - I Can't Hide.wav

Peak level 92.4 %
Track quality 100.0 %
Test CRC CCA2D2F8
Copy CRC CCA2D2F8
Copy OK

Track 10
Filename G:\Audio\up\Children of Nuggets\Children of Nuggets Cd1\10 - The Fleshtones - The Girl From Baltimore.wav

Peak level 99.8 %
Track quality 100.0 %
Test CRC EAA7DA37
Copy CRC EAA7DA37
Copy OK

Track 11
Filename G:\Audio\up\Children of Nuggets\Children of Nuggets Cd1\11 - That Petrol Emotion - It's A Good Thing.wav

Peak level 99.8 %
Track quality 100.0 %
Test CRC 9F808E0E
Copy CRC 9F808E0E
Copy OK

Track 12
Filename G:\Audio\up\Children of Nuggets\Children of Nuggets Cd1\12 - The Stems - She's Fine.wav

Peak level 99.8 %
Track quality 99.9 %
Test CRC 2CD42FAA
Copy CRC 2CD42FAA
Copy OK

Track 13
Filename G:\Audio\up\Children of Nuggets\Children of Nuggets Cd1\13 - The Point - All My Life.wav

Peak level 99.4 %
Track quality 100.0 %
Test CRC BC89B9C8
Copy CRC BC89B9C8
Copy OK

Track 14
Filename G:\Audio\up\Children of Nuggets\Children of Nuggets Cd1\14 - The Creeps - Down At The Nightclub.wav

Peak level 97.6 %
Track quality 100.0 %
Test CRC 25429A03
Copy CRC 25429A03
Copy OK

Track 15
Filename G:\Audio\up\Children of Nuggets\Children of Nuggets Cd1\15 - The Spongetones - (My Girl) Maryanne.wav

Peak level 99.8 %
Track quality 99.9 %
Test CRC FB336119
Copy CRC FB336119
Copy OK

Track 16
Filename G:\Audio\up\Children of Nuggets\Children of Nuggets Cd1\16 - Salvation Army - She Turns To Flowers.wav

Peak level 95.7 %
Track quality 100.0 %
Test CRC 0DCDAA10
Copy CRC 0DCDAA10
Copy OK

Track 17
Filename G:\Audio\up\Children of Nuggets\Children of Nuggets Cd1\17 - The Rain Parade - You Are My Friend.wav

Pre-gap length 0:00:01.01

Peak level 97.9 %
Track quality 100.0 %
Test CRC 3A22E00F
Copy CRC 3A22E00F
Copy OK

Track 18
Filename G:\Audio\up\Children of Nuggets\Children of Nuggets Cd1\18 - The Inmates - Mr. Unreliable.wav

Peak level 99.8 %
Track quality 100.0 %
Test CRC 7F17200A
Copy CRC 7F17200A
Copy OK

Track 19
Filename G:\Audio\up\Children of Nuggets\Children of Nuggets Cd1\19 - Chris Stamey And The DBs - (I Thought) You Wanted To Know.wav

Peak level 99.5 %
Track quality 100.0 %
Test CRC 86C6D611
Copy CRC 86C6D611
Copy OK

Track 20
Filename G:\Audio\up\Children of Nuggets\Children of Nuggets Cd1\20 - The Last - She Don't Know Why I'm Here (Single Version).wav

Peak level 97.8 %
Track quality 99.9 %
Test CRC 82851A06
Copy CRC 82851A06
Copy OK

Track 21
Filename G:\Audio\up\Children of Nuggets\Children of Nuggets Cd1\21 - Biff, Bang, Pow! - There Must Be A Better Life.wav

Pre-gap length 0:00:01.09

Peak level 88.4 %
Track quality 100.0 %
Test CRC 5C933A48
Copy CRC 5C933A48
Copy OK

Track 22
Filename G:\Audio\up\Children of Nuggets\Children of Nuggets Cd1\22 - The Lime Spiders - Slave Girl.wav

Peak level 93.2 %
Track quality 100.0 %
Test CRC BEB25C6F
Copy CRC BEB25C6F
Copy OK

Track 23
Filename G:\Audio\up\Children of Nuggets\Children of Nuggets Cd1\23 - The Posies - I May Hate You Sometimes.wav

Peak level 99.2 %
Track quality 100.0 %
Test CRC 725CFB3B
Copy CRC 725CFB3B
Copy OK

Track 24
Filename G:\Audio\up\Children of Nuggets\Children of Nuggets Cd1\24 - The Times - I Helped Patrick McGoohan Escape.wav

Peak level 99.1 %
Track quality 100.0 %
Test CRC C65A56F8
Copy CRC C65A56F8
Copy OK

Track 25
Filename G:\Audio\up\Children of Nuggets\Children of Nuggets Cd1\25 - The Pandoras - It's About Time.wav

Peak level 95.6 %
Track quality 99.9 %
Test CRC E7B675A6
Copy CRC E7B675A6
Copy OK

Track 26
Filename G:\Audio\up\Children of Nuggets\Children of Nuggets Cd1\26 - The Swingin' Neckbreakers - I Live For Buzz.wav

Peak level 98.1 %
Track quality 99.5 %
Test CRC 9D18DB67
Copy CRC 9D18DB67
Copy OK

Track 27
Filename G:\Audio\up\Children of Nuggets\Children of Nuggets Cd1\27 - The Hoodoo Gurus - I Want You Back.wav

Peak level 85.3 %
Track quality 99.4 %
Test CRC 4BBA4910
Copy CRC 4BBA4910
Copy OK

No errors occured


End of status report





[CUETools log; Date: 2016. 05. 18. 13:48:34; Version: 2.1.6]
[CTDB TOCID: RZ7OTB2EymbovWXoKaNrWpq69Ps-] found.
Track | CTDB Status
1 | (31/31) Accurately ripped
2 | (31/31) Accurately ripped
3 | (31/31) Accurately ripped
4 | (31/31) Accurately ripped
5 | (31/31) Accurately ripped
6 | (31/31) Accurately ripped
7 | (31/31) Accurately ripped
8 | (31/31) Accurately ripped
9 | (31/31) Accurately ripped
10 | (31/31) Accurately ripped
11 | (31/31) Accurately ripped
12 | (31/31) Accurately ripped
13 | (31/31) Accurately ripped
14 | (31/31) Accurately ripped
15 | (31/31) Accurately ripped
16 | (31/31) Accurately ripped
17 | (31/31) Accurately ripped
18 | (31/31) Accurately ripped
19 | (31/31) Accurately ripped
20 | (31/31) Accurately ripped
21 | (31/31) Accurately ripped
22 | (31/31) Accurately ripped
23 | (31/31) Accurately ripped
24 | (31/31) Accurately ripped
25 | (31/31) Accurately ripped
26 | (31/31) Accurately ripped
27 | (29/31) Accurately ripped
[AccurateRip ID: 004a6574-05a4e5ed-6d12521b] found.
Track [ CRC | V2 ] Status
01 [30ec75c7|7617cd4e] (39+22/61) Accurately ripped
02 [89c3e3c3|2ff881b0] (40+24/64) Accurately ripped
03 [9c68fb82|c9908f52] (40+23/63) Accurately ripped
04 [de1f6690|621dc6e4] (39+24/63) Accurately ripped
05 [12e05c17|c89a5c06] (40+24/64) Accurately ripped
06 [886d102b|9e7acc85] (38+24/62) Accurately ripped
07 [986f9717|a4bfd741] (39+24/63) Accurately ripped
08 [98a52982|c48816ca] (38+24/62) Accurately ripped
09 [e7209a87|18d6192f] (38+24/62) Accurately ripped
10 [eb6ecfe3|4a34e5f8] (38+24/62) Accurately ripped
11 [0c9c6b97|74f3beba] (38+24/62) Accurately ripped
12 [768054fb|fc6e6e32] (38+24/62) Accurately ripped
13 [62206b39|2106e792] (38+24/62) Accurately ripped
14 [37532070|be615ab4] (38+24/62) Accurately ripped
15 [b94e5546|c2df029f] (39+24/63) Accurately ripped
16 [d87cf1a0|c215a413] (38+23/61) Accurately ripped
17 [a16c5f83|18b3c1c4] (37+23/60) Accurately ripped
18 [93ed6fc0|b184c852] (39+24/63) Accurately ripped
19 [3f4fbeed|b64c8e17] (38+24/62) Accurately ripped
20 [ec5df130|884060dc] (39+24/63) Accurately ripped
21 [50b8935d|1269c9f5] (39+24/63) Accurately ripped
22 [06fe1458|66dbc34e] (38+24/62) Accurately ripped
23 [8b47625f|a92b4993] (38+24/62) Accurately ripped
24 [6a3470b6|d265874f] (38+24/62) Accurately ripped
25 [8170d900|b7cadff2] (38+24/62) Accurately ripped
26 [54e3246e|0e7d97be] (37+24/61) Accurately ripped
27 [7810d3d9|0133c6b4] (37+22/59) Accurately ripped
Offsetted by 6:
01 [4d61c729] (00/61) No match
02 [9ba11011] (00/64) No match
03 [8cbbd076] (00/63) No match
04 [d20ff38c] (00/63) No match
05 [b938e6c7] (00/64) No match
06 [95f9e19b] (00/62) No match
07 [90944bcc] (00/63) No match
08 [36de19f3] (00/62) No match
09 [c41557d2] (00/62) No match
10 [85fa47ec] (00/62) No match
11 [110f5cad] (00/62) No match
12 [9afb24bb] (00/62) No match
13 [b68fabd7] (00/62) No match
14 [8382351e] (00/62) No match
15 [c31725f4] (00/63) No match
16 [8aea02c8] (00/61) No match
17 [1c53922d] (00/60) No match
18 [0ec512e6] (00/63) No match
19 [2d81764d] (00/62) No match
20 [8b954cda] (00/63) No match
21 [b95c0691] (00/63) No match
22 [714e5088] (00/62) No match
23 [dc035085] (00/62) No match
24 [a7c0ec48] (00/62) No match
25 [1178e588] (00/62) No match
26 [a148b42c] (00/61) No match
27 [09a30157] (00/59) No match (V2 was not tested)

Track Peak [ CRC32 ] [W/O NULL] [ LOG ]
– 99,8 [282BF19E] [C44101FE]
01 98,8 [1CE1AECE] [3BAA4DC8] CRC32
02 91,3 [6A885ED4] [6F9A2013] CRC32
03 99,8 [A4A8061F] [EF9D8F0A] CRC32
04 96,2 [800DD03A] [012518D3] CRC32
05 83,1 [644F6B94] [E2F81160] CRC32
06 98,1 [DE744A5C] [60B2A48F] CRC32
07 99,8 [0DF417DA] [57AC8763] CRC32
08 98,3 [5B3239D5] [59EB9223] CRC32
09 92,4 [CCA2D2F8] [682ED804] CRC32
10 99,8 [EAA7DA37] [7739A6E3] CRC32
11 99,8 [9F808E0E] [97451FBF] CRC32
12 99,8 [2CD42FAA] [725AE682] CRC32
13 99,4 [BC89B9C8] [2D68F06A] CRC32
14 97,6 [25429A03] [54363F86] CRC32
15 99,8 [FB336119] [7102E521] CRC32
16 95,7 [0DCDAA10] [1ABB20EA] CRC32
17 97,9 [3A22E00F] [1B0595DC] CRC32
18 99,8 [7F17200A] [15AF6A35] CRC32
19 99,5 [86C6D611] [263F284A] CRC32
20 97,8 [82851A06] [9CDACD24] CRC32
21 88,4 [5C933A48] [35683354] CRC32
22 93,1 [BEB25C6F] [23C1B79E] CRC32
23 99,2 [725CFB3B] [C7192C7A] CRC32
24 99,1 [C65A56F8] [77E5AB2A] CRC32
25 95,6 [E7B675A6] [7763C485] CRC32
26 98,1 [9D18DB67] [E797FDFC] CRC32
27 85,3 [4BBA4910] [9E4B5FB8] CRC32



––––––––––––––––––-

VA - Children Of Nuggets: Original Artyfacts From The Second Psychedelic Era 1976-1996 (2005) REPOST

Volume 2


Track listing
01. The Godfathers - This Damn Nation (2:46)
02. The Dream Syndicate - Tell me When It's Over (3:33)
03. The Prisoners - Whenever I'm Gone (2:47)
04. The Cramps - New Kind of Kick (3:29)
05. The Long Ryders - And She Rides (4:30)
06. Revillos - Motorbike Beat (2:22)
07. The Vipers - Tears (Only Dry) (2:56)
08. The Ukes of Stratosphear - 25 O'clock (5:02)
09. Lyres - Don't Give it up Now (3:36)
10. Chris Stamey And The Dbs - If And When (2:39)
11. The Untamed Youth - Pabst Blue Ribbon (2:41)
12. The La's - There She Goes (2:42)
13. Vibrasonic - Kingsley J. (4:31)
14. The Crawdaddys - Can Never Tell (2:44)
15. The Green Telescope - Make me Stay (3:06)
16. The Plimsouls - Everyday Things (2:29)
17. The Soft Boys - I Wanna Destroy You (2:53)
18. Mickey & The Milkshakes - It's You (2:17)
19. The Posies - Apology (5:14)
20. The Bevis Frond - Lights Are Changing (4:56)
21. The Droogs - Ahead of my Times (2:40)
22. The Funseekers - Welcome to my Love (2:47)
23. The Revolving Paint Dream - Flowers in The Sky (2:23)
24. Teenage Fanclub - Metal Baby (3:39)


EAC extraction logfile from 7. March 2009, 17:34 for CD
Various / Children of Nuggets: Original Artyfacts From The Se

Used drive : TSSTcorpCDDVDW SH-S223Q Adapter: 2 ID: 1
Read mode : Secure with NO C2, accurate stream, disable cache
Read offset correction : 6
Overread into Lead-In and Lead-Out : No

Used output format : C:\Program Files\Exact Audio Copy\FLAC\flac.exe (User Defined Encoder)
192 kBit/s
Additional command line options : -V -5 -T "artist=%a" -T "title=%t" -T "album=%g" -T "date=%y" -T "tracknumber=%n" -T "genre=%m" %s

Other options :
Fill up missing offset samples with silence : Yes
Delete leading and trailing silent blocks : No
Installed external ASPI interface


Track 1
Filename G:\Audio\up\Children of Nuggets\Children of Nuggets Cd2\01 - The Godfathers - This Damn Nation.wav

Pre-gap length 0:00:02.00

Peak level 98.9 %
Track quality 100.0 %
Test CRC 2A900912
Copy CRC 2A900912
Copy OK

Track 2
Filename G:\Audio\up\Children of Nuggets\Children of Nuggets Cd2\02 - The Dream Syndicate - Tell me When It's Over.wav

Peak level 94.7 %
Track quality 100.0 %
Test CRC 08BC8F06
Copy CRC 08BC8F06
Copy OK

Track 3
Filename G:\Audio\up\Children of Nuggets\Children of Nuggets Cd2\03 - The Prisoners - Whenever I'm Gone.wav

Peak level 87.3 %
Track quality 99.9 %
Test CRC 71E69999
Copy CRC 71E69999
Copy OK

Track 4
Filename G:\Audio\up\Children of Nuggets\Children of Nuggets Cd2\04 - The Cramps - New Kind of Kick.wav

Peak level 92.1 %
Track quality 100.0 %
Test CRC 47E32093
Copy CRC 47E32093
Copy OK

Track 5
Filename G:\Audio\up\Children of Nuggets\Children of Nuggets Cd2\05 - The Long Ryders - And She Rides.wav

Peak level 99.8 %
Track quality 100.0 %
Test CRC 04618AA2
Copy CRC 04618AA2
Copy OK

Track 6
Filename G:\Audio\up\Children of Nuggets\Children of Nuggets Cd2\06 - Revillos - Motorbike Beat.wav

Peak level 83.2 %
Track quality 99.9 %
Test CRC CDC0B91E
Copy CRC CDC0B91E
Copy OK

Track 7
Filename G:\Audio\up\Children of Nuggets\Children of Nuggets Cd2\07 - The Vipers - Tears (Only Dry).wav

Peak level 92.3 %
Track quality 100.0 %
Test CRC 1F37BB13
Copy CRC 1F37BB13
Copy OK

Track 8
Filename G:\Audio\up\Children of Nuggets\Children of Nuggets Cd2\08 - The Ukes of Stratosphear - 25 O'clock.wav

Peak level 92.3 %
Track quality 99.9 %
Test CRC 6202F83C
Copy CRC 6202F83C
Copy OK

Track 9
Filename G:\Audio\up\Children of Nuggets\Children of Nuggets Cd2\09 - Lyres - Don't Give it up Now.wav

Pre-gap length 0:00:02.45

Peak level 99.5 %
Track quality 99.9 %
Test CRC C4505470
Copy CRC C4505470
Copy OK

Track 10
Filename G:\Audio\up\Children of Nuggets\Children of Nuggets Cd2\10 - Chris Stamey And The Dbs - If And When.wav

Peak level 93.2 %
Track quality 100.0 %
Test CRC 61275D3E
Copy CRC 61275D3E
Copy OK

Track 11
Filename G:\Audio\up\Children of Nuggets\Children of Nuggets Cd2\11 - The Untamed Youth - Pabst Blue Ribbon.wav

Peak level 90.9 %
Track quality 100.0 %
Test CRC 735855C6
Copy CRC 735855C6
Copy OK

Track 12
Filename G:\Audio\up\Children of Nuggets\Children of Nuggets Cd2\12 - The La's - There She Goes.wav

Peak level 99.8 %
Track quality 100.0 %
Test CRC C50DB635
Copy CRC C50DB635
Copy OK

Track 13
Filename G:\Audio\up\Children of Nuggets\Children of Nuggets Cd2\13 - Vibrasonic - Kingsley J..wav

Peak level 98.3 %
Track quality 100.0 %
Test CRC 02711C1A
Copy CRC 02711C1A
Copy OK

Track 14
Filename G:\Audio\up\Children of Nuggets\Children of Nuggets Cd2\14 - The Crawdaddys - Can Never Tell.wav

Pre-gap length 0:00:01.37

Peak level 94.5 %
Track quality 99.9 %
Test CRC E94EED2F
Copy CRC E94EED2F
Copy OK

Track 15
Filename G:\Audio\up\Children of Nuggets\Children of Nuggets Cd2\15 - The Green Telescope - Make me Stay.wav

Peak level 99.8 %
Track quality 100.0 %
Test CRC A8D840AA
Copy CRC A8D840AA
Copy OK

Track 16
Filename G:\Audio\up\Children of Nuggets\Children of Nuggets Cd2\16 - The Plimsouls - Everyday Things.wav

Peak level 98.2 %
Track quality 100.0 %
Test CRC 073C372B
Copy CRC 073C372B
Copy OK

Track 17
Filename G:\Audio\up\Children of Nuggets\Children of Nuggets Cd2\17 - The Soft Boys - I Wanna Destroy You.wav

Peak level 95.7 %
Track quality 100.0 %
Test CRC 3BB25286
Copy CRC 3BB25286
Copy OK

Track 18
Filename G:\Audio\up\Children of Nuggets\Children of Nuggets Cd2\18 - Mickey & The Milkshakes - It's You.wav

Peak level 99.8 %
Track quality 100.0 %
Test CRC B6186D3F
Copy CRC B6186D3F
Copy OK

Track 19
Filename G:\Audio\up\Children of Nuggets\Children of Nuggets Cd2\19 - The Posies - Apology.wav

Pre-gap length 0:00:01.08

Peak level 99.8 %
Track quality 99.9 %
Test CRC 77BB13A7
Copy CRC 77BB13A7
Copy OK

Track 20
Filename G:\Audio\up\Children of Nuggets\Children of Nuggets Cd2\20 - The Bevis Frond - Lights Are Changing.wav

Peak level 92.0 %
Track quality 100.0 %
Test CRC 2A667D71
Copy CRC 2A667D71
Copy OK

Track 21
Filename G:\Audio\up\Children of Nuggets\Children of Nuggets Cd2\21 - The Droogs - Ahead of my Times.wav

Peak level 86.9 %
Track quality 100.0 %
Test CRC 279156D8
Copy CRC 279156D8
Copy OK

Track 22
Filename G:\Audio\up\Children of Nuggets\Children of Nuggets Cd2\22 - The Funseekers - Welcome to my Love.wav

Peak level 99.8 %
Track quality 100.0 %
Test CRC E84DC04C
Copy CRC E84DC04C
Copy OK

Track 23
Filename G:\Audio\up\Children of Nuggets\Children of Nuggets Cd2\23 - The Revolving Paint Dream - Flowers in The Sky.wav

Pre-gap length 0:00:01.02

Peak level 99.4 %
Track quality 99.8 %
Test CRC EDA248A8
Copy CRC EDA248A8
Copy OK

Track 24
Filename G:\Audio\up\Children of Nuggets\Children of Nuggets Cd2\24 - Teenage Fanclub - Metal Baby.wav

Pre-gap length 0:00:01.06

Peak level 99.0 %
Track quality 99.4 %
Test CRC 1A89219F
Copy CRC 1A89219F
Copy OK

No errors occured


End of status report



[CUETools log; Date: 2016. 05. 18. 13:55:25; Version: 2.1.6]
[CTDB TOCID: VHDE1IHBy1Qzxp6VfucPYvh7_Ko-] found.
Track | CTDB Status
1 | (32/32) Accurately ripped
2 | (32/32) Accurately ripped
3 | (32/32) Accurately ripped
4 | (31/32) Accurately ripped
5 | (31/32) Accurately ripped, or (1/32) differs in 4 samples @00:00:23
6 | (31/32) Accurately ripped, or (1/32) differs in 6 samples @00:00:21
7 | (32/32) Accurately ripped
8 | (31/32) Accurately ripped
9 | (32/32) Accurately ripped
10 | (32/32) Accurately ripped
11 | (32/32) Accurately ripped
12 | (32/32) Accurately ripped
13 | (32/32) Accurately ripped
14 | (32/32) Accurately ripped
15 | (32/32) Accurately ripped
16 | (32/32) Accurately ripped
17 | (31/32) Accurately ripped, or (1/32) differs in 4 samples @02:51:07
18 | (32/32) Accurately ripped
19 | (31/32) Accurately ripped, or (1/32) differs in 4 samples @05:03:66
20 | (32/32) Accurately ripped
21 | (32/32) Accurately ripped
22 | (31/32) Accurately ripped
23 | (32/32) Accurately ripped
24 | (29/32) Accurately ripped
[AccurateRip ID: 0043f7cf-049a8ee8-59128518] found.
Track [ CRC | V2 ] Status
01 [4632950f|0f9e7b7b] (39+22/61) Accurately ripped
02 [ee8b436c|22466c22] (39+22/61) Accurately ripped
03 [b2abf705|97797b95] (40+22/62) Accurately ripped
04 [2afe1920|cfafe88c] (40+22/62) Accurately ripped
05 [e9464312|baf90820] (39+21/60) Accurately ripped
06 [0dbc696f|78e002e1] (39+21/60) Accurately ripped
07 [446b47aa|64ac5284] (39+22/61) Accurately ripped
08 [b71baa62|7ca1800e] (38+22/60) Accurately ripped
09 [8c7443e4|3a017ebe] (39+22/61) Accurately ripped
10 [ae2582de|b507895d] (39+22/61) Accurately ripped
11 [5c5e0011|7727978f] (38+22/60) Accurately ripped
12 [a8a75f00|ffdbfcfb] (37+22/59) Accurately ripped
13 [8cdf2296|9041db67] (36+22/58) Accurately ripped
14 [6c147215|86115eb5] (38+22/60) Accurately ripped
15 [507cf0e1|12b8ae62] (39+22/61) Accurately ripped
16 [767cc59b|fdffaee9] (39+22/61) Accurately ripped
17 [f5ca0f0e|02e3539f] (38+21/59) Accurately ripped
18 [a81460f5|aaa5edb2] (39+22/61) Accurately ripped
19 [2cba7e0a|f67026ba] (38+21/59) Accurately ripped
20 [0f98d1aa|97bcfd37] (38+22/60) Accurately ripped
21 [b3bea1a5|cb765718] (39+22/61) Accurately ripped
22 [937e2200|6939750e] (39+22/61) Accurately ripped
23 [011341d3|7bdc55e3] (39+22/61) Accurately ripped
24 [b2910a03|14fa5656] (36+22/58) Accurately ripped
Offsetted by 6:
01 [ec21b455] (00/61) No match
02 [22073bf0] (00/61) No match
03 [9f04a625] (00/62) No match
04 [e8053483] (00/62) No match
05 [2b441a0f] (00/60) No match
06 [c7e7b723] (00/60) No match
07 [c2abfdc2] (00/61) No match
08 [e7e910da] (00/60) No match
09 [ff2bdde8] (00/61) No match
10 [f0c7f778] (00/61) No match
11 [c7603cb5] (00/60) No match
12 [96b49ba8] (00/59) No match (V2 was not tested)
13 [5ab9e094] (00/58) No match (V2 was not tested)
14 [397c5dab] (00/60) No match (V2 was not tested)
15 [15529487] (00/61) No match
16 [243de7ff] (00/61) No match
17 [85132e2a] (00/59) No match
18 [fd99a07f] (00/61) No match
19 [08eaefe8] (00/59) No match
20 [87d3c49a] (00/60) No match
21 [4ac3678b] (00/61) No match
22 [c3931212] (00/61) No match
23 [f781debf] (00/61) No match
24 [e3155909] (00/58) No match

Track Peak [ CRC32 ] [W/O NULL] [ LOG ]
– 99,8 [76A4098F] [909AEA43]
01 98,9 [2A900912] [20E30595] CRC32
02 94,7 [08BC8F06] [30A7C6FA] CRC32
03 87,3 [71E69999] [34FF6EA9] CRC32
04 92,1 [47E32093] [6B90B9B6] CRC32
05 99,8 [04618AA2] [2343EB39] CRC32
06 83,2 [CDC0B91E] [F0D6EA65] CRC32
07 92,3 [1F37BB13] [B19CFFC8] CRC32
08 92,3 [6202F83C] [E196BE80] CRC32
09 99,5 [C4505470] [7C096C92] CRC32
10 93,1 [61275D3E] [0D512391] CRC32
11 90,9 [735855C6] [2791AE2B] CRC32
12 99,8 [C50DB635] [624976F8] CRC32
13 98,3 [02711C1A] [5A1C0686] CRC32
14 94,5 [E94EED2F] [C6D868A7] CRC32
15 99,8 [A8D840AA] [506BC502] CRC32
16 98,2 [073C372B] [CFD71232] CRC32
17 95,7 [3BB25286] [C128CC7C] CRC32
18 99,8 [B6186D3F] [76B85A82] CRC32
19 99,8 [77BB13A7] [8E00712C] CRC32
20 92,0 [2A667D71] [5B63A995] CRC32
21 86,9 [279156D8] [3AD0595E] CRC32
22 99,8 [E84DC04C] [0A6E8879] CRC32
23 99,4 [EDA248A8] [D93DBBC8] CRC32
24 99,0 [1A89219F] [49C82C9E] CRC32




––––––––––––––––––-

VA - Children Of Nuggets: Original Artyfacts From The Second Psychedelic Era 1976-1996 (2005) REPOST

Volume 3


Track listing
01. The Church - The Unguarded Moment (3:10)
02. The Barracudas - The Unguarded Moment (2:31)
03. Died Pretty - Out of The Unknown (4:07)
04. The Last - L.A. Explosion (2:27)
05. Flamin' Groovies - I'll Cry Alone (2:14)
06. Julian Cope - Sunspots (Single Remix) (3:31)
07. Lipstick Killers - Hindu Gods of Love (3:22)
08. Green on Red - Death And Angels (2:15)
09. The Sinners - Barbed Wire Heart (4:00)
10. The Chills - Pink Frost (3:59)
11. The Chesterfield Kings - She Told me Lies (2:18)
12. The Smithereens - Beauty And Sadness (3:24)
13. The Mummies - Test Drive (1:29)
14. Dmz - Busy Man (ep Version) (3:22)
15. The Stems - Love Will Grow (3:15)
16. The Spongetones - She Goes Out With Everybody (2:27)
17. The Plimsouls - Hypnotized (2:55)
18. The Unclaimed - No Apology (2:05)
19. Teenage Fanclub - God Knows It's True (4:56)
20. The Hoods - You Keep on Lyin' (2:32)
21. The Sting-Rays - Don't Break Down (2:49)
22. The Fleshtones - The World Has Changed (3:10)
23. The Cynics - Baby What's Wrong (2:28)
24. Laika & The Cosmonauts - Psycko (Themes From Psycho And Vertigo) (2:24)
25. The Jigsaw Seen - My Name is Tom (4:25)


EAC extraction logfile from 7. March 2009, 18:01 for CD
Various / Children of Nuggets: Original Artyfacts From The Se

Used drive : TSSTcorpCDDVDW SH-S223Q Adapter: 2 ID: 1
Read mode : Secure with NO C2, accurate stream, disable cache
Read offset correction : 6
Overread into Lead-In and Lead-Out : No

Used output format : C:\Program Files\Exact Audio Copy\FLAC\flac.exe (User Defined Encoder)
192 kBit/s
Additional command line options : -V -5 -T "artist=%a" -T "title=%t" -T "album=%g" -T "date=%y" -T "tracknumber=%n" -T "genre=%m" %s

Other options :
Fill up missing offset samples with silence : Yes
Delete leading and trailing silent blocks : No
Installed external ASPI interface


Track 1
Filename G:\Audio\up\Children of Nuggets\Children of Nuggets Cd3\01 - The Church - The Unguarded Moment.wav

Pre-gap length 0:00:02.00

Peak level 97.3 %
Track quality 100.0 %
Test CRC 1C035E38
Copy CRC 1C035E38
Copy OK

Track 2
Filename G:\Audio\up\Children of Nuggets\Children of Nuggets Cd3\02 - The Barracudas - The Unguarded Moment.wav

Pre-gap length 0:00:00.02

Peak level 99.6 %
Track quality 100.0 %
Test CRC 16536EB9
Copy CRC 16536EB9
Copy OK

Track 3
Filename G:\Audio\up\Children of Nuggets\Children of Nuggets Cd3\03 - Died Pretty - Out of The Unknown.wav

Pre-gap length 0:00:00.02

Peak level 98.4 %
Track quality 99.9 %
Test CRC 5C500953
Copy CRC 5C500953
Copy OK

Track 4
Filename G:\Audio\up\Children of Nuggets\Children of Nuggets Cd3\04 - The Last - L.A. Explosion.wav

Pre-gap length 0:00:00.02

Peak level 93.2 %
Track quality 100.0 %
Test CRC 83429B02
Copy CRC 83429B02
Copy OK

Track 5
Filename G:\Audio\up\Children of Nuggets\Children of Nuggets Cd3\05 - Flamin' Groovies - I'll Cry Alone.wav

Pre-gap length 0:00:00.02

Peak level 95.4 %
Track quality 99.9 %
Test CRC 89D8CDE9
Copy CRC 89D8CDE9
Copy OK

Track 6
Filename G:\Audio\up\Children of Nuggets\Children of Nuggets Cd3\06 - Julian Cope - Sunspots (Single Remix).wav

Pre-gap length 0:00:00.02

Peak level 99.4 %
Track quality 100.0 %
Test CRC F5B3E13F
Copy CRC F5B3E13F
Copy OK

Track 7
Filename G:\Audio\up\Children of Nuggets\Children of Nuggets Cd3\07 - Lipstick Killers - Hindu Gods of Love.wav

Pre-gap length 0:00:00.02

Peak level 93.3 %
Track quality 100.0 %
Test CRC 699B576B
Copy CRC 699B576B
Copy OK

Track 8
Filename G:\Audio\up\Children of Nuggets\Children of Nuggets Cd3\08 - Green on Red - Death And Angels.wav

Pre-gap length 0:00:00.02

Peak level 99.1 %
Track quality 99.9 %
Test CRC 8497BACE
Copy CRC 8497BACE
Copy OK

Track 9
Filename G:\Audio\up\Children of Nuggets\Children of Nuggets Cd3\09 - The Sinners - Barbed Wire Heart.wav

Pre-gap length 0:00:00.02

Peak level 96.5 %
Track quality 100.0 %
Test CRC 2B35F4C2
Copy CRC 2B35F4C2
Copy OK

Track 10
Filename G:\Audio\up\Children of Nuggets\Children of Nuggets Cd3\10 - The Chills - Pink Frost.wav

Pre-gap length 0:00:00.02

Peak level 95.3 %
Track quality 100.0 %
Test CRC 9B7573F0
Copy CRC 9B7573F0
Copy OK

Track 11
Filename G:\Audio\up\Children of Nuggets\Children of Nuggets Cd3\11 - The Chesterfield Kings - She Told me Lies.wav

Pre-gap length 0:00:00.02

Peak level 96.1 %
Track quality 100.0 %
Test CRC 56F68B33
Copy CRC 56F68B33
Copy OK

Track 12
Filename G:\Audio\up\Children of Nuggets\Children of Nuggets Cd3\12 - The Smithereens - Beauty And Sadness.wav

Pre-gap length 0:00:00.02

Peak level 99.8 %
Track quality 100.0 %
Test CRC E5DBB861
Copy CRC E5DBB861
Copy OK

Track 13
Filename G:\Audio\up\Children of Nuggets\Children of Nuggets Cd3\13 - The Mummies - Test Drive.wav

Pre-gap length 0:00:00.02

Peak level 94.2 %
Track quality 100.0 %
Test CRC 4A2D2CFE
Copy CRC 4A2D2CFE
Copy OK

Track 14
Filename G:\Audio\up\Children of Nuggets\Children of Nuggets Cd3\14 - Dmz - Busy Man (ep Version).wav

Pre-gap length 0:00:00.02

Peak level 99.8 %
Track quality 100.0 %
Test CRC B4F3E011
Copy CRC B4F3E011
Copy OK

Track 15
Filename G:\Audio\up\Children of Nuggets\Children of Nuggets Cd3\15 - The Stems - Love Will Grow.wav

Pre-gap length 0:00:00.02

Peak level 90.3 %
Track quality 100.0 %
Test CRC 8114EEEA
Copy CRC 8114EEEA
Copy OK

Track 16
Filename G:\Audio\up\Children of Nuggets\Children of Nuggets Cd3\16 - The Spongetones - She Goes Out With Everybody.wav

Pre-gap length 0:00:00.02

Peak level 96.9 %
Track quality 100.0 %
Test CRC 4A43E55F
Copy CRC 4A43E55F
Copy OK

Track 17
Filename G:\Audio\up\Children of Nuggets\Children of Nuggets Cd3\17 - The Plimsouls - Hypnotized.wav

Pre-gap length 0:00:00.02

Peak level 94.2 %
Track quality 100.0 %
Test CRC F05689F5
Copy CRC F05689F5
Copy OK

Track 18
Filename G:\Audio\up\Children of Nuggets\Children of Nuggets Cd3\18 - The Unclaimed - No Apology.wav

Pre-gap length 0:00:00.02

Peak level 94.9 %
Track quality 100.0 %
Test CRC 1A14F994
Copy CRC 1A14F994
Copy OK

Track 19
Filename G:\Audio\up\Children of Nuggets\Children of Nuggets Cd3\19 - Teenage Fanclub - God Knows It's True.wav

Pre-gap length 0:00:00.02

Peak level 99.8 %
Track quality 100.0 %
Test CRC F0826846
Copy CRC F0826846
Copy OK

Track 20
Filename G:\Audio\up\Children of Nuggets\Children of Nuggets Cd3\20 - The Hoods - You Keep on Lyin'.wav

Pre-gap length 0:00:00.02

Peak level 95.2 %
Track quality 100.0 %
Test CRC EDFC4E84
Copy CRC EDFC4E84
Copy OK

Track 21
Filename G:\Audio\up\Children of Nuggets\Children of Nuggets Cd3\21 - The Sting-Rays - Don't Break Down.wav

Pre-gap length 0:00:00.02

Peak level 89.3 %
Track quality 99.9 %
Test CRC 3A9055CA
Copy CRC 3A9055CA
Copy OK

Track 22
Filename G:\Audio\up\Children of Nuggets\Children of Nuggets Cd3\22 - The Fleshtones - The World Has Changed.wav

Pre-gap length 0:00:00.02

Peak level 99.8 %
Track quality 99.9 %
Test CRC DEE31A20
Copy CRC DEE31A20
Copy OK

Track 23
Filename G:\Audio\up\Children of Nuggets\Children of Nuggets Cd3\23 - The Cynics - Baby What's Wrong.wav

Pre-gap length 0:00:00.02

Peak level 91.5 %
Track quality 99.9 %
Test CRC 8AC33F6D
Copy CRC 8AC33F6D
Copy OK

Track 24
Filename G:\Audio\up\Children of Nuggets\Children of Nuggets Cd3\24 - Laika & The Cosmonauts - Psycko (Themes From Psycho And Vertigo).wav

Pre-gap length 0:00:00.02

Peak level 91.4 %
Track quality 100.0 %
Test CRC 3FBE51C6
Copy CRC 3FBE51C6
Copy OK

Track 25
Filename G:\Audio\up\Children of Nuggets\Children of Nuggets Cd3\25 - The Jigsaw Seen - My Name is Tom.wav

Pre-gap length 0:00:00.02

Peak level 99.8 %
Track quality 99.9 %
Test CRC A5D67F60
Copy CRC A5D67F60
Copy OK

No errors occured


End of status report




[CUETools log; Date: 2016. 05. 18. 13:56:26; Version: 2.1.6]
[CTDB TOCID: 3WYjQdryh556tC_B4kjj2uNBR8k-] found.
Track | CTDB Status
1 | (27/28) Accurately ripped, or (1/28) differs in 2 samples @00:07:62
2 | (28/28) Accurately ripped
3 | (28/28) Accurately ripped
4 | (28/28) Accurately ripped
5 | (28/28) Accurately ripped
6 | (28/28) Accurately ripped
7 | (28/28) Accurately ripped
8 | (27/28) Accurately ripped, or (1/28) differs in 5 samples @02:14:39
9 | (28/28) Accurately ripped
10 | (27/28) Accurately ripped, or (1/28) differs in 2 samples @00:23:39
11 | (28/28) Accurately ripped
12 | (28/28) Accurately ripped
13 | (28/28) Accurately ripped
14 | (28/28) Accurately ripped
15 | (27/28) Accurately ripped, or (1/28) differs in 19 samples @00:00:17-00:00:20
16 | (28/28) Accurately ripped
17 | (28/28) Accurately ripped
18 | (28/28) Accurately ripped
19 | (28/28) Accurately ripped
20 | (28/28) Accurately ripped
21 | (26/28) Accurately ripped
22 | (28/28) Accurately ripped
23 | (28/28) Accurately ripped
24 | (26/28) Accurately ripped
25 | (28/28) Accurately ripped
[AccurateRip ID: 004380b6-04bcad02-7711c519] found.
Track [ CRC | V2 ] Status
01 [685849ca|7a38298d] (40+19/59) Accurately ripped
02 [cbf2665f|4673aa98] (40+21/61) Accurately ripped
03 [424013b3|df775cda] (40+20/60) Accurately ripped
04 [2972e708|ba74b35c] (41+20/61) Accurately ripped
05 [1500f240|730942f9] (39+20/59) Accurately ripped
06 [7e6d5cc4|70c82c28] (41+20/61) Accurately ripped
07 [58755b0a|08d168d8] (41+20/61) Accurately ripped
08 [9e9abfb0|6f393216] (41+20/61) Accurately ripped
09 [b23712f6|8d309205] (41+21/62) Accurately ripped
10 [60507d58|750de23f] (40+20/60) Accurately ripped
11 [b8fed912|ab0f77fa] (41+21/62) Accurately ripped
12 [c4ac089f|1e210b54] (38+21/59) Accurately ripped
13 [75ea1504|731bd75e] (41+21/62) Accurately ripped
14 [da51e0a1|414a5f69] (40+21/61) Accurately ripped
15 [559b1441|2a4487b4] (40+20/60) Accurately ripped
16 [65b7edd4|ee15ee22] (40+21/61) Accurately ripped
17 [00bebc9e|ed89a03c] (40+21/61) Accurately ripped
18 [30fa5171|6d7889af] (41+21/62) Accurately ripped
19 [1bf502f0|eedf0656] (40+21/61) Accurately ripped
20 [22f69b00|268e99f2] (41+21/62) Accurately ripped
21 [65016e31|47252125] (41+21/62) Accurately ripped
22 [f58c1fae|b47e94f8] (41+20/61) Accurately ripped
23 [9ca94ebe|807f31a4] (40+21/61) Accurately ripped
24 [642b624d|cb9dacbe] (40+21/61) Accurately ripped
25 [1e2c577e|a527205a] (34+20/56) Accurately ripped

Track Peak [ CRC32 ] [W/O NULL] [ LOG ]
– 99,8 [176C826F] [42AE4C8D]
01 97,3 [1C035E38] [2659781B] CRC32
02 99,6 [16536EB9] [A3C1132D] CRC32
03 98,4 [5C500953] [D1B60C19] CRC32
04 93,1 [83429B02] [3842801A] CRC32
05 95,4 [89D8CDE9] [B2FBC8A1] CRC32
06 99,4 [F5B3E13F] [C892DD58] CRC32
07 93,3 [699B576B] [3A020E49] CRC32
08 99,1 [8497BACE] [86FFABA2] CRC32
09 96,5 [2B35F4C2] [C6A4F67C] CRC32
10 95,3 [9B7573F0] [CF0F18D0] CRC32
11 96,1 [56F68B33] [B8CC70B8] CRC32
12 99,8 [E5DBB861] [18F0F266] CRC32
13 94,2 [4A2D2CFE] [D370F6D9] CRC32
14 99,8 [B4F3E011] [A1639423] CRC32
15 90,3 [8114EEEA] [C4B94875] CRC32
16 96,9 [4A43E55F] [FBC39806] CRC32
17 94,2 [F05689F5] [5C92EDB0] CRC32
18 94,9 [1A14F994] [299B6A03] CRC32
19 99,8 [F0826846] [5E352632] CRC32
20 95,2 [EDFC4E84] [B15286E9] CRC32
21 89,3 [3A9055CA] [C502C6BB] CRC32
22 99,8 [DEE31A20] [14616A29] CRC32
23 91,5 [8AC33F6D] [8B5E50E2] CRC32
24 91,4 [3FBE51C6] [5372EFE0] CRC32
25 99,8 [A5D67F60] [414CE18C] CRC32



––––––––––––––––––-

VA - Children Of Nuggets: Original Artyfacts From The Second Psychedelic Era 1976-1996 (2005) REPOST

Volume 4


Track listing
01. Primal Scream - Gentle Tuesday (3:47)
02. The Three O'Clock - With A Cantaloupe Girlfriend (2:52)
03. The Hoodoo Gurus - Like Wow - Wipeout! (3:12)
04. The Fuzztones - Bad News Travels Fast (2:39)
05. Sun Dial - Plains Of Nazca (Single Version) (3:44)
06. The Bangs - Getting Out Of Hand (2:15)
07. Mickey & The Milkshakes - Please Don't Tell My Baby (1:44)
08. The Rain Parade - One Half Hour Ago (4:12)
09. The Aardvarks - You're My Loving Way (2:44)
10. Screaming Trees - Transfiguration (3:55)
11. United States Of Existence - A Scandal In Bohemia (2:32)
12. The Nomads - Where The Wolf Bane Blooms (2:15)
13. The Vipers - Cheated And Lied (2:26)
14. The Dentists - Strawberries Are Growing In My Garden (And It's Wintertime) (3:20)
15. Tell-Tale Hearts - Won't Need Yours (2:45)
16. Inspiral Carpets - Weakness (4:18)
17. The Miracle Workers - You'll Know Why (3:07)
18. The Unknowns - Not My Memory (2:23)
19. The Prisoners - Far Away (5:23)
20. The Optic Nerve - Ain't That A Man (2:37)
21. Plasticland - Mink Dress (2:50)
22. The Raybeats - Tight Turn (Album Version) (3:54)
23. The Nerves - One Way Ticket (2:10)
24. The Wondermints - Tracy Hide (Cover Version) (4:48)


EAC extraction logfile from 7. March 2009, 19:57 for CD
Various / Children Of Nuggets: Original Artyfacts From The Second Psychedelic Era 1976-1996 (Disc 4)

Used drive : TSSTcorpCDDVDW SH-S223Q Adapter: 2 ID: 1
Read mode : Secure with NO C2, accurate stream, disable cache
Read offset correction : 6
Overread into Lead-In and Lead-Out : No

Used output format : C:\Program Files\Exact Audio Copy\FLAC\flac.exe (User Defined Encoder)
192 kBit/s
Additional command line options : -V -5 -T "artist=%a" -T "title=%t" -T "album=%g" -T "date=%y" -T "tracknumber=%n" -T "genre=%m" %s

Other options :
Fill up missing offset samples with silence : Yes
Delete leading and trailing silent blocks : No
Installed external ASPI interface


Track 1
Filename G:\Audio\up\Children of Nuggets\Children of Nuggets Cd4\01 - Primal Scream - Gentle Tuesday.wav

Pre-gap length 0:00:02.00

Peak level 99.8 %
Track quality 99.9 %
Test CRC 3C13E3E8
Copy CRC 3C13E3E8
Copy OK

Track 2
Filename G:\Audio\up\Children of Nuggets\Children of Nuggets Cd4\02 - The Three O'Clock - With A Cantaloupe Girlfriend.wav

Peak level 98.4 %
Track quality 99.9 %
Test CRC 3D3E6D6A
Copy CRC 3D3E6D6A
Copy OK

Track 3
Filename G:\Audio\up\Children of Nuggets\Children of Nuggets Cd4\03 - The Hoodoo Gurus - Like Wow - Wipeout!.wav

Peak level 95.4 %
Track quality 100.0 %
Test CRC D9C2FF9F
Copy CRC D9C2FF9F
Copy OK

Track 4
Filename G:\Audio\up\Children of Nuggets\Children of Nuggets Cd4\04 - The Fuzztones - Bad News Travels Fast.wav

Peak level 96.0 %
Track quality 100.0 %
Test CRC 74A4605E
Copy CRC 74A4605E
Copy OK

Track 5
Filename G:\Audio\up\Children of Nuggets\Children of Nuggets Cd4\05 - Sun Dial - Plains Of Nazca (Single Version).wav

Pre-gap length 0:00:02.33

Peak level 87.2 %
Track quality 100.0 %
Test CRC CA5D6C90
Copy CRC CA5D6C90
Copy OK

Track 6
Filename G:\Audio\up\Children of Nuggets\Children of Nuggets Cd4\06 - The Bangs - Getting Out Of Hand.wav

Pre-gap length 0:00:01.30

Peak level 94.2 %
Track quality 100.0 %
Test CRC 30C77243
Copy CRC 30C77243
Copy OK

Track 7
Filename G:\Audio\up\Children of Nuggets\Children of Nuggets Cd4\07 - Mickey & The Milkshakes - Please Don't Tell My Baby.wav

Peak level 99.8 %
Track quality 100.0 %
Test CRC 092AC9AD
Copy CRC 092AC9AD
Copy OK

Track 8
Filename G:\Audio\up\Children of Nuggets\Children of Nuggets Cd4\08 - The Rain Parade - One Half Hour Ago.wav

Peak level 99.8 %
Track quality 100.0 %
Test CRC 4F593163
Copy CRC 4F593163
Copy OK

Track 9
Filename G:\Audio\up\Children of Nuggets\Children of Nuggets Cd4\09 - The Aardvarks - You're My Loving Way.wav

Peak level 99.8 %
Track quality 100.0 %
Test CRC 6DBD954C
Copy CRC 6DBD954C
Copy OK

Track 10
Filename G:\Audio\up\Children of Nuggets\Children of Nuggets Cd4\10 - Screaming Trees - Transfiguration.wav

Peak level 99.8 %
Track quality 100.0 %
Test CRC B73C08B5
Copy CRC B73C08B5
Copy OK

Track 11
Filename G:\Audio\up\Children of Nuggets\Children of Nuggets Cd4\11 - United States Of Existence - A Scandal In Bohemia.wav

Peak level 99.8 %
Track quality 100.0 %
Test CRC 87AAD2A7
Copy CRC 87AAD2A7
Copy OK

Track 12
Filename G:\Audio\up\Children of Nuggets\Children of Nuggets Cd4\12 - The Nomads - Where The Wolf Bane Blooms.wav

Peak level 89.4 %
Track quality 99.9 %
Test CRC D8FD9B1E
Copy CRC D8FD9B1E
Copy OK

Track 13
Filename G:\Audio\up\Children of Nuggets\Children of Nuggets Cd4\13 - The Vipers - Cheated And Lied.wav

Peak level 88.5 %
Track quality 99.9 %
Test CRC 950AC4A8
Copy CRC 950AC4A8
Copy OK

Track 14
Filename G:\Audio\up\Children of Nuggets\Children of Nuggets Cd4\14 - The Dentists - Strawberries Are Growing In My Garden (And It's Wintertime).wav

Peak level 99.8 %
Track quality 99.9 %
Test CRC D43E3F14
Copy CRC D43E3F14
Copy OK

Track 15
Filename G:\Audio\up\Children of Nuggets\Children of Nuggets Cd4\15 - Tell-Tale Hearts - Won't Need Yours.wav

Peak level 92.6 %
Track quality 100.0 %
Test CRC 26CA6B7E
Copy CRC 26CA6B7E
Copy OK

Track 16
Filename G:\Audio\up\Children of Nuggets\Children of Nuggets Cd4\16 - Inspiral Carpets - Weakness.wav

Peak level 99.6 %
Track quality 100.0 %
Test CRC DF5219DF
Copy CRC DF5219DF
Copy OK

Track 17
Filename G:\Audio\up\Children of Nuggets\Children of Nuggets Cd4\17 - The Miracle Workers - You'll Know Why.wav

Peak level 94.7 %
Track quality 99.9 %
Test CRC EB40B6AE
Copy CRC EB40B6AE
Copy OK

Track 18
Filename G:\Audio\up\Children of Nuggets\Children of Nuggets Cd4\18 - The Unknowns - Not My Memory.wav

Peak level 99.8 %
Track quality 100.0 %
Test CRC 418B9D0E
Copy CRC 418B9D0E
Copy OK

Track 19
Filename G:\Audio\up\Children of Nuggets\Children of Nuggets Cd4\19 - The Prisoners - Far Away.wav

Peak level 99.8 %
Track quality 99.9 %
Test CRC 6D604272
Copy CRC 6D604272
Copy OK

Track 20
Filename G:\Audio\up\Children of Nuggets\Children of Nuggets Cd4\20 - The Optic Nerve - Ain't That A Man.wav

Peak level 99.8 %
Track quality 100.0 %
Test CRC 8EA548C2
Copy CRC 8EA548C2
Copy OK

Track 21
Filename G:\Audio\up\Children of Nuggets\Children of Nuggets Cd4\21 - Plasticland - Mink Dress.wav

Peak level 98.6 %
Track quality 100.0 %
Test CRC DC94ABDE
Copy CRC DC94ABDE
Copy OK

Track 22
Filename G:\Audio\up\Children of Nuggets\Children of Nuggets Cd4\22 - The Raybeats - Tight Turn (Album Version).wav

Peak level 99.7 %
Track quality 100.0 %
Test CRC 902CB179
Copy CRC 902CB179
Copy OK

Track 23
Filename G:\Audio\up\Children of Nuggets\Children of Nuggets Cd4\23 - The Nerves - One Way Ticket.wav

Peak level 99.8 %
Track quality 99.9 %
Test CRC 5BBEF212
Copy CRC 5BBEF212
Copy OK

Track 24
Filename G:\Audio\up\Children of Nuggets\Children of Nuggets Cd4\24 - The Wondermints - Tracy Hide (Cover Version).wav

Peak level 95.5 %
Track quality 100.0 %
Test CRC 9FA53475
Copy CRC 9FA53475
Copy OK

No errors occured


End of status report





[CUETools log; Date: 2016. 05. 18. 13:58:19; Version: 2.1.6]
[CTDB TOCID: OjDUee8TUCgkUIn_BF.85V9QlRs-] found.
Track | CTDB Status
1 | (27/27) Accurately ripped
2 | (27/27) Accurately ripped
3 | (27/27) Accurately ripped
4 | (27/27) Accurately ripped
5 | (27/27) Accurately ripped
6 | (27/27) Accurately ripped
7 | (27/27) Accurately ripped
8 | (26/27) Accurately ripped
9 | (26/27) Accurately ripped
10 | (27/27) Accurately ripped
11 | (26/27) Accurately ripped
12 | (27/27) Accurately ripped
13 | (27/27) Accurately ripped
14 | (27/27) Accurately ripped
15 | (27/27) Accurately ripped
16 | (26/27) Accurately ripped
17 | (25/27) Accurately ripped, or (1/27) differs in 9906 samples @00:33:30,00:35:67,00:36:49,00:36:67-00:36:68,00:37:11-00:37:12,00:37:30-00:37:31,00:37:49-00:37:50,00:37:68,00:38:11-00:38:12,00:38:30-00:38:31,00:38:49-00:38:50,00:38:68-00:38:69,00:39:12-00:39:13,00:39:30-00:39:31,00:39:49-00:39:50,00:39:68-00:39:69,00:40:12-00:40:13,00:40:31-00:40:32,00:40:49-00:40:50,00:40:68-00:40:69,00:41:12-00:41:13,00:41:31-00:41:32,00:41:50-00:41:51,00:41:68-00:41:69,00:42:12-00:42:13,00:42:31-00:42:32,00:42:50-00:42:51,00:42:69,00:43:12-00:43:13,00:43:31-00:43:32,00:43:50-00:43:51,00:43:70,00:44:13-00:44:14,00:44:32,00:44:51,00:44:69-00:44:70,00:45:13-00:45:14,00:45:32,00:45:51,00:45:69-00:45:70,00:46:13-00:46:14,00:46:32-00:46:33,00:46:51-00:46:52,00:46:70-00:46:71,00:47:14,00:47:32-00:47:33,00:47:51-00:47:52,00:47:70-00:47:71,00:48:14-00:48:15,00:48:33,00:48:51-00:48:52,00:48:70-00:48:71,00:49:14-00:49:15,00:49:33-00:49:34,00:49:52-00:49:53,00:49:70-00:49:71,00:50:14-00:50:15,00:50:33-00:50:34,00:50:52-00:50:53,00:50:71-00:50:72,00:51:14-00:51:16,00:51:33-00:51:34,00:51:52-00:51:53,00:51:71-00:51:72,00:52:15-00:52:16,00:52:34-00:52:35,00:52:52-00:52:53,00:52:71-00:52:72,00:53:15-00:53:16,00:53:34-00:53:35,00:53:53,00:53:72,00:54:15-00:54:16,00:54:35,00:54:53-00:54:54,00:54:72,00:55:35,00:55:53-00:55:54
18 | (26/27) Accurately ripped
19 | (26/27) Accurately ripped, or (1/27) differs in 201 samples @00:02:20,00:04:65,00:05:38,00:06:21,00:06:31,00:06:40-00:06:41,00:06:60-00:06:61,00:07:04-00:07:05,00:07:24,00:07:43-00:07:44
20 | (27/27) Accurately ripped
21 | (27/27) Accurately ripped
22 | (26/27) Accurately ripped
23 | (27/27) Accurately ripped
24 | (27/27) Accurately ripped
[AccurateRip ID: 003f8a05-044eced2-5a11d918] found.
Track [ CRC | V2 ] Status
01 [a4499096|fa9b4225] (38+21/59) Accurately ripped
02 [c6b3d009|13748af7] (40+21/61) Accurately ripped
03 [ea54051f|16321e61] (40+21/61) Accurately ripped
04 [adfe453c|97839632] (41+22/63) Accurately ripped
05 [b73ecd8d|51ae729c] (40+21/61) Accurately ripped
06 [442a26f8|34eded4f] (39+21/60) Accurately ripped
07 [fbf0a6e1|3c96da6b] (40+21/61) Accurately ripped
08 [c6c0a43f|e9501c5d] (40+22/62) Accurately ripped
09 [4e5f8b2d|0f20f30c] (40+21/61) Accurately ripped
10 [045d1ccc|893b5d62] (39+21/60) Accurately ripped
11 [9f4aab19|8fe12d77] (40+21/61) Accurately ripped
12 [ae7bb005|05d2defa] (39+21/60) Accurately ripped
13 [048ee4e1|850c4765] (40+21/61) Accurately ripped
14 [3e21a90a|3a16b966] (39+21/60) Accurately ripped
15 [beafac62|cabce1a5] (40+21/61) Accurately ripped
16 [d6f33b86|8f7eaff5] (39+21/60) Accurately ripped
17 [2ee4794d|af165cc7] (39+20/59) Accurately ripped
18 [604a426c|d0e2b31a] (39+20/59) Accurately ripped
19 [620c10b4|02fb728d] (39+20/59) Accurately ripped
20 [f6d96416|6b321ff1] (40+21/61) Accurately ripped
21 [5000cbf6|0c53ceeb] (40+21/61) Accurately ripped
22 [7c0763fd|07763630] (38+21/59) Accurately ripped
23 [e81bd75e|9a7756e7] (38+21/59) Accurately ripped
24 [1c31737d|93e737d4] (37+21/58) Accurately ripped

Track Peak [ CRC32 ] [W/O NULL] [ LOG ]
– 99,8 [0D339AA8] [C8E88562]
01 99,8 [3C13E3E8] [5CA15710] CRC32
02 98,4 [3D3E6D6A] [0B23720A] CRC32
03 95,4 [D9C2FF9F] [5BC639C7] CRC32
04 96,0 [74A4605E] [2C94012D] CRC32
05 87,2 [CA5D6C90] [7007ABAA] CRC32
06 94,2 [30C77243] [9B442628] CRC32
07 99,8 [092AC9AD] [7FF758B0] CRC32
08 99,8 [4F593163] [CD9C8F03] CRC32
09 99,8 [6DBD954C] [EFFAB1B6] CRC32
10 99,8 [B73C08B5] [F5B568E1] CRC32
11 99,8 [87AAD2A7] [708E6116] CRC32
12 89,4 [D8FD9B1E] [13D51AA1] CRC32
13 88,5 [950AC4A8] [C3316710] CRC32
14 99,8 [D43E3F14] [CD9E9EAE] CRC32
15 92,6 [26CA6B7E] [3D82BAF0] CRC32
16 99,6 [DF5219DF] [DB6366E2] CRC32
17 94,7 [EB40B6AE] [19DCFF37] CRC32
18 99,8 [418B9D0E] [BF0E70FD] CRC32
19 99,8 [6D604272] [DA9A79C1] CRC32
20 99,8 [8EA548C2] [E559B143] CRC32
21 98,6 [DC94ABDE] [5815F022] CRC32
22 99,7 [902CB179] [3133B040] CRC32
23 99,8 [5BBEF212] [5C1A83FC] CRC32
24 95,5 [9FA53475] [2F338EC4] CRC32



original uploader unknown
Bigfile
Yunfile

password: asd