Tags
Language
Tags
February 2024
Su Mo Tu We Th Fr Sa
28 29 30 31 1 2 3
4 5 6 7 8 9 10
11 12 13 14 15 16 17
18 19 20 21 22 23 24
25 26 27 28 29 1 2
Attention❗ To save your time, in order to download anything on this site, you must be registered 👉 HERE. If you do not have a registration yet, it is better to do it right away. ✌

( • )( • ) ( ͡⚆ ͜ʖ ͡⚆ ) (‿ˠ‿)
SpicyMags.xyz

Supertramp - Retrospectacle: The Supertramp Anthology (2005)

Posted By: popsakov
Supertramp - Retrospectacle: The Supertramp Anthology (2005)

Supertramp - Retrospectacle: The Supertramp Anthology (2005)
EAC Rip | FLAC (Img) + Cue + Log ~ 546 Mb | MP3 CBR320 ~ 196 Mb
Full Scans | 01:18:20 | RAR 5% Recovery
Art Rock, Progressive Rock, Pop Rock | A&M Records #602498869345

Retrospectacle – The Supertramp Anthology, also known as Gold in the U.S., is the first comprehensive compilation album by the English rock band Supertramp, released in October 2005. As Supertramp's first career retrospective, Retrospectacle contains a compilation of the most popular songs, live tracks and favourite album tracks from all of their albums from Supertramp to Slow Motion, including the live albums Paris and It Was the Best of Times. It was released as either a single disc or a double album.

Also, Retrospectacle marks the first appearance on an album of the single "Land Ho" and its B-side "Summer Romance". The version of "Land Ho" used on the compilation is the 1975 remix which the band intended to use on Crisis? What Crisis? but left off at the last minute, while "Summer Romance" is the original mix from the single. "Land Ho" was later rerecorded by Roger Hodgson for his 1987 solo album Hai Hai (with new lyrics). Classic Rock ranked Retrospectacle the 12th greatest compilation album of 2005.

***************

Supertramp - Retrospectacle: The Supertramp Anthology (2005)

Track List:

01. Surely (Edit) [1:02]
02. Land Ho [3:53]
03. School [5:34]
04. Bloody Well Right [4:33]
05. Dreamer [3:31]
06. Crime Of The Century [5:33]
07. Ain't Nobody But Me [5:11]
08. Give A Little Bit [4:08]
09. From Now On [6:18]
10. The Logical Song [4:09]
11. Goodbye Stranger [5:48]
12. Breakfast In America [2:38]
13. Take The Long Way Home [5:00]
14. It's Raining Again [4:25]
15. Cannonball [7:39]
16. Free As A Bird [4:22]
17. You Win, I Lose [4:35]

Exact Audio Copy V1.1 from 23. June 2015

Отчёт EAC об извлечении, выполненном 1. сентября 2018, 13:25

Supertramp / Retrospectacle – The Supertramp Anthology

Дисковод: ASUS DRW-20B1ST Adapter: 1 ID: 0

Режим чтения : Достоверность
Использование точного потока : Да
Отключение кэша аудио : Да
Использование указателей C2 : Нет

Коррекция смещения при чтении : 6
Способность читать области Lead-in и Lead-out : Нет
Заполнение пропущенных сэмплов тишиной : Да
Удаление блоков с тишиной в начале и конце : Нет
При вычислениях CRC использовались нулевые сэмплы : Да
Интерфейс : Встроенный Win32-интерфейс для Win NT/2000

Выходной формат : Пользовательский кодировщик
Выбранный битрейт : 1024 kBit/s
Качество : Высокий
Добавление ID3-тега : Нет
Утилита сжатия : D:\Exact Audio Copy 1.1 Portable by PortableWares\App\EAC\FLAC\FLAC.EXE
Дополнительные параметры : -6 -V -T "ARTIST=%artist%" -T "TITLE=%title%" -T "ALBUM=%albumtitle%" -T "DATE=%year%" -T "TRACKNUMBER=%tracknr%" -T "GENRE=%genre%" -T "COMMENT=%comment%" -T "BAND=%albuminterpret%" -T "ALBUMARTIST=%albuminterpret%" -T "COMPOSER=%composer%" %haslyrics%–tag-from-file=LYRICS="%lyricsfile%"%haslyrics% -T "DISCNUMBER=%cdnumber%" -T "TOTALDISCS=%totalcds%" -T "TOTALTRACKS=%numtracks%" %hascover%–picture="%coverfile%"%hascover% %source% -o %dest%


TOC извлечённого CD

Трек | Старт | Длительность | Начальный сектор | Конечный сектор
––––––––––––––––––––––––––––––––––-
1 | 0:00.00 | 1:02.31 | 0 | 4680
2 | 1:02.31 | 3:52.60 | 4681 | 22140
3 | 4:55.16 | 5:34.24 | 22141 | 47214
4 | 10:29.40 | 4:32.41 | 47215 | 67655
5 | 15:02.06 | 3:31.36 | 67656 | 83516
6 | 18:33.42 | 5:33.10 | 83517 | 108501
7 | 24:06.52 | 5:11.35 | 108502 | 131861
8 | 29:18.12 | 4:08.34 | 131862 | 150495
9 | 33:26.46 | 6:18.18 | 150496 | 178863
10 | 39:44.64 | 4:08.47 | 178864 | 197510
11 | 43:53.36 | 5:47.57 | 197511 | 223592
12 | 49:41.18 | 2:37.62 | 223593 | 235429
13 | 52:19.05 | 5:00.33 | 235430 | 257962
14 | 57:19.38 | 4:24.42 | 257963 | 277804
15 | 61:44.05 | 7:39.25 | 277805 | 312254
16 | 69:23.30 | 4:21.66 | 312255 | 331895
17 | 73:45.21 | 4:35.07 | 331896 | 352527


Характеристики диапазона извлечения и сообщения об ошибках

Выбранный диапазон

Имя файла E:\Supertramp - Retrospectacle – The Supertramp Anthology.wav

Пиковый уровень 100.0 %
Скорость извлечения 9.4 X
Качество диапазона 100.0 %
CRC копии 5544CE33
Копирование… OK

Ошибок не произошло


AccurateRip: сводка

Трек 1 : извлечено точно (доверие 4) [80093111] (AR v2)
Трек 2 : извлечено точно (доверие 4) [93B4C4D5] (AR v2)
Трек 3 : извлечено точно (доверие 4) [C67AC30F] (AR v2)
Трек 4 : извлечено точно (доверие 4) [9B9D0152] (AR v2)
Трек 5 : извлечено точно (доверие 4) [A8E826E3] (AR v2)
Трек 6 : извлечено точно (доверие 4) [4459FF7E] (AR v2)
Трек 7 : извлечено точно (доверие 4) [811F761F] (AR v2)
Трек 8 : извлечено точно (доверие 4) [A6324823] (AR v2)
Трек 9 : извлечено точно (доверие 4) [C8256665] (AR v2)
Трек 10 : извлечено точно (доверие 4) [1852B9E5] (AR v2)
Трек 11 : извлечено точно (доверие 4) [D2F5E5E6] (AR v2)
Трек 12 : извлечено точно (доверие 4) [6996B4B2] (AR v2)
Трек 13 : извлечено точно (доверие 4) [3C5968F6] (AR v2)
Трек 14 : извлечено точно (доверие 4) [554A0BF5] (AR v2)
Трек 15 : извлечено точно (доверие 4) [84F19FC2] (AR v2)
Трек 16 : извлечено точно (доверие 4) [4A905F0C] (AR v2)
Трек 17 : извлечено точно (доверие 4) [432D5559] (AR v2)

Все треки извлечены точно

Конец отчёта

==== Контрольная сумма отчёта 741283D9140451B76F1D807C94D00A51191AF944E66C66141A1941961AE75ED2 ====

[CUETools log; Date: 15.12.2018 0:20:53; Version: 2.1.6]
[CTDB TOCID: L5bVL3jinJIH.e72PFRzEDSpcpQ-] found.
Track | CTDB Status
1 | (152/153) Accurately ripped
2 | (152/153) Accurately ripped
3 | (153/153) Accurately ripped
4 | (153/153) Accurately ripped
5 | (153/153) Accurately ripped
6 | (151/153) Accurately ripped
7 | (153/153) Accurately ripped
8 | (151/153) Accurately ripped
9 | (152/153) Accurately ripped
10 | (150/153) Accurately ripped
11 | (152/153) Accurately ripped
12 | (152/153) Accurately ripped
13 | (152/153) Accurately ripped
14 | (146/153) Accurately ripped
15 | (146/153) Accurately ripped
16 | (148/153) Accurately ripped
17 | (148/153) Accurately ripped
[AccurateRip ID: 002d87eb-024f2112-e5125c11] found.
Track [ CRC | V2 ] Status
01 [3c68e3b7|80093111] (03+05/82) Accurately ripped
02 [36f87ba6|93b4c4d5] (03+05/81) Accurately ripped
03 [638f09b2|c67ac30f] (03+05/80) Accurately ripped
04 [8e893b35|9b9d0152] (03+05/80) Accurately ripped
05 [a90f67ef|a8e826e3] (03+05/82) Accurately ripped
06 [331a842a|4459ff7e] (03+05/80) Accurately ripped
07 [730177cf|811f761f] (03+05/81) Accurately ripped
08 [1700d25e|a6324823] (03+05/81) Accurately ripped
09 [ffb6b653|c8256665] (03+05/82) Accurately ripped
10 [4011acb6|1852b9e5] (03+05/80) Accurately ripped
11 [755828f0|d2f5e5e6] (03+05/80) Accurately ripped
12 [08e9f51b|6996b4b2] (03+05/80) Accurately ripped
13 [bc856f0e|3c5968f6] (03+05/80) Accurately ripped
14 [d9be64eb|554a0bf5] (03+05/79) Accurately ripped
15 [00379c05|84f19fc2] (03+05/79) Accurately ripped
16 [ebbef5d1|4a905f0c] (03+05/77) Accurately ripped
17 [e1de94d0|432d5559] (03+05/76) Accurately ripped
Offsetted by 12:
01 [b6c91820] (26/82) Accurately ripped
02 [e068ef05] (26/81) Accurately ripped
03 [6ebbdc16] (26/80) Accurately ripped
04 [7d7aecd1] (25/80) Accurately ripped
05 [a0b517b4] (27/82) Accurately ripped
06 [c1bbf861] (27/80) Accurately ripped
07 [56831563] (27/81) Accurately ripped
08 [268622f6] (27/81) Accurately ripped
09 [a6f2690f] (27/82) Accurately ripped
10 [567cf4fd] (25/80) Accurately ripped
11 [1ce85383] (25/80) Accurately ripped
12 [739d9996] (25/80) Accurately ripped
13 [96b082d9] (25/80) Accurately ripped
14 [33eb552b] (26/79) Accurately ripped
15 [1621f08d] (25/79) Accurately ripped
16 [b4b37c3d] (23/77) Accurately ripped
17 [ff5b7dd8] (23/76) Accurately ripped
Offsetted by 22:
01 [202a3696] (00/82) No match (V2 was not tested)
02 [767454f9] (00/81) No match (V2 was not tested)
03 [cd613614] (00/80) No match (V2 was not tested)
04 [99ef00d3] (00/80) No match (V2 was not tested)
05 [9b6e896d] (00/82) No match (V2 was not tested)
06 [8df7ae64] (00/80) No match (V2 was not tested)
07 [bec46e09] (00/81) No match (V2 was not tested)
08 [88ca90ca] (00/81) No match (V2 was not tested)
09 [61b5f846] (00/82) No match (V2 was not tested)
10 [ddf83831] (00/80) No match (V2 was not tested)
11 [dc66b94a] (00/80) No match (V2 was not tested)
12 [e2bf960a] (00/80) No match (V2 was not tested)
13 [22a89303] (00/80) No match (V2 was not tested)
14 [ff10c80b] (00/79) No match (V2 was not tested)
15 [d30fe1a9] (00/79) No match (V2 was not tested)
16 [b17f4197] (00/77) No match (V2 was not tested)
17 [4298eab4] (00/76) No match (V2 was not tested)
Offsetted by 153:
01 [2827d96f] (00/82) No match (V2 was not tested)
02 [c6659b47] (00/81) No match (V2 was not tested)
03 [f20a842d] (00/80) No match (V2 was not tested)
04 [f512d3ba] (00/80) No match (V2 was not tested)
05 [f4550190] (00/82) No match (V2 was not tested)
06 [68bc0b10] (00/80) No match (V2 was not tested)
07 [48421033] (00/81) No match (V2 was not tested)
08 [585247d1] (00/81) No match (V2 was not tested)
09 [e0a42aa8] (00/82) No match (V2 was not tested)
10 [8f858b64] (00/80) No match (V2 was not tested)
11 [906dac5f] (00/80) No match (V2 was not tested)
12 [8191e302] (00/80) No match (V2 was not tested)
13 [9c7ca4be] (00/80) No match (V2 was not tested)
14 [177b5c1b] (00/79) No match (V2 was not tested)
15 [17a351cb] (00/79) No match (V2 was not tested)
16 [edeca7b2] (00/77) No match (V2 was not tested)
17 [19d72ff6] (00/76) No match (V2 was not tested)

Track Peak [ CRC32 ] [W/O NULL] [ LOG ]
– 100,0 [5544CE33] [20E75FBF] CRC32
01 94,3 [E0340C50] [4B38EF1A]
02 100,0 [B45822FB] [87C8118B]
03 99,8 [1FDC4AA2] [5E5098F3]
04 99,8 [50996467] [F569DCF4]
05 99,8 [329F8DA1] [FB88C24C]
06 99,4 [6D02FF4D] [BEC31D65]
07 99,8 [8A500074] [35EA0683]
08 99,8 [B00AE338] [5E3E77BC]
09 99,8 [B07B1D5E] [AA86869D]
10 99,8 [9FF23CA6] [B7772B45]
11 99,8 [6717FA48] [206966FA]
12 99,8 [2E81519F] [3EFE13AA]
13 97,6 [C22A612A] [8CEB32C5]
14 94,8 [E6156B93] [300A8EA9]
15 96,6 [9C004374] [A977AEE5]
16 97,1 [843BE766] [C09703EB]
17 97,1 [EC3354F6] [27E5D156]

Supertramp - Retrospectacle: The Supertramp Anthology (2005)


All thanks go to the original ripper(s) …

>>> Supertramp in my Blog <<<

DOWNLOAD: