Tags
Language
Tags
July 2024
Su Mo Tu We Th Fr Sa
30 1 2 3 4 5 6
7 8 9 10 11 12 13
14 15 16 17 18 19 20
21 22 23 24 25 26 27
28 29 30 31 1 2 3

Space - The Best Of (2009)

Posted By: popsakov
Space - The Best Of (2009)

Space - The Best Of (2009)
EAC Rip | FLAC (Img) + Cue + Log ~ 535 Mb | MP3 CBR320 ~ 184 Mb
Full Scans | 01:10:56 | RAR 5% Recovery
Electronic, Space Disco | Nang Records #NANG013

The French synth-pop band Space had international hits with their 1977 dance numbers "Carry on Turn Me On" and "Magic Fly," leading to a deal with Casablanca Records and gold records for the band's songwriter and leader Didier Marouani. The dance group was formed by keyboardist Marouani in 1977. The group's biggest international success came later that year with the previously mentioned singles, both appearing on charts in a number of countries. Space toured and recorded for the next few years and continued to make well-received records, although no singles duplicated the success of "Magic Fly." After several albums, a rift occurred in the band; 1980's Deeper Zone, recorded under the name of Space, was actually an album by band members Roland Romanelli and Jannick Top, who took over and kept the band name, but went relatively unnoticed (Romanelli, incidentally, went on to compose extensively for television movies). This was the last album by Space, but the project continued with Marouani, who had written Space's music (under the alias Ecama) anyway. And so Marouani continued to record and perform – as Didier Marouani & Space, then as Didier Marouani & Paris-France-Transit (PFT) – to much success. In the Summer of 1983, he toured the U.S.S.R., drawing huge crowds in cities including Kiev and Moscow. Four years later, Marouani recorded his opera for choirs and synthesizers, Space Opera. The recording session was an international effort, bringing together choirs from the U.S. (Harvard University Choir) and U.S.S.R. (Red Army Choir). Apparently, a copy of Space Opera was put in the MIR space station. In other space-related activities, Marouani performed in Cayenne (capitol of French Guiana) at the 1990 celebration of the 10th anniversary of the Ariane rocket launch. He returned to Russia for another successful tour the following year and again during the early '90s for a historic performance in Red Square that included an extensive laser light show. The late '90s brought a reissue of the Space albums and the Best Of by Virgin France.

~ Joslyn Layne, All Music

***************

Track List:

01. Magic Fly (2009 Re-master) [04:25]
02. Running In The City [04:17]
03. Just Blue [04:35]
04. Carry On, Turn Me On (2009 Re-master) [07:17]
05. Tango in Space [04:33]
06. Air Force [04:19]
07. Prison [06:21]
08. Flying Nightmare [03:28]
09. Deliverance [06:40]
10. Fasten Seat Belt [06:04]
11. Symphony [05:02]
12. Robbots [03:41]
13. Inner Voices [03:34]
14. Save Your Love For Me [06:45]

All tracks composed by Didier Marouani
except 12 & 13 composed by
Jannick Top & Roland Romanelli.
Vocals by Madeline Bell.

Exact Audio Copy V0.99 prebeta 5 from 4. May 2009

EAC extraction logfile from 3. November 2015, 18:37

Space / The Best Of

Used drive : ATAPI iHAS122 C Adapter: 1 ID: 1

Read mode : Secure
Utilize accurate stream : Yes
Defeat audio cache : Yes
Make use of C2 pointers : No

Read offset correction : 6
Overread into Lead-In and Lead-Out : No
Fill up missing offset samples with silence : Yes
Delete leading and trailing silent blocks : No
Null samples used in CRC calculations : Yes
Used interface : Native Win32 interface for Win NT & 2000

Used output format : Internal WAV Routines
Sample format : 44.100 Hz; 16 Bit; Stereo


TOC of the extracted CD

Track | Start | Length | Start sector | End sector
––––––––––––––––––––––––––––-
1 | 0:00.00 | 4:24.15 | 0 | 19814
2 | 4:24.15 | 4:16.63 | 19815 | 39077
3 | 8:41.03 | 4:34.65 | 39078 | 59692
4 | 13:15.68 | 7:16.49 | 59693 | 92441
5 | 20:32.42 | 4:32.17 | 92442 | 112858
6 | 25:04.59 | 4:18.07 | 112859 | 132215
7 | 29:22.66 | 6:20.42 | 132216 | 160757
8 | 35:43.33 | 3:27.25 | 160758 | 176307
9 | 39:10.58 | 6:40.00 | 176308 | 206307
10 | 45:50.58 | 6:03.52 | 206308 | 233584
11 | 51:54.35 | 5:01.30 | 233585 | 256189
12 | 56:55.65 | 3:40.53 | 256190 | 272742
13 | 60:36.43 | 3:33.65 | 272743 | 288782
14 | 64:10.33 | 6:44.58 | 288783 | 319140


Range status and errors

Selected range

Filename C:\Users\arthu\Desktop\Space - The Best Of.wav

Peak level 97.6 %
Range quality 100.0 %
Test CRC AA612151
Copy CRC AA612151
Copy OK

No errors occurred


AccurateRip summary

Track 1 not present in database
Track 2 not present in database
Track 3 not present in database
Track 4 not present in database
Track 5 not present in database
Track 6 not present in database
Track 7 not present in database
Track 8 not present in database
Track 9 not present in database
Track 10 not present in database
Track 11 not present in database
Track 12 not present in database
Track 13 not present in database
Track 14 not present in database

None of the tracks are present in the AccurateRip database

End of status report

[CUETools log; Date: 18.01.2016 17:33:08; Version: 2.1.5]
[CTDB TOCID: xP7zVaZAcbNJtS1BAPKEmH.tnb4-] found.
Track | CTDB Status
1 | (1/1) Accurately ripped
2 | (1/1) Accurately ripped
3 | (1/1) Accurately ripped
4 | (1/1) Accurately ripped
5 | (1/1) Accurately ripped
6 | (1/1) Accurately ripped
7 | (1/1) Accurately ripped
8 | (1/1) Accurately ripped
9 | (1/1) Accurately ripped
10 | (1/1) Accurately ripped
11 | (1/1) Accurately ripped
12 | (1/1) Accurately ripped
13 | (1/1) Accurately ripped
14 | (1/1) Accurately ripped
[AccurateRip ID: 0024297f-0183d0c8-c1109f0e] disk not present in database.

Track Peak [ CRC32 ] [W/O NULL] [ LOG ]
– 97,6 [AA612151] [5E48D303] CRC32
01 97,6 [79D60E1C] [F78CAA09]
02 96,6 [EE15A1F3] [EFD42646]
03 96,6 [8E05AFF7] [3F3E761F]
04 97,6 [CA49282C] [B53A204E]
05 96,6 [93E9978B] [FD49E72B]
06 95,5 [D1838C14] [C54FD82D]
07 96,6 [4AF41223] [86C171C5]
08 96,6 [0EB00E7D] [AE999CA7]
09 96,6 [BADEABA1] [DAA9B7C0]
10 96,6 [DDF2CF0A] [717EFE01]
11 96,6 [DB147F1A] [77E194DC]
12 96,6 [DFEBFD55] [17520FE5]
13 96,6 [AA0F2078] [5E19F434]
14 96,6 [ACC5951F] [63F20941]

All thanks go to London

>>> Space in my Blog <<<

DOWNLOAD: