Tags
Language
Tags
July 2024
Su Mo Tu We Th Fr Sa
30 1 2 3 4 5 6
7 8 9 10 11 12 13
14 15 16 17 18 19 20
21 22 23 24 25 26 27
28 29 30 31 1 2 3

Sezen Aksu - The Wedding And The Funeral (2002)

Posted By: v3122
Sezen Aksu - The Wedding And The Funeral (2002)

Sezen Aksu - The Wedding And The Funeral (2002)
EAC | Flac(Image) + Cue + Log & MP3 CBR 320Kbps
Not On Label | RU | ~ 244 or 104 Mb | Artwork(jpg) -> 8.60 Mb
East Folk, Balkan, Gypsy Jazz, Brass Band

Goran Bregovic made a really great album when he made the soundtrack to the movie Underground. The music he made there was energetic and festive. Since then he has made the same album again and again. He made a Greek version (very laidback), a broody Polish version and this one, the Turkish version, which is very sensual. And energetic as well. A truly great album again. The genius of Bregovic is, that he takes the same music but makes a new album everytime. Fascinating! Can't wait for the next one!

holly moors, amazon
Sezen Aksu - The Wedding And The Funeral (2002):

Sezen Aksu - The Wedding And The Funeral (2002)

Tracklist:

01. O Sensin [0:03:52.31]
02. Allahin Varsa [0:05:05.35]
03. Kasim Yagmurlari [0:05:13.63]
04. Hidrellez [0:03:51.33]
05. Dugun [0:03:23.73]
06. Erkekler [0:05:42.02]
07. Gul [0:03:57.74]
08. Helal Ettim Hakkimi [0:03:58.17]
09. Ayisigi [0:03:59.47]
10. Kalasnikof [0:05:01.08]

Exact Audio Copy V1.0 beta 3 from 29. August 2011

Отчёт EAC об извлечении, выполненном 25. мая 2014, 11:53

Sezen Aksu / The Wedding And The Funeral

Дисковод: ASUS DRW-1814BLT Adapter: 4 ID: 0

Режим чтения : Достоверность
Использование точного потока : Да
Отключение кэша аудио : Да
Использование указателей C2 : Нет

Коррекция смещения при чтении : 6
Способность читать области Lead-in и Lead-out : Нет
Заполнение пропущенных сэмплов тишиной : Да
Удаление блоков с тишиной в начале и конце : Нет
При вычислениях CRC использовались нулевые сэмплы : Да
Интерфейс : Встроенный Win32-интерфейс для Win NT/2000
Обработка зазоров : Добавлено к предыдущему треку

Выходной формат : Пользовательский кодировщик
Выбранный битрейт : 128 kBit/s
Качество : Высокий
Добавление ID3-тега : Нет
Утилита сжатия : C:\Program Files\Exact Audio Copy\Flac\flac.exe
Дополнительные параметры : -V -8 -T "Genre=%genre%" -T "Artist=%artist%" -T "Title=%title%" -T "Album=%albumtitle%" -T "Date=%year%" -T "Tracknumber=%tracknr%" -T "Comment=EAC1.0b2 FLAC -8" %source%


TOC извлечённого CD

Трек | Старт | Длительность | Начальный сектор | Конечный сектор
––––––––––––––––––––––––––––––––––-
1 | 0:00.00 | 3:52.31 | 0 | 17430
2 | 3:52.31 | 5:05.35 | 17431 | 40340
3 | 8:57.66 | 5:13.63 | 40341 | 63878
4 | 14:11.54 | 3:51.33 | 63879 | 81236
5 | 18:03.12 | 3:23.73 | 81237 | 96534
6 | 21:27.10 | 5:42.02 | 96535 | 122186
7 | 27:09.12 | 3:57.74 | 122187 | 140035
8 | 31:07.11 | 3:58.17 | 140036 | 157902
9 | 35:05.28 | 3:59.47 | 157903 | 175874
10 | 39:05.00 | 5:01.08 | 175875 | 198457


Трек 1

Имя файла R:\Раздача 16\Sezen Aksu - 2002 - The Wedding And The Funera (Music by Goran Bregovic)l\01 O Sensin.wav

Длина предзазора 0:00:02.00

Пиковый уровень 99.9 %
Скорость извлечения 4.4 X
Качество трека 99.9 %
CRC теста F4FAB84B
CRC копии F4FAB84B
Копирование… OK

Трек 2

Имя файла R:\Раздача 16\Sezen Aksu - 2002 - The Wedding And The Funera (Music by Goran Bregovic)l\02 Allahin Varsa.wav

Пиковый уровень 99.6 %
Скорость извлечения 5.9 X
Качество трека 100.0 %
CRC теста 57E0FBEB
CRC копии 57E0FBEB
Копирование… OK

Трек 3

Имя файла R:\Раздача 16\Sezen Aksu - 2002 - The Wedding And The Funera (Music by Goran Bregovic)l\03 Kasim Yagmurlari.wav

Пиковый уровень 99.6 %
Скорость извлечения 6.6 X
Качество трека 100.0 %
CRC теста 51EE89BC
CRC копии 51EE89BC
Копирование… OK

Трек 4

Имя файла R:\Раздача 16\Sezen Aksu - 2002 - The Wedding And The Funera (Music by Goran Bregovic)l\04 Hidrellez.wav

Пиковый уровень 97.0 %
Скорость извлечения 6.8 X
Качество трека 100.0 %
CRC теста 991FA34F
CRC копии 991FA34F
Копирование… OK

Трек 5

Имя файла R:\Раздача 16\Sezen Aksu - 2002 - The Wedding And The Funera (Music by Goran Bregovic)l\05 Dugun.wav

Пиковый уровень 97.0 %
Скорость извлечения 7.0 X
Качество трека 100.0 %
CRC теста 6CAB6B99
CRC копии 6CAB6B99
Копирование… OK

Трек 6

Имя файла R:\Раздача 16\Sezen Aksu - 2002 - The Wedding And The Funera (Music by Goran Bregovic)l\06 Erkekler.wav

Пиковый уровень 98.3 %
Скорость извлечения 8.0 X
Качество трека 100.0 %
CRC теста B84BA2D6
CRC копии B84BA2D6
Копирование… OK

Трек 7

Имя файла R:\Раздача 16\Sezen Aksu - 2002 - The Wedding And The Funera (Music by Goran Bregovic)l\07 Gul.wav

Пиковый уровень 99.9 %
Скорость извлечения 8.1 X
Качество трека 100.0 %
CRC теста 8448B5FA
CRC копии 8448B5FA
Копирование… OK

Трек 8

Имя файла R:\Раздача 16\Sezen Aksu - 2002 - The Wedding And The Funera (Music by Goran Bregovic)l\08 Helal Ettim Hakkimi.wav

Пиковый уровень 97.1 %
Скорость извлечения 8.4 X
Качество трека 100.0 %
CRC теста 2203A398
CRC копии 2203A398
Копирование… OK

Трек 9

Имя файла R:\Раздача 16\Sezen Aksu - 2002 - The Wedding And The Funera (Music by Goran Bregovic)l\09 Ayisigi.wav

Пиковый уровень 99.5 %
Скорость извлечения 8.7 X
Качество трека 100.0 %
CRC теста 07E3F362
CRC копии 07E3F362
Копирование… OK

Трек 10

Имя файла R:\Раздача 16\Sezen Aksu - 2002 - The Wedding And The Funera (Music by Goran Bregovic)l\10 Kalasnikof.wav

Пиковый уровень 97.1 %
Скорость извлечения 8.3 X
Качество трека 99.9 %
CRC теста 2947F7B5
CRC копии 2947F7B5
Копирование… OK

Ошибок не произошло

Конец отчёта

==== Контрольная сумма отчёта 97E0A0D4F601D72D515FE54F6D41CEE66580C5BE89238A187D0EEBAA216CF582 ====


[CUETools log; Date: 11.09.2020 10:40:37; Version: 2.1.4]
[AccurateRip ID: 0010b0fa-00854a4d-8b0a560a] found.
Track [ CRC | V2 ] Status
01 [5d96837b|bd07bf8f] (0+0/7) No match
02 [bdeba4a3|6201d197] (0+0/7) No match
03 [2a949fc4|c7aebdb4] (0+0/6) No match
04 [67547bb9|97884afb] (0+0/7) No match
05 [f1459ab0|c382ccf1] (0+0/6) No match
06 [4e0dec9c|994fb49b] (0+0/7) No match
07 [95941bbd|3ca34a6d] (0+0/6) No match
08 [dbcf6ed8|dfc036f5] (0+0/5) No match
09 [cfc9ce90|1a5dedd5] (0+0/6) No match
10 [8a313a79|dcc97272] (0+0/6) No match
Offsetted by 730:
01 [34dccd0d] (3/7) Accurately ripped
02 [f535c8ff] (3/7) Accurately ripped
03 [31357bea] (3/6) Accurately ripped
04 [e29d7c79] (3/7) Accurately ripped
05 [43064d1e] (3/6) Accurately ripped
06 [c5e82368] (3/7) Accurately ripped
07 [2ecd989b] (3/6) Accurately ripped
08 [268ce952] (2/5) Accurately ripped
09 [834ea73c] (3/6) Accurately ripped
10 [e2fe8cf5] (3/6) Accurately ripped

Track Peak [ CRC32 ] [W/O NULL] [ LOG ]
– 99,9 [C3725D4A] [8ACAC072]
01 99,9 [F4FAB84B] [D1F68F2A] CRC32
02 99,6 [57E0FBEB] [4D4863BE] CRC32
03 99,6 [51EE89BC] [C227EEF4] CRC32
04 97,0 [991FA34F] [4B0FCB35] CRC32
05 97,0 [6CAB6B99] [5EC36DFD] CRC32
06 98,3 [B84BA2D6] [E2BAFFFA] CRC32
07 99,9 [8448B5FA] [A2EABE46] CRC32
08 97,1 [2203A398] [A046D06A] CRC32
09 99,5 [07E3F362] [6E2032BC] CRC32
10 97,1 [2947F7B5] [9A872845] CRC32


Sezen Aksu - The Wedding And The Funeral (2002)

All thanks go to the original releaser

Sezen Aksu in my Blog

Download Sezen Aksu - The Wedding And The Funeral (2002):