Tags
Language
Tags
July 2024
Su Mo Tu We Th Fr Sa
30 1 2 3 4 5 6
7 8 9 10 11 12 13
14 15 16 17 18 19 20
21 22 23 24 25 26 27
28 29 30 31 1 2 3

Sarah Vaughan - Shulie A Bop (2005)

Posted By: popsakov
Sarah Vaughan - Shulie A Bop (2005)

Sarah Vaughan - Shulie A Bop (2005)
EAC Rip | FLAC (Img) + Cue + Log ~ 201 Mb | MP3 CBR320 ~ 175 Mb
Full Scans | 01:09:27 | RAR 5% Recovery
Vocal Jazz, Bop | Saga #982 991-9

Sarah Vaughan was an American jazz singer, described by music critic Scott Yanow as having "one of the most wondrous voices of the 20th century." Nicknamed "Sassy" and "The Divine One", Sarah Vaughan was a Grammy Award winner. The National Endowment for the Arts bestowed upon her its "highest honor in jazz", the NEA Jazz Masters Award, in 1989. Recordings of Sarah Vaughan were inducted into the Grammy Hall of Fame, which is a special Grammy award established in 1973 to honor recordings that are at least twenty-five years old, and that have "qualitative or historical significance."

***************

Sarah Vaughan - Shulie A Bop (2005)

Sarah Vaughan - Shulie A Bop (2005)

Track List:

01. Shulie a Bop [2:43]
02. Lover Man [3:26]
03. Interlude (A Night in Tunisia) [2:33]
04. Mean to Me [2:45]
05. It Might As Well Be Spring [3:16]
06. Ain't Misbehavin' [3:05]
07. Goodnight, My Love [3:33]
08. Can't Get Out of This Mood [2:53]
09. East of the Sun (and West of the Moon) [3:12]
10. Nice Work If You Can Get It [2:37]
11. Come Rain or Come Shine [3:26]
12. Polka Dots and Moonbeams [2:36]
13. You Hit the Spot [3:02]
14. Prelude to a Kiss [2:48]
15. If I Knew Then (What I Know Now) [2:33]
16. Body and Soul [3:14]
17. They Can't Take That Away from Me [2:43]
18. I Cried for You [2:27]
19. Perdido [2:35]
20. The Nearness of You [3:22]
21. Ooh What-Cha Doin' to Me [1:58]
22. It's Easy to Remember [2:47]
23. My Funny Valentine [3:04]
24. My One and Only Love [2:50]

Exact Audio Copy V1.0 beta 3 from 29. August 2011

EAC extraction logfile from 6. October 2013, 18:09

Sarah Vaughan / Shulie a Bop

Used drive : ATAPI DVD D DH16D2P Adapter: 2 ID: 1

Read mode : Secure
Utilize accurate stream : Yes
Defeat audio cache : Yes
Make use of C2 pointers : No

Read offset correction : 6
Overread into Lead-In and Lead-Out : No
Fill up missing offset samples with silence : Yes
Delete leading and trailing silent blocks : No
Null samples used in CRC calculations : Yes
Used interface : Installed external ASPI interface

Used output format : Internal WAV Routines
Sample format : 44.100 Hz; 16 Bit; Stereo


TOC of the extracted CD

Track | Start | Length | Start sector | End sector
––––––––––––––––––––––––––––-
1 | 0:00.00 | 2:42.40 | 0 | 12189
2 | 2:42.40 | 3:25.74 | 12190 | 27638
3 | 6:08.39 | 2:33.13 | 27639 | 39126
4 | 8:41.52 | 2:45.06 | 39127 | 51507
5 | 11:26.58 | 3:15.56 | 51508 | 66188
6 | 14:42.39 | 3:04.63 | 66189 | 80051
7 | 17:47.27 | 3:33.08 | 80052 | 96034
8 | 21:20.35 | 2:53.26 | 96035 | 109035
9 | 24:13.61 | 3:11.60 | 109036 | 123420
10 | 27:25.46 | 2:37.35 | 123421 | 135230
11 | 30:03.06 | 3:26.25 | 135231 | 150705
12 | 33:29.31 | 2:35.73 | 150706 | 162403
13 | 36:05.29 | 3:01.44 | 162404 | 176022
14 | 39:06.73 | 2:47.67 | 176023 | 188614
15 | 41:54.65 | 2:32.58 | 188615 | 200072
16 | 44:27.48 | 3:14.14 | 200073 | 214636
17 | 47:41.62 | 2:42.51 | 214637 | 226837
18 | 50:24.38 | 2:27.04 | 226838 | 237866
19 | 52:51.42 | 2:34.64 | 237867 | 249480
20 | 55:26.31 | 3:22.26 | 249481 | 264656
21 | 58:48.57 | 1:57.72 | 264657 | 273503
22 | 60:46.54 | 2:46.71 | 273504 | 286024
23 | 63:33.50 | 3:03.66 | 286025 | 299815
24 | 66:37.41 | 2:49.72 | 299816 | 312562


Range status and errors

Selected range

Filename C:\Users\iñaki\Music\Sa_Va-2005 Shulie a Bop\Sa_Va-2005 Shulie a Bop.wav

Peak level 92.3 %
Extraction speed 4.9 X
Range quality 100.0 %
Test CRC 1947E342
Copy CRC 1947E342
Copy OK

No errors occurred


AccurateRip summary

Track 1 cannot be verified as accurate (confidence 1) [4467DAF4], AccurateRip returned [85961F4C] (AR v2)
Track 2 cannot be verified as accurate (confidence 1) [B54C9062], AccurateRip returned [60703B4B] (AR v2)
Track 3 cannot be verified as accurate (confidence 1) [1D7AE987], AccurateRip returned [973968F8] (AR v2)
Track 4 cannot be verified as accurate (confidence 1) [7DBA30DC], AccurateRip returned [033EB75D] (AR v2)
Track 5 cannot be verified as accurate (confidence 1) [02503509], AccurateRip returned [91ECC24E] (AR v2)
Track 6 cannot be verified as accurate (confidence 1) [C39E9CD7], AccurateRip returned [BA8D8FA4] (AR v2)
Track 7 cannot be verified as accurate (confidence 1) [31929110], AccurateRip returned [51BDAECE] (AR v2)
Track 8 cannot be verified as accurate (confidence 1) [2199D6F9], AccurateRip returned [2165D52C] (AR v2)
Track 9 cannot be verified as accurate (confidence 1) [EC89C401], AccurateRip returned [DC03B5C1] (AR v2)
Track 10 cannot be verified as accurate (confidence 1) [0AB8308B], AccurateRip returned [9C7DC5DE] (AR v2)
Track 11 cannot be verified as accurate (confidence 1) [6E371FF5], AccurateRip returned [E6369F15] (AR v2)
Track 12 cannot be verified as accurate (confidence 1) [0B59C8DC], AccurateRip returned [7CC43A69] (AR v2)
Track 13 cannot be verified as accurate (confidence 1) [D2408D23], AccurateRip returned [31DBE781] (AR v2)
Track 14 cannot be verified as accurate (confidence 1) [06DCDFCB], AccurateRip returned [85AD5B4D] (AR v2)
Track 15 cannot be verified as accurate (confidence 1) [A6D96910], AccurateRip returned [711F36A8] (AR v2)
Track 16 cannot be verified as accurate (confidence 1) [AF96579A], AccurateRip returned [C34968D0] (AR v2)
Track 17 cannot be verified as accurate (confidence 1) [5ED98B39], AccurateRip returned [0FCC400D] (AR v2)
Track 18 cannot be verified as accurate (confidence 1) [2AA8C0A1], AccurateRip returned [18BAA70B] (AR v2)
Track 19 cannot be verified as accurate (confidence 1) [942AB5C1], AccurateRip returned [D2CCF8F6] (AR v2)
Track 20 cannot be verified as accurate (confidence 1) [C4ACCCFF], AccurateRip returned [E4E8EE3B] (AR v2)
Track 21 cannot be verified as accurate (confidence 1) [08B1C7CF], AccurateRip returned [11DCCC81] (AR v2)
Track 22 cannot be verified as accurate (confidence 1) [1A8B22D9], AccurateRip returned [CF7BD493] (AR v2)
Track 23 cannot be verified as accurate (confidence 1) [16AD531A], AccurateRip returned [FA742D8F] (AR v2)
Track 24 cannot be verified as accurate (confidence 1) [B876CB6D], AccurateRip returned [9AD5B245] (AR v2)

No tracks could be verified as accurate
You may have a different pressing from the one(s) in the database

End of status report

–– CUETools DB Plugin V2.1.3

[CTDB TOCID: mJeDbEspHpc.WQKveznl3dhY0qI-] found, Submit result: mJeDbEspHpc.WQKveznl3dhY0qI- has been confirmed
[ce9da6ea] (1/1) Accurately ripped


==== Log checksum DEBF10EA4A26C53D883D69F74B278EE41293F51B0235B185B8622E6EC60A472F ====

[CUETools log; Date: 17.06.2017 9:03:52; Version: 2.1.5]
[CTDB TOCID: mJeDbEspHpc.WQKveznl3dhY0qI-] found.
Track | CTDB Status
1 | (2/2) Accurately ripped
2 | (2/2) Accurately ripped
3 | (2/2) Accurately ripped
4 | (2/2) Accurately ripped
5 | (2/2) Accurately ripped
6 | (2/2) Accurately ripped
7 | (2/2) Accurately ripped
8 | (2/2) Accurately ripped
9 | (2/2) Accurately ripped
10 | (2/2) Accurately ripped
11 | (2/2) Accurately ripped
12 | (2/2) Accurately ripped
13 | (2/2) Accurately ripped
14 | (2/2) Accurately ripped
15 | (2/2) Accurately ripped
16 | (2/2) Accurately ripped
17 | (2/2) Accurately ripped
18 | (2/2) Accurately ripped
19 | (2/2) Accurately ripped
20 | (2/2) Accurately ripped
21 | (2/2) Accurately ripped
22 | (2/2) Accurately ripped
23 | (2/2) Accurately ripped
24 | (2/2) Accurately ripped
[AccurateRip ID: 003cc915-041953fb-6d104718] found.
Track [ CRC | V2 ] Status
01 [4c789d15|4467daf4] (0+0/3) No match
02 [6a9fae4e|b54c9062] (0+0/3) No match
03 [bde76586|1d7ae987] (0+0/3) No match
04 [6a94b986|7dba30dc] (0+0/3) No match
05 [3f7a6a47|02503509] (0+0/3) No match
06 [15f911d3|c39e9cd7] (0+0/3) No match
07 [84a70d2a|31929110] (0+0/3) No match
08 [bf3d0460|2199d6f9] (0+0/3) No match
09 [80fb9c25|ec89c401] (0+0/3) No match
10 [5fb965c0|0ab8308b] (0+0/3) No match
11 [45f57a0c|6e371ff5] (0+0/3) No match
12 [56d36140|0b59c8dc] (0+0/3) No match
13 [da023b64|d2408d23] (0+0/3) No match
14 [f18c0c42|06dcdfcb] (0+0/3) No match
15 [5208f382|a6d96910] (0+0/3) No match
16 [afe53079|af96579a] (0+0/3) No match
17 [2b35e0f9|5ed98b39] (0+0/3) No match
18 [16ece623|2aa8c0a1] (0+0/3) No match
19 [198229db|942ab5c1] (0+0/3) No match
20 [4403ebf7|c4acccff] (0+0/3) No match
21 [459ab737|08b1c7cf] (0+0/3) No match
22 [0ceaf511|1a8b22d9] (0+0/3) No match
23 [1bae3bf7|16ad531a] (0+0/3) No match
24 [970c7c82|b876cb6d] (0+0/3) No match
Offsetted by 31:
01 [944bcddb] (0/3) No match (V2 was not tested)
02 [1e12520f] (0/3) No match (V2 was not tested)
03 [3dc4a3f6] (0/3) No match (V2 was not tested)
04 [f6a42511] (0/3) No match (V2 was not tested)
05 [d6b1bab7] (0/3) No match (V2 was not tested)
06 [1431a9ab] (0/3) No match (V2 was not tested)
07 [acfa6faf] (0/3) No match (V2 was not tested)
08 [c5ed500a] (0/3) No match (V2 was not tested)
09 [77bc5c70] (0/3) No match (V2 was not tested)
10 [f8008427] (0/3) No match (V2 was not tested)
11 [c5d51f8f] (0/3) No match (V2 was not tested)
12 [ceca469b] (0/3) No match (V2 was not tested)
13 [41397ae3] (0/3) No match (V2 was not tested)
14 [775cf1d5] (0/3) No match (V2 was not tested)
15 [22a3cbeb] (0/3) No match (V2 was not tested)
16 [cbbd0938] (0/3) No match (V2 was not tested)
17 [e2df90fd] (0/3) No match (V2 was not tested)
18 [0b094f24] (0/3) No match (V2 was not tested)
19 [5e72bc6b] (0/3) No match (V2 was not tested)
20 [6c1ab4f2] (0/3) No match (V2 was not tested)
21 [534c9905] (0/3) No match (V2 was not tested)
22 [c8d75df0] (0/3) No match (V2 was not tested)
23 [06647204] (0/3) No match (V2 was not tested)
24 [80042ada] (0/3) No match (V2 was not tested)

Track Peak [ CRC32 ] [W/O NULL] [ LOG ]
– 92,3 [1947E342] [94B27530] CRC32
01 85,6 [463BBFBA] [1F1A0AE2]
02 64,7 [C35BFD01] [5A307280]
03 57,2 [633F59FC] [E91CFBED]
04 68,0 [6AA27901] [7BEFA90A]
05 66,9 [D6477849] [B0DE3CE5]
06 69,9 [A210EF20] [0A20653B]
07 81,5 [83C7D10C] [03902AE1]
08 75,4 [8CB55C97] [3D57EFEF]
09 55,6 [063455D5] [544AE907]
10 68,1 [1DCA2D11] [30A00F0E]
11 62,0 [698E93B6] [93CF5BA1]
12 52,5 [CFDFFA1E] [EACB3967]
13 92,3 [4BF69B38] [8FAE3FEB]
14 51,5 [66C2C482] [C69C17CC]
15 85,1 [EAE7CD34] [90EA65B1]
16 80,4 [588901BB] [2FD75383]
17 81,9 [94515A99] [E713A04F]
18 67,2 [1C829855] [FAA337CC]
19 66,2 [7FC70529] [40D11A41]
20 56,3 [E3DD3E43] [010ED33E]
21 67,1 [B3BD4034] [D3860C92]
22 74,0 [3E51561D] [7B8EACE1]
23 63,4 [16A68F0E] [CE1A0B4B]
24 70,6 [307D9B89] [63FBB4E3]

Sarah Vaughan - Shulie A Bop (2005)


All thanks go to the original ripper(s) …

>>> Sarah Vaughan in my Blog <<<

DOWNLOAD: