Tags
Language
Tags
July 2024
Su Mo Tu We Th Fr Sa
30 1 2 3 4 5 6
7 8 9 10 11 12 13
14 15 16 17 18 19 20
21 22 23 24 25 26 27
28 29 30 31 1 2 3

Sarah Vaughan - Vaughan And Violins (1958) [Reissue 2002]

Posted By: gribovar
Sarah Vaughan - Vaughan And Violins (1958) [Reissue 2002]

Sarah Vaughan - Vaughan And Violins (1958) [Reissue 2002]
EAC Rip | FLAC (tracks+.cue+log) - 195 MB | MP3 CBR 320 kbps (LAME 3.93) - 84 MB | Covers - 23 MB
Genre: Vocal Jazz, Big Band | RAR 3% Rec. | Label: Universal Music (065 004-2)

The 1958 session took place in Paris with Quincy Jones doing the arrangements and leading a 55-piece orchestra. To match up this large aggregation would be daunting for most singers. But with Vaughan's powerful operatic voice, it's no problem at all. Zoot Sims was present backing Vaughan and soloing on such cuts as "Misty." Also present was the rhythm section of Ronnell Bright on piano, Kenny Clarke on drums, and Richard Davis and Pierre Michelot sharing bass.
Tracklist:
01. Please Be Kind
02. The Midnight Sun Will Never Set
03. Live For Love
04. Misty
05. I'm Lost
06. Love Me
07. That's All
08. Day By Day
09. Gone With The Wind
10. I'll Close My Eyes
11. The Thrill Is Gone

Total time: 35:43

Exact Audio Copy V1.0 beta 3 from 29. August 2011

EAC extraction logfile from 24. April 2012, 1:28

Sarah Vaughan & The Quincy Jones Orchestra / Jazz in Paris - Vaughan and Violins

Used drive : Optiarc DVD RW AD-7203S Adapter: 1 ID: 1

Read mode : Secure
Utilize accurate stream : Yes
Defeat audio cache : Yes
Make use of C2 pointers : No

Read offset correction : 48
Overread into Lead-In and Lead-Out : No
Fill up missing offset samples with silence : Yes
Delete leading and trailing silent blocks : No
Null samples used in CRC calculations : Yes
Used interface : Native Win32 interface for Win NT & 2000
Gap handling : Appended to previous track

Used output format : User Defined Encoder
Selected bitrate : 768 kBit/s
Quality : High
Add ID3 tag : No
Command line compressor : C:\Program Files (x86)\Exact Audio Copy\FLAC\FLAC.EXE
Additional command line options : -T "artist=%artist%" -T "title=%title%" -T "album=%albumtitle%" -T "date=%year%" -T "tracknumber=%tracknr%" -T "genre=%genre%" -T "comment=%comment%" -T "composer=%composer%" -8 %source%


TOC of the extracted CD

Track | Start | Length | Start sector | End sector
––––––––––––––––––––––––––––-
1 | 0:00.00 | 3:15.46 | 0 | 14670
2 | 3:15.46 | 2:50.54 | 14671 | 27474
3 | 6:06.25 | 3:23.08 | 27475 | 42707
4 | 9:29.33 | 3:02.59 | 42708 | 56416
5 | 12:32.17 | 3:40.26 | 56417 | 72942
6 | 16:12.43 | 3:12.58 | 72943 | 87400
7 | 19:25.26 | 3:31.05 | 87401 | 103230
8 | 22:56.31 | 3:10.01 | 103231 | 117481
9 | 26:06.32 | 3:28.15 | 117482 | 133096
10 | 29:34.47 | 3:40.13 | 133097 | 149609
11 | 33:14.60 | 2:28.42 | 149610 | 160751


Track 1

Filename H:\EAC NEW Rips\01 - Please be kind.wav

Pre-gap length 0:00:02.00

Peak level 90.9 %
Extraction speed 2.2 X
Track quality 100.0 %
Test CRC 97987DDF
Copy CRC 97987DDF
Accurately ripped (confidence 7) [79563BFE] (AR v1)
Copy OK

Track 2

Filename H:\EAC NEW Rips\02 - The Midnight Sun Will Never Set.wav

Pre-gap length 0:00:01.60

Peak level 80.9 %
Extraction speed 2.3 X
Track quality 100.0 %
Test CRC 103052C7
Copy CRC 103052C7
Accurately ripped (confidence 7) [38DE8546] (AR v1)
Copy OK

Track 3

Filename H:\EAC NEW Rips\03 - Live For Love.wav

Pre-gap length 0:00:01.60

Peak level 91.0 %
Extraction speed 2.5 X
Track quality 100.0 %
Test CRC 21FDBF60
Copy CRC 21FDBF60
Accurately ripped (confidence 7) [F4A2998D] (AR v1)
Copy OK

Track 4

Filename H:\EAC NEW Rips\04 - Misty.wav

Pre-gap length 0:00:01.60

Peak level 83.6 %
Extraction speed 2.6 X
Track quality 100.0 %
Test CRC 71E7C536
Copy CRC 71E7C536
Accurately ripped (confidence 7) [F2C24B32] (AR v1)
Copy OK

Track 5

Filename H:\EAC NEW Rips\05 - I'm Lost.wav

Pre-gap length 0:00:01.60

Peak level 71.7 %
Extraction speed 2.9 X
Track quality 100.0 %
Test CRC A38794BE
Copy CRC A38794BE
Accurately ripped (confidence 7) [C136A199] (AR v1)
Copy OK

Track 6

Filename H:\EAC NEW Rips\06 - Love Me.wav

Pre-gap length 0:00:01.60

Peak level 76.6 %
Extraction speed 2.6 X
Track quality 100.0 %
Test CRC E2A57805
Copy CRC E2A57805
Accurately ripped (confidence 7) [7642110C] (AR v1)
Copy OK

Track 7

Filename H:\EAC NEW Rips\07 - That's All.wav

Pre-gap length 0:00:01.60

Peak level 90.6 %
Extraction speed 3.2 X
Track quality 100.0 %
Test CRC E9006BDD
Copy CRC E9006BDD
Accurately ripped (confidence 7) [EEBCD145] (AR v1)
Copy OK

Track 8

Filename H:\EAC NEW Rips\08 - Day By Day.wav

Pre-gap length 0:00:01.60

Peak level 76.9 %
Extraction speed 3.3 X
Track quality 100.0 %
Test CRC E446A959
Copy CRC E446A959
Accurately ripped (confidence 7) [604A1505] (AR v1)
Copy OK

Track 9

Filename H:\EAC NEW Rips\09 - Gone With the Wind.wav

Pre-gap length 0:00:01.60

Peak level 70.8 %
Extraction speed 3.5 X
Track quality 100.0 %
Test CRC ED64F4AC
Copy CRC ED64F4AC
Accurately ripped (confidence 7) [61FBE935] (AR v1)
Copy OK

Track 10

Filename H:\EAC NEW Rips\10 - I'll Close My Eyes.wav

Pre-gap length 0:00:01.60

Peak level 77.1 %
Extraction speed 2.5 X
Track quality 99.9 %
Test CRC A340B40D
Copy CRC A340B40D
Cannot be verified as accurate (confidence 7) [591899AE], AccurateRip returned [A4A4CF7F] (AR v2)
Copy OK

Track 11

Filename H:\EAC NEW Rips\11 - The Thrill Is Gone.wav

Pre-gap length 0:00:01.60

Peak level 81.3 %
Extraction speed 3.5 X
Track quality 100.0 %
Test CRC BCB8F992
Copy CRC BCB8F992
Accurately ripped (confidence 7) [9C412614] (AR v1)
Copy OK


10 track(s) accurately ripped
1 track(s) could not be verified as accurate

Some tracks could not be verified as accurate

No errors occurred

End of status report

–– CUETools DB Plugin V2.1.3

[CTDB TOCID: SIznYMbFpvOR4S081..v9BNtIRQ-] disk not present in database, Submit result: SIznYMbFpvOR4S081..v9BNtIRQ- has been uploaded


==== Log checksum 587154FF854E63222A9E4ECA54994396D4F0D85C2BDF7193AC270A96D59BA1E7 ====

[CUETools log; Date: 30.07.2023 14:15:58; Version: 2.1.4]
[CTDB TOCID: SIznYMbFpvOR4S081..v9BNtIRQ-] found.
Track | CTDB Status
1 | (67/67) Accurately ripped
2 | (67/67) Accurately ripped
3 | (67/67) Accurately ripped
4 | (67/67) Accurately ripped
5 | (67/67) Accurately ripped
6 | (67/67) Accurately ripped
7 | (67/67) Accurately ripped
8 | (67/67) Accurately ripped
9 | (67/67) Accurately ripped
10 | ( 1/67) Accurately ripped, or (66/67) differs in 180 samples @03:22:70
11 | (67/67) Accurately ripped
[AccurateRip ID: 000ebc9b-00803860-b9085f0b] found.
Track [ CRC | V2 ] Status
01 [79563bfe|615dd2d0] (07+15/45) Accurately ripped
02 [38de8546|541460d6] (07+15/45) Accurately ripped
03 [f4a2998d|211b71ad] (07+15/45) Accurately ripped
04 [f2c24b32|9adab8b6] (07+15/45) Accurately ripped
05 [c136a199|39e5a63f] (07+14/44) Accurately ripped
06 [7642110c|e8ac8cb4] (07+15/45) Accurately ripped
07 [eebcd145|26920c53] (07+15/45) Accurately ripped
08 [604a1505|6652aacc] (07+15/45) Accurately ripped
09 [61fbe935|ba667d5b] (07+15/44) Accurately ripped
10 [ab813e03|591899ae] (00+00/44) No match
11 [9c412614|c9852e71] (07+15/45) Accurately ripped
Offsetted by -676:
01 [84647aba] (00/45) No match (V2 was not tested)
02 [be58c456] (00/45) No match (V2 was not tested)
03 [eb0fa065] (00/45) No match (V2 was not tested)
04 [11b807fa] (00/45) No match (V2 was not tested)
05 [24b25275] (00/44) No match (V2 was not tested)
06 [1fe4afb4] (00/45) No match (V2 was not tested)
07 [5776efd5] (00/45) No match (V2 was not tested)
08 [977fde1d] (00/45) No match (V2 was not tested)
09 [4ef7a781] (00/44) No match (V2 was not tested)
10 [245db0e3] (00/44) No match (V2 was not tested)
11 [fa40b6bc] (00/45) No match (V2 was not tested)
Offsetted by -664:
01 [3874e3a6] (00/45) No match (V2 was not tested)
02 [1ff422a6] (00/45) No match (V2 was not tested)
03 [2de1c31d] (00/45) No match (V2 was not tested)
04 [41a48562] (00/45) No match (V2 was not tested)
05 [fa07fc01] (00/44) No match (V2 was not tested)
06 [83e3507c] (00/45) No match (V2 was not tested)
07 [f1a113a5] (00/45) No match (V2 was not tested)
08 [e8517815] (00/45) No match (V2 was not tested)
09 [4dca493d] (00/44) No match (V2 was not tested)
10 [512dd943] (00/44) No match (V2 was not tested)
11 [79577184] (00/45) No match (V2 was not tested)
Offsetted by -92:
01 [6a2dc242] (03/45) Accurately ripped
02 [4c8cb236] (03/45) Accurately ripped
03 [49ace4b5] (03/45) Accurately ripped
04 [d8ad346a] (03/45) Accurately ripped
05 [08508dbd] (03/44) Accurately ripped
06 [ccf74064] (03/45) Accurately ripped
07 [fb79beb5] (03/45) Accurately ripped
08 [f4adcded] (03/45) Accurately ripped
09 [c057bbe9] (03/44) Accurately ripped
10 [fe9ab323] (00/44) No match (V2 was not tested)
11 [7892e36c] (03/45) Accurately ripped
Offsetted by -34:
01 [25d2680c] (00/45) No match (V2 was not tested)
02 [a450fa0e] (00/45) No match (V2 was not tested)
03 [e1f9e1d9] (00/45) No match (V2 was not tested)
04 [15a43d36] (00/45) No match (V2 was not tested)
05 [ba194137] (00/44) No match (V2 was not tested)
06 [859b4980] (00/45) No match (V2 was not tested)
07 [0f456bcd] (00/45) No match (V2 was not tested)
08 [7b4d8b71] (00/45) No match (V2 was not tested)
09 [0ffc744b] (00/44) No match (V2 was not tested)
10 [01de20f3] (00/44) No match (V2 was not tested)
11 [8980bf88] (00/45) No match (V2 was not tested)

Track Peak [ CRC32 ] [W/O NULL] [ LOG ]
– 91,0 [F3D7F7B9] [CC9C1F25]
01 90,9 [97987DDF] [975F89AD] CRC32
02 80,9 [103052C7] [B3C9DA47] CRC32
03 91,0 [21FDBF60] [247018AB] CRC32
04 83,6 [71E7C536] [19F4D0CB] CRC32
05 71,7 [A38794BE] [60ACFF13] CRC32
06 76,6 [E2A57805] [93861CE5] CRC32
07 90,6 [E9006BDD] [D1AB1FBF] CRC32
08 76,9 [E446A959] [2EC61659] CRC32
09 70,8 [ED64F4AC] [31BC0236] CRC32
10 77,1 [A340B40D] [5AFEE16E] CRC32
11 81,3 [BCB8F992] [A590F56E] CRC32

Thanks to PCzar