Robert Plant And The Strange Sensation - Mighty ReArranger (2005) [Japanese Ed.]

Posted By: Andi_Deris
Robert Plant And The Strange Sensation - Mighty ReArranger (2005) [Japanese Ed.]

Robert Plant And The Strange Sensation - Mighty ReArranger (2005) [Japanese Ed.]
EAC Rip | FLAC: Image+Cue+Log | 397 Mb | MP3 CBR 320 kbps | 175 Mb | Scans | 150 Mb | Time: 57:29
Genre: Hard Rock, Worldbeat | Label: BMG Japan | Cat.: BVCM-41034

Robert Plant, perhaps the greatest and one of the most recognizable voices in rock and roll delivers MIGHTY REARRANGER, an extraordinary accomplishment from one of the most inventive, consistently daring and talented figures in contemporary music. On the album, Plant is joined by his band The Strange Sensation who worked with him on 2002’s Grammy nominated DREAMLAND and have been vital in the development of Plant’s musical growth. The record is an inspired collection of new songs that are raw and bristling with energy but also rich in texture and detail. MIGHTY REARRANGER recalls the drive and passion of Robert Plant and Led Zeppelin’s strongest work taking the explosive riffs, compulsive guitar hooks and mind boggling arrangements that Zeppelin is known for and infusing the music with the modern influences of Portishead, Massive Attack and Roni Size. The result is a sonic tour de force and one of Robert’s finest offerings to date.

Robert Plant And The Strange Sensation - Mighty ReArranger (2005) [Japanese Ed.]

Robert Plant And The Strange Sensation - Mighty ReArranger (2005) [Japanese Ed.]




Track Listing

01. Anoter Tribe (3:17)
02. Shine It All Around (4:03)
03. Freedom Fries (2:53)
04. Tin Pan Valley (3:47)
05. All The Kings Horses (4:20)
06. The Enchanter (5:27)
07. Takamba (4:06)
08. Dancing In Heaven (4:26)
09. Somebody Knocking (3:47)
10. Red White And Blue (Bonus Track) (3:08)
11. Let The Four Winds Blow (4:52)
12. Mighty ReArranger (4:25)
13. Brother Ray/Shine It All Around (Girls Remix) (8:58)

Produced by Phil Johnstone, Robert Plant and Mark Stent

Musicians

• Robert Plant - vocals, harmonica
• Justin Adams - electric guitar, bendir, tehardant, lap steel guitar, bass guitar
• John Baggott - keyboards, electronica, Moog bass guitar
• Billy Fuller - electric and double bass
• Clive Deamer - drums, bendir
• Liam "Skin" Tyson - acoustic and electric guitar, lap steel guitar, bass guitar

Notes

Track 13 contains a hidden track 13.2. Track 13.1 lasts for 1:10 before a period of silence.
The track "Red White and Blue" is not listed on the back of the release.

Robert Plant And The Strange Sensation - Mighty ReArranger (2005) [Japanese Ed.]


Exact Audio Copy V1.0 beta 3 from 29. August 2011

EAC extraction logfile from 9. December 2013, 19:39

Robert Plant & The Strange Sensation / Mighty Rearranger

Used drive : PLEXTOR DVDR PX-L890SA Adapter: 1 ID: 0

Read mode : Secure
Utilize accurate stream : Yes
Defeat audio cache : Yes
Make use of C2 pointers : No

Read offset correction : 6
Overread into Lead-In and Lead-Out : No
Fill up missing offset samples with silence : Yes
Delete leading and trailing silent blocks : No
Null samples used in CRC calculations : Yes
Used interface : Native Win32 interface for Win NT & 2000

Used output format : User Defined Encoder
Selected bitrate : 768 kBit/s
Quality : High
Add ID3 tag : No
Command line compressor : G:\Program Files\Exact Audio Copy\FLAC\FLAC.EXE
Additional command line options : -V -8 -T "Date=%year%" -T "Genre=%genre%" %source%


TOC of the extracted CD

Track | Start | Length | Start sector | End sector
––––––––––––––––––––––––––––-
1 | 0:00.00 | 3:16.43 | 0 | 14742
2 | 3:16.43 | 4:03.15 | 14743 | 32982
3 | 7:19.58 | 2:52.70 | 32983 | 45952
4 | 10:12.53 | 3:46.42 | 45953 | 62944
5 | 13:59.20 | 4:19.63 | 62945 | 82432
6 | 18:19.08 | 5:27.22 | 82433 | 106979
7 | 23:46.30 | 4:05.58 | 106980 | 125412
8 | 27:52.13 | 4:25.50 | 125413 | 145337
9 | 32:17.63 | 3:46.40 | 145338 | 162327
10 | 36:04.28 | 3:08.12 | 162328 | 176439
11 | 39:12.40 | 4:52.05 | 176440 | 198344
12 | 44:04.45 | 4:25.03 | 198345 | 218222
13 | 48:29.48 | 8:58.02 | 218223 | 258574


Range status and errors

Selected range

Filename H:\MUSIC\2005. Robert Plant - Mighty Rearranger (BMG BVCM-41034, Japan)\Mighty Rearranger.wav

Peak level 98.0 %
Extraction speed 5.9 X
Range quality 100.0 %
Test CRC F1232B74
Copy CRC F1232B74
Copy OK

No errors occurred


AccurateRip summary

Track 1 accurately ripped (confidence 2) [0E5A6AA5] (AR v1)
Track 2 accurately ripped (confidence 2) [803F2236] (AR v1)
Track 3 accurately ripped (confidence 2) [826192D6] (AR v1)
Track 4 accurately ripped (confidence 2) [5162DF28] (AR v1)
Track 5 accurately ripped (confidence 2) [A211750B] (AR v1)
Track 6 accurately ripped (confidence 2) [6B88A7B2] (AR v1)
Track 7 accurately ripped (confidence 2) [F704B319] (AR v1)
Track 8 accurately ripped (confidence 2) [81603F61] (AR v1)
Track 9 accurately ripped (confidence 2) [8FB76CD5] (AR v1)
Track 10 accurately ripped (confidence 2) [73F3E5FA] (AR v1)
Track 11 accurately ripped (confidence 2) [DB3B9CBE] (AR v1)
Track 12 accurately ripped (confidence 2) [2E480998] (AR v1)
Track 13 accurately ripped (confidence 1) [95771D02] (AR v2)

All tracks accurately ripped

End of status report

–– CUETools DB Plugin V2.1.3

[CTDB TOCID: 6Go960FWtllhK51dDtIaVvZUCMc-] found, Submit result: 6Go960FWtllhK51dDtIaVvZUCMc- has been confirmed
[65b8037a] (2/2) Accurately ripped


==== Log checksum 87C6E4422F11AA01C773AC1B8DD63239F1708171B646C723D0F8C69179318504 ====


Many thanks to the original uploader: snakesharmer