Tags
Language
Tags

Pier Paolo Vincenzi - Carl Maria von Weber: Piano Sonatas Vol. 2 (2018)

Posted By: ArlegZ
Pier Paolo Vincenzi - Carl Maria von Weber: Piano Sonatas Vol. 2 (2018)

Pier Paolo Vincenzi - Carl Maria von Weber: Piano Sonatas Vol. 2 (2018)
EAC | FLAC | Image (Cue & Log) ~ 170 Mb | Total time: 61:00 | Scans included
Classical | Label: Meridian Records | # CDE 84649 | Recorded: 2017

This project has not been driven by the wish to add yet another complete recording of complete works to the catalogue. What it has been driven by is a real desire to redress the balance and to ensure Weber's compositions receive the attention they so richly deserve.
The attempt to reach a fair balance between spontaneity and freshness - without being superficial - and depth and density - avoiding any didactic temptation - was perhaps the most difficult task in interpreting these works.
I hope that in listening to these masterpieces, you can enjoy the same joy I felt in examining them in depth.
–Pier Paolo Vincenzi

Performer:
Pier Paolo Vincenzi, piano

Track List:
Carl Maria von Weber (1786-1826)
Piano Sonata No. 3 in D minor, Op.49
01. Allegro feroce
02. Andante con moto
03. Rondo - Presto
Piano Sonata No. 4 in E minor, Op. 70
04. Moderato
05. Menuetto - Presto vivace ed energico
06. Andante (quasi Allegretto) consolante
07. Finale: Prestissimo
09. Rondo brilliante Op. 62: Moderato e con grazia


Exact Audio Copy V1.5 from 20. February 2020

EAC extraction logfile from 18. June 2022, 11:14

Unknown Artist / Unknown Title

Used drive : hp DVDRW GUE1N Adapter: 1 ID: 0

Read mode : Secure
Utilize accurate stream : Yes
Defeat audio cache : No
Make use of C2 pointers : No

Read offset correction : 6
Overread into Lead-In and Lead-Out : No
Fill up missing offset samples with silence : Yes
Delete leading and trailing silent blocks : No
Null samples used in CRC calculations : Yes
Used interface : Native Win32 interface for Win NT & 2000

Used output format : Internal WAV Routines
Sample format : 44.100 Hz; 16 Bit; Stereo


TOC of the extracted CD

Track | Start | Length | Start sector | End sector
––––––––––––––––––––––––––––-
1 | 0:00.00 | 10:52.22 | 0 | 48921
2 | 10:52.22 | 8:41.51 | 48922 | 88047
3 | 19:33.73 | 7:13.41 | 88048 | 120563
4 | 26:47.39 | 10:45.28 | 120564 | 168966
5 | 37:32.67 | 4:34.17 | 168967 | 189533
6 | 42:07.09 | 6:53.08 | 189534 | 220516
7 | 49:00.17 | 4:46.60 | 220517 | 242026
8 | 53:47.02 | 6:43.26 | 242027 | 272277


Range status and errors

Selected range

Filename C:\Users\Utente\Music\Unknown Artist - Unknown Title.wav

Peak level 77.8 %
Extraction speed 3.1 X
Range quality 100.0 %
Test CRC EB4339A9
Copy CRC EB4339A9
Copy OK

No errors occurred


AccurateRip summary

Track 1 not present in database
Track 2 not present in database
Track 3 not present in database
Track 4 not present in database
Track 5 not present in database
Track 6 not present in database
Track 7 not present in database
Track 8 not present in database

None of the tracks are present in the AccurateRip database

End of status report

–– CUETools DB Plugin V2.1.6

[CTDB TOCID: q4_qFWikDkVibtXgvovh67KbOk4-] disk not present in database
Submit result: q4_qFWikDkVibtXgvovh67KbOk4- has been uploaded

Pier Paolo Vincenzi - Carl Maria von Weber: Piano Sonatas Vol. 2 (2018)

Thanks to the original releaser