Tags
Language
Tags
July 2024
Su Mo Tu We Th Fr Sa
30 1 2 3 4 5 6
7 8 9 10 11 12 13
14 15 16 17 18 19 20
21 22 23 24 25 26 27
28 29 30 31 1 2 3

Peter, Paul and Mary - Albums Collection 1962-1969 (12CD) Japanese Mini-LP Remastered Reissue 2012

Posted By: Designol
Peter, Paul and Mary - Albums Collection 1962-1969 (12CD) Japanese Mini-LP Remastered Reissue 2012

Peter, Paul and Mary - Albums Collection 1962-1969 (12CD)
Japanese Mini-LP Remastered Reissue 2012

EAC | FLAC | Image (Cue&Log) ~ 2.63 Gb | Mp3 (CBR320) ~ 1.02 Gb | Scans ~ 1.77 Gb
Label: Warner Music Japan | # WPCR-14591~14602 | Time: 07:31:11
Folk, Folk-Pop, Folk-Rock, Pop/Rock

Cardboard sleeve (mini LP) reissue from Peter, Paul and Mary featuring 2012 remastering, using the original master tape. Includes a description and lyrics. Part of a eleven-album Peter, Paul and Mary cardboard sleeve reissue series featuring albums "Peter, Paul And Mary I", "Moving", "In The Wind", "Peter, Paul And Mary in Concert", "A Song Will Rise", "See What Tomorrow Brings", "The Peter, Paul And Mary Album", "Album 1700", "In Japan", "Late Again", and "Peter, Paul And Mommy".

The most popular folk group of the 1960s, Peter, Paul and Mary in later decades have also proved themselves to be among the most durable music acts in history. Their longevity dwarfs that of the Weavers, while the fact that the trio continues to be associated with a major record label (Warner Bros.) after decades in the business sets them apart from rivals like the Kingston Trio and the Brothers Four. Then again, perhaps it isn't so surprising – Peter, Paul and Mary's roots run deeper than almost any other folk act one might care to name, while their appeal crosses audience lines that other acts couldn't (and can't) even approach.

Peter, Paul and Mary at Allmusic
Peter, Paul and Mary at Wiki




Peter, Paul and Mary - Albums Collection 1962-1969 (12CD) Japanese Mini-LP Remastered Reissue 2012

Peter, Paul and Mary - Peter, Paul And Mary (1962)
Japanese Mini-LP Remastered Reissue 2012

EAC | FLAC | Image (Cue&Log) ~ 208 Mb | Mp3 (CBR320) ~ 79 Mb | Scans ~ 124 Mb
Label: Warner Music Japan | # WPCR-14591 | Time: 00:34:30

The debut album by Peter, Paul & Mary is still one of the best albums to come out of the 1960s folk music revival, a beautifully harmonized collection of the best songs that the group knew, stirring in its sensibilities and its haunting melodies, crossing between folk, children's songs, and even gospel ("If I Had My Way"), and light-hearted just where it needed to be, with the song "Lemon Tree," which became their first hit single, and earnest where it had to be, particularly on "If I Had a Hammer." Ironically, the trio's version of the latter song, which Pete Seeger and Lee Hayes had written in the early days of the Weavers' history, helped push popular folk music in a more political direction at the time, but it was another song in their repertory, Seeger's "Where Have All the Flowers Gone," that also helped indirectly jump start that movement. The group had performed it in Boston at a concert attended by the Kingston Trio, who immediately returned to New York and cut their own version, which charted as a single early in 1962. Other highlights include "It's Raining" and "500 Miles." Peter, Paul & Mary, which hit the top spot on the album charts as part of a 185-week run, is the purest of the trio's albums, laced with innocent good spirits and an optimism that remains infectious even 40 years later. Along with the rest of the trio's early catalog, the album was remixed for CD from its original three-track master tape by Peter Yarrow in 1989, which resulted in some of the best sound on any Warner Bros. CDs of material dating from the early '60s.

Review by Bruce Eder, Allmusic.com


Tracklist:

01. Early In The Morning (01:39)
02. 500 Miles (02:50)
03. Sorrow (02:55)
04. This Train (02:06)
05. Bamboo (02:34)
06. It's Raining (04:27)
07. If I Had My Way (02:28)
08. Cruel War (03:32)
09. Lemon Tree (02:58)
10. If I Had A Hammer (02:11)
11. Autumn To May (02:52)
12. Where Have All The Flowers Gone (03:55)


Exact Audio Copy V1.0 beta 3 from 29. August 2011

EAC extraction logfile from 26. December 2012, 13:20

Peter, Paul & Mary / Peter, Paul And Mary

Used drive : PLEXTOR BD-R PX-B950SA Adapter: 6 ID: 0

Read mode : Secure
Utilize accurate stream : Yes
Defeat audio cache : Yes
Make use of C2 pointers : No

Read offset correction : 6
Overread into Lead-In and Lead-Out : No
Fill up missing offset samples with silence : Yes
Delete leading and trailing silent blocks : No
Null samples used in CRC calculations : Yes
Used interface : Native Win32 interface for Win NT & 2000

Used output format : Internal WAV Routines
Sample format : 44.100 Hz; 16 Bit; Stereo


TOC of the extracted CD

Track | Start | Length | Start sector | End sector
––––––––––––––––––––––––––––-
1 | 0:00.00 | 1:39.21 | 0 | 7445
2 | 1:39.21 | 2:50.21 | 7446 | 20216
3 | 4:29.42 | 2:55.23 | 20217 | 33364
4 | 7:24.65 | 2:06.33 | 33365 | 42847
5 | 9:31.23 | 2:34.01 | 42848 | 54398
6 | 12:05.24 | 4:27.06 | 54399 | 74429
7 | 16:32.30 | 2:28.09 | 74430 | 85538
8 | 19:00.39 | 3:32.29 | 85539 | 101467
9 | 22:32.68 | 2:58.59 | 101468 | 114876
10 | 25:31.52 | 2:11.15 | 114877 | 124716
11 | 27:42.67 | 2:52.12 | 124717 | 137628
12 | 30:35.04 | 3:55.49 | 137629 | 155302


Range status and errors

Selected range

Filename C:\Users\Meijin\Desktop\Rip by ALLexxess\Peter, Paul & Mary\1962 Peter, Paul And Mary (Mini LP CD Warner Music Japan 2012)\Peter, Paul & Mary - Peter, Paul And Mary.wav

Peak level 100.0 %
Extraction speed 6.4 X
Range quality 99.9 %
Test CRC 98E560A5
Copy CRC 98E560A5
Copy OK

No errors occurred


AccurateRip summary

Track 1 not present in database
Track 2 not present in database
Track 3 not present in database
Track 4 not present in database
Track 5 not present in database
Track 6 not present in database
Track 7 not present in database
Track 8 not present in database
Track 9 not present in database
Track 10 not present in database
Track 11 not present in database
Track 12 not present in database

None of the tracks are present in the AccurateRip database

End of status report

==== Log checksum 8B9A92AE39A0065F31DDEF96EC06B7F61479CAE553C17261FBF4001AD53A0B1D ====




Peter, Paul and Mary - Albums Collection 1962-1969 (12CD) Japanese Mini-LP Remastered Reissue 2012

Peter, Paul and Mary - Moving (1963)
Japanese Mini-LP Remastered Reissue 2012

EAC | FLAC | Image (Cue&Log) ~ 209 Mb | Mp3 (CBR320) ~ 80 Mb | Scans ~ 117 Mb
Label: Warner Music Japan | # WPCR-14592 | Time: 00:35:10

The trio's second album is a little less distinctive than its predecessor, which doesn't mean that it isn't a beautiful record – just less obviously compelling in its melodies, and perhaps slightly less optimistic in mood. Having expended some of their best material on their debut, the trio reached further for songs here, including the Paul Stookey co-authored "Big Boat" and Mike Settle's "Settle Down (Goin' Down That Highway)," neither of which clicked as singles, despite rousing vocals on both and some distinctive guitar virtuosity on the former. The group once again reached back to the 1940s activist folk song tradition with Woody Guthrie's "This Land Is Your Land," but the track that everyone ended up knowing from Moving was from a very different corner of the folk tradition – "Puff, the Magic Dragon" was introduced here and rose to number one as a single (and even made the Top 10 in the R&B charts), helping to propel Moving to number two as part of a 99-week chart run; and in those days, it was taken as a beautiful and gentle children's song that adults could enjoy, the myth of the song's supposed "drug" message not appearing until 1966. Other highlights include the haunting "Pretty Mary" and the startlingly intricate "A 'Soalin'," which became a highlight of their live act as well. Peter Yarrow remixed this album for reissue on CD in 1989, along with much of the rest of the group's classic Warner Bros. catalog, which has resulted in spectacular clarity and immediacy.

Review by Bruce Eder, Allmusic.com


Tracklist:

01. Settle Down (Goin' Down That Highway) (01:50)
02. Gone The Rainbow (02:43)
03. Flora (03:11)
04. Pretty Mary (02:02)
05. Puff, The Magic Dragon (03:29)
06. This Land Is Your Land (02:27)
07. Man Come Into Egypt (02:20)
08. Old Goat (03:50)
09. Tiny Sparrow (03:35)
10. Big Boat (02:44)
11. Morning Train (03:38)
12. A'Soalin' (03:15)


Exact Audio Copy V1.0 beta 3 from 29. August 2011

EAC extraction logfile from 26. December 2012, 12:51

Peter, Paul & Mary / (Moving)

Used drive : PLEXTOR BD-R PX-B950SA Adapter: 6 ID: 0

Read mode : Secure
Utilize accurate stream : Yes
Defeat audio cache : Yes
Make use of C2 pointers : No

Read offset correction : 6
Overread into Lead-In and Lead-Out : No
Fill up missing offset samples with silence : Yes
Delete leading and trailing silent blocks : No
Null samples used in CRC calculations : Yes
Used interface : Native Win32 interface for Win NT & 2000

Used output format : Internal WAV Routines
Sample format : 44.100 Hz; 16 Bit; Stereo


TOC of the extracted CD

Track | Start | Length | Start sector | End sector
––––––––––––––––––––––––––––-
1 | 0:00.00 | 1:50.22 | 0 | 8271
2 | 1:50.22 | 2:43.40 | 8272 | 20536
3 | 4:33.62 | 3:11.33 | 20537 | 34894
4 | 7:45.20 | 2:02.07 | 34895 | 44051
5 | 9:47.27 | 3:29.60 | 44052 | 59786
6 | 13:17.12 | 2:27.08 | 59787 | 70819
7 | 15:44.20 | 2:20.29 | 70820 | 81348
8 | 18:04.49 | 3:50.74 | 81349 | 98672
9 | 21:55.48 | 3:35.12 | 98673 | 114809
10 | 25:30.60 | 2:44.44 | 114810 | 127153
11 | 28:15.29 | 3:38.71 | 127154 | 143574
12 | 31:54.25 | 3:15.65 | 143575 | 158264


Range status and errors

Selected range

Filename C:\Users\Meijin\Desktop\Rip by ALLexxess\Peter, Paul & Mary\1963 (Moving) (Mini LP CD Warner Music Japan 2012)\Peter, Paul & Mary - (Moving).wav

Peak level 100.0 %
Extraction speed 6.4 X
Range quality 99.9 %
Test CRC 067EDAEE
Copy CRC 067EDAEE
Copy OK

No errors occurred


AccurateRip summary

Track 1 not present in database
Track 2 not present in database
Track 3 not present in database
Track 4 not present in database
Track 5 not present in database
Track 6 not present in database
Track 7 not present in database
Track 8 not present in database
Track 9 not present in database
Track 10 not present in database
Track 11 not present in database
Track 12 not present in database

None of the tracks are present in the AccurateRip database

End of status report

==== Log checksum FFFC1350203FDC49771F59C9FA2BE865939651B0A0B8175C871667AAE6A1D767 ====

foobar2000 1.2.1 / Dynamic Range Meter 1.1.1
log date: 2013-01-22 16:59:49

––––––––––––––––––––––––––––––––––––––––
Analyzed: Peter, Paul & Mary / (Moving)
––––––––––––––––––––––––––––––––––––––––

DR Peak RMS Duration Track
––––––––––––––––––––––––––––––––––––––––
DR9 0.00 dB -11.71 dB 1:50 01-Settle Down (Goin' Down That Highway)
DR11 0.00 dB -13.01 dB 2:44 02-Gone The Rainbow
DR12 0.00 dB -14.45 dB 3:11 03-Flora
DR9 -0.67 dB -14.50 dB 2:02 04-Pretty Mary
DR12 -0.89 dB -16.66 dB 3:30 05-Puff, The Magic Dragon
DR12 0.00 dB -13.72 dB 2:27 06-This Land Is Your Land
DR10 0.00 dB -12.75 dB 2:20 07-Man Come Into Egypt
DR11 0.00 dB -14.11 dB 3:51 08-Old Goat
DR10 0.00 dB -13.19 dB 3:35 09-Tiny Sparrow
DR8 0.00 dB -9.99 dB 2:45 10-Big Boat
DR10 0.00 dB -13.55 dB 3:39 11-Morning Train
DR11 0.00 dB -13.48 dB 3:16 12-A'Soalin'
––––––––––––––––––––––––––––––––––––––––

Number of tracks: 12
Official DR value: DR10

Samplerate: 44100 Hz
Channels: 2
Bits per sample: 16
Bitrate: 832 kbps
Codec: FLAC
================================================================================




Peter, Paul and Mary - Albums Collection 1962-1969 (12CD) Japanese Mini-LP Remastered Reissue 2012

Peter, Paul and Mary - In The Wind (1963)
Japanese Mini-LP Remastered Reissue 2012

EAC | FLAC | Image (Cue&Log) ~ 232 Mb | Mp3 (CBR320) ~ 87 Mb | Scans ~ 127 Mb
Label: Warner Music Japan | # WPCR-14593 | Time: 00:38:12

Their third recording was one of the group's stronger outings, even if it confirms their status as folk popularizers rather than musical innovators. In particular, this record was essential to boosting the profile of Bob Dylan, including their huge hit cover of "Blowin' in the Wind," their Top Ten version of "Don't Think Twice, It's All Right," and the bluesy "Quit Your Lowdown Ways," which Dylan himself would not release in the '60s (although his version finally came out on The Bootleg Series). "Stewball," "All My Trials," and "Tell It on the Mountain" were other highlights of their early repertoire, and the dramatic, strident, but inspirational "Very Last Day" is one of the best original tunes the group ever did.

Review by Richie Unterberger, Allmusic.com


Tracklist:

01. Very Last Day (02:34)
02. Hush-A-Bye (02:22)
03. Long Chain On (04:38)
04. Rocky Road (03:41)
05. Tell It On The Mountain (02:57)
06. Polly Von (04:14)
07. Stewball (03:13)
08. All My Trials (03:19)
09. Don't Think Twice, It's Alright (03:17)
10. Freight Train (02:48)
11. Quit Your Low Down Ways (02:07)
12. Blowin' In The Wind (02:57)


Exact Audio Copy V1.0 beta 3 from 29. August 2011

EAC extraction logfile from 26. December 2012, 12:27

Peter, Paul & Mary / In The Wind

Used drive : PLEXTOR BD-R PX-B950SA Adapter: 6 ID: 0

Read mode : Secure
Utilize accurate stream : Yes
Defeat audio cache : Yes
Make use of C2 pointers : No

Read offset correction : 6
Overread into Lead-In and Lead-Out : No
Fill up missing offset samples with silence : Yes
Delete leading and trailing silent blocks : No
Null samples used in CRC calculations : Yes
Used interface : Native Win32 interface for Win NT & 2000

Used output format : Internal WAV Routines
Sample format : 44.100 Hz; 16 Bit; Stereo


TOC of the extracted CD

Track | Start | Length | Start sector | End sector
––––––––––––––––––––––––––––-
1 | 0:00.00 | 2:34.56 | 0 | 11605
2 | 2:34.56 | 2:22.66 | 11606 | 22321
3 | 4:57.47 | 4:38.18 | 22322 | 43189
4 | 9:35.65 | 3:41.36 | 43190 | 59800
5 | 13:17.26 | 2:57.60 | 59801 | 73135
6 | 16:15.11 | 4:14.28 | 73136 | 92213
7 | 20:29.39 | 3:13.22 | 92214 | 106710
8 | 23:42.61 | 3:19.45 | 106711 | 121680
9 | 27:02.31 | 3:17.13 | 121681 | 136468
10 | 30:19.44 | 2:48.03 | 136469 | 149071
11 | 33:07.47 | 2:07.16 | 149072 | 158612
12 | 35:14.63 | 2:57.61 | 158613 | 171948


Range status and errors

Selected range

Filename C:\Users\Meijin\Desktop\Rip by ALLexxess\Peter, Paul & Mary\1963 In The Wind (Mini LP CD Warner Music Japan 2012)\Peter, Paul & Mary - In The Wind.wav

Peak level 100.0 %
Extraction speed 6.7 X
Range quality 100.0 %
Test CRC C13CDCE5
Copy CRC C13CDCE5
Copy OK

No errors occurred


AccurateRip summary

Track 1 not present in database
Track 2 not present in database
Track 3 not present in database
Track 4 not present in database
Track 5 not present in database
Track 6 not present in database
Track 7 not present in database
Track 8 not present in database
Track 9 not present in database
Track 10 not present in database
Track 11 not present in database
Track 12 not present in database

None of the tracks are present in the AccurateRip database

End of status report

==== Log checksum 6A09FCFB3D7C872F5FAD08D56EBDF3380277E829A9119249A035385DD5677F9F ====

foobar2000 1.2.1 / Dynamic Range Meter 1.1.1
log date: 2013-01-22 17:00:26

––––––––––––––––––––––––––––––––––––––––
Analyzed: Peter, Paul & Mary / In The Wind
––––––––––––––––––––––––––––––––––––––––

DR Peak RMS Duration Track
––––––––––––––––––––––––––––––––––––––––
DR10 0.00 dB -12.16 dB 2:35 01-Very Last Day
DR10 -2.65 dB -16.49 dB 2:23 02-Hush-A-Bye
DR10 0.00 dB -11.84 dB 4:38 03-Long Chain On
DR12 0.00 dB -14.95 dB 3:41 04-Rocky Road
DR8 0.00 dB -10.47 dB 2:58 05-Tell It On The Mountain
DR12 0.00 dB -15.17 dB 4:14 06-Polly Von
DR11 -0.55 dB -13.90 dB 3:13 07-Stewball
DR12 0.00 dB -15.59 dB 3:20 08-All My Trials
DR11 0.00 dB -15.37 dB 3:17 09-Don't Think Twice, It's Alright
DR10 0.00 dB -12.98 dB 2:48 10-Freight Train
DR9 0.00 dB -12.26 dB 2:07 11-Quit Your Low Down Ways
DR11 0.00 dB -14.38 dB 2:58 12-Blowin' In The Wind
––––––––––––––––––––––––––––––––––––––––

Number of tracks: 12
Official DR value: DR11

Samplerate: 44100 Hz
Channels: 2
Bits per sample: 16
Bitrate: 849 kbps
Codec: FLAC
================================================================================




Peter, Paul and Mary - Albums Collection 1962-1969 (12CD) Japanese Mini-LP Remastered Reissue 2012

Peter, Paul and Mary - In Concert (1964) 2CDs
Japanese Mini-LP Remastered Reissue 2012

EAC | FLAC | Image (Cue&Log) ~ 491 Mb | Mp3 (CBR320) ~ 190 Mb | Scans ~ 85 Mb
Label: Warner Music Japan | # WPCR-14594~14595 | Time: 01:23:21

This double album opens with a then-new Bob Dylan song, "The Times They Are A' Changin'," and closes with the best-known song ever written by Pete Seeger and Lee Hayes, "If I Had a Hammer." That seems to sum up Peter, Paul & Mary, but In Concert offers a lot more than that. The surprises include vignettes in blues and gospel, and, most notably, the group's humorous digressions. Peter, Paul & Mary spared few opportunities for a good laugh on stage, beginning with the introduction to "A' Soalin'," which shows off a lightheartedness that was an essential part of who they were, even as it leads into an exquisitely sung round-like piece that should have found its way into the repertory of Steeleye Span. "Blue" gives the trio a chance to play around with rock & roll, from doo wop to British Invasion, through the song "Old Blue" (satirizing folk music purists at the same time), and Paul Stookey adds his own sound effect embellishments to Woody Guthrie's "Car-Car." The solo spots are also worthwhile, particularly Peter Yarrow's introspective version of "Le Deserteur," followed by his dazzling, rousing sing-along on "Oh, Rock My Soul"; and Mary Travers' rendition of "Single Girl," a low-key proto-feminist song. The group's rendition of "It's Raining" achieves an exquisite mix of gossamer textured harmonizing and thematic innocence, and their rendition of the Reverend Gary Davis' "If I Had My Way" is a bracing re-interpretation for three interwoven voices. Finally, the version of "If I Had a Hammer" that closes this album is superior to their hit single of the same song. The album was remixed digitally from the three-track master by Peter Yarrow for the CD release, which results in very vivid textures and very fine detail.

Review by Bruce Eder, Allmusic.com


Tracklist:

CD1:

01. The Times They Are A-Changin' (03:22)
02. A'Soalin' (05:28)
03. 500 Miles (03:03)
04. Blue (04:12)
05. Three Ravens (03:56)
06. One Kind Favor (03:14)
07. Blowin' In The Wind (03:39)
08. Car-Car (05:07)
09. Puff (The Magic Dragon) (06:22)
10. Jesus Met The Woman (04:36)

CD2:

01. Le Deserteur (04:38)
02. Oh, Rock My Soul (05:50)
03. Paultalk (12:41)
04. Single Girl (02:33)
05. There Is A Ship (03:04)
06. It's Raining (05:27)
07. If I Had My Way (03:15)
08. If I Had A Hammer (02:45)


Exact Audio Copy V1.0 beta 3 from 29. August 2011

EAC extraction logfile from 25. December 2012, 22:31

Peter, Paul & Mary / In Concert CD1

Used drive : PLEXTOR BD-R PX-B950SA Adapter: 6 ID: 0

Read mode : Secure
Utilize accurate stream : Yes
Defeat audio cache : Yes
Make use of C2 pointers : No

Read offset correction : 6
Overread into Lead-In and Lead-Out : No
Fill up missing offset samples with silence : Yes
Delete leading and trailing silent blocks : No
Null samples used in CRC calculations : Yes
Used interface : Native Win32 interface for Win NT & 2000

Used output format : Internal WAV Routines
Sample format : 44.100 Hz; 16 Bit; Stereo


TOC of the extracted CD

Track | Start | Length | Start sector | End sector
––––––––––––––––––––––––––––-
1 | 0:00.00 | 3:22.16 | 0 | 15165
2 | 3:22.16 | 5:28.18 | 15166 | 39783
3 | 8:50.34 | 3:03.21 | 39784 | 53529
4 | 11:53.55 | 4:12.57 | 53530 | 72486
5 | 16:06.37 | 3:56.23 | 72487 | 90209
6 | 20:02.60 | 3:14.02 | 90210 | 104761
7 | 23:16.62 | 3:39.18 | 104762 | 121204
8 | 26:56.05 | 5:07.43 | 121205 | 144272
9 | 32:03.48 | 6:22.35 | 144273 | 172957
10 | 38:26.08 | 4:36.68 | 172958 | 193725


Range status and errors

Selected range

Filename C:\Users\Meijin\Desktop\Rip by ALLexxess\Peter, Paul & Mary\1964 In Concert (2 Mini LP CD Set Warner Music Japan 2012)\CD1\Peter, Paul & Mary - In Concert CD1.wav

Peak level 100.0 %
Extraction speed 6.9 X
Range quality 100.0 %
Test CRC 68676CC6
Copy CRC 68676CC6
Copy OK

No errors occurred


AccurateRip summary

Track 1 not present in database
Track 2 not present in database
Track 3 not present in database
Track 4 not present in database
Track 5 not present in database
Track 6 not present in database
Track 7 not present in database
Track 8 not present in database
Track 9 not present in database
Track 10 not present in database

None of the tracks are present in the AccurateRip database

End of status report

==== Log checksum 272E1C9ECB21001CBB7B671828617A83ED64BDC254594A83D0A93AF8D72FAF96 ====

foobar2000 1.2.1 / Dynamic Range Meter 1.1.1
log date: 2013-01-22 17:05:53

––––––––––––––––––––––––––––––––––––––––
Analyzed: Peter, Paul & Mary / In Concert CD1
––––––––––––––––––––––––––––––––––––––––

DR Peak RMS Duration Track
––––––––––––––––––––––––––––––––––––––––
DR9 0.00 dB -10.92 dB 3:22 01-The Times They Are A-Changin'
DR10 0.00 dB -13.95 dB 5:28 02-A'Soalin'
DR10 0.00 dB -12.95 dB 3:03 03-500 Miles
DR9 0.00 dB -12.73 dB 4:13 04-Blue
DR10 0.00 dB -12.84 dB 3:56 05-Three Ravens
DR11 0.00 dB -14.33 dB 3:14 06-One Kind Favor
DR8 0.00 dB -11.81 dB 3:39 07-Blowin' In The Wind
DR9 0.00 dB -14.13 dB 5:08 08-Car-Car
DR9 0.00 dB -12.88 dB 6:22 09-Puff (The Magic Dragon)
DR8 0.00 dB -10.66 dB 4:37 10-Jesus Met The Woman
––––––––––––––––––––––––––––––––––––––––

Number of tracks: 10
Official DR value: DR9

Samplerate: 44100 Hz
Channels: 2
Bits per sample: 16
Bitrate: 830 kbps
Codec: FLAC
================================================================================

Exact Audio Copy V1.0 beta 3 from 29. August 2011

EAC extraction logfile from 25. December 2012, 22:02

Peter, Paul & Mary / In Concert CD2

Used drive : PLEXTOR BD-R PX-B950SA Adapter: 6 ID: 0

Read mode : Secure
Utilize accurate stream : Yes
Defeat audio cache : Yes
Make use of C2 pointers : No

Read offset correction : 6
Overread into Lead-In and Lead-Out : No
Fill up missing offset samples with silence : Yes
Delete leading and trailing silent blocks : No
Null samples used in CRC calculations : Yes
Used interface : Native Win32 interface for Win NT & 2000

Used output format : Internal WAV Routines
Sample format : 44.100 Hz; 16 Bit; Stereo


TOC of the extracted CD

Track | Start | Length | Start sector | End sector
––––––––––––––––––––––––––––-
1 | 0:00.00 | 4:38.60 | 0 | 20909
2 | 4:38.60 | 5:50.51 | 20910 | 47210
3 | 10:29.36 | 12:41.60 | 47211 | 104345
4 | 23:11.21 | 2:33.70 | 104346 | 115890
5 | 25:45.16 | 3:04.74 | 115891 | 129764
6 | 28:50.15 | 5:27.36 | 129765 | 154325
7 | 34:17.51 | 3:15.00 | 154326 | 168950
8 | 37:32.51 | 2:45.03 | 168951 | 181328


Range status and errors

Selected range

Filename C:\Users\Meijin\Desktop\Rip by ALLexxess\Peter, Paul & Mary\1964 In Concert (2 Mini LP CD Set Warner Music Japan 2012)\CD2\Peter, Paul & Mary - In Concert CD2.wav

Peak level 100.0 %
Extraction speed 6.8 X
Range quality 100.0 %
Test CRC DE0C6546
Copy CRC DE0C6546
Copy OK

No errors occurred


AccurateRip summary

Track 1 not present in database
Track 2 not present in database
Track 3 not present in database
Track 4 not present in database
Track 5 not present in database
Track 6 not present in database
Track 7 not present in database
Track 8 not present in database

None of the tracks are present in the AccurateRip database

End of status report

==== Log checksum FCEB49C27309AA37742DB1DBE461678DA0ED3DE3B9932E40DF40FD963640A6FF ====

foobar2000 1.2.1 / Dynamic Range Meter 1.1.1
log date: 2013-01-22 17:06:39

––––––––––––––––––––––––––––––––––––––––
Analyzed: Peter, Paul & Mary / In Concert CD2
––––––––––––––––––––––––––––––––––––––––

DR Peak RMS Duration Track
––––––––––––––––––––––––––––––––––––––––
DR11 0.00 dB -15.17 dB 4:39 01-Le Deserteur
DR8 0.00 dB -11.38 dB 5:51 02-Oh, Rock My Soul
DR8 0.00 dB -11.86 dB 12:42 03-Paultalk
DR11 0.00 dB -14.46 dB 2:34 04-Single Girl
DR11 0.00 dB -14.97 dB 3:05 05-There Is A Ship
DR10 0.00 dB -13.70 dB 5:27 06-It's Raining
DR8 0.00 dB -11.01 dB 3:15 07-If I Had My Way
DR8 0.00 dB -9.85 dB 2:45 08-If I Had A Hammer
––––––––––––––––––––––––––––––––––––––––

Number of tracks: 8
Official DR value: DR9

Samplerate: 44100 Hz
Channels: 2
Bits per sample: 16
Bitrate: 821 kbps
Codec: FLAC
================================================================================




Peter, Paul and Mary - Albums Collection 1962-1969 (12CD) Japanese Mini-LP Remastered Reissue 2012

Peter, Paul and Mary - A Song Will Rise (1965)
Japanese Mini-LP Remastered Reissue 2012

EAC | FLAC | Image (Cue&Log) ~ 220 Mb | Mp3 (CBR320) ~ 86 Mb | Scans ~ 127 Mb
Label: Warner Music Japan | # WPCR-14596 | Time: 00:37:39

By their fifth album, Peter, Paul & Mary had fallen into a consistency of approach that could be viewed as either dependable or predictable. This had the usual assortment of traditional songs ("Motherless Child," "The Cuckoo"), songs that had first gained an audience during prior folk revivals ("Wasn't That a Time"), a bit of original material, mediocre blues ("San Francisco Bay Blues" and Paul Stookey's "Talkin' Candy Bar Blues"), and a Bob Dylan song ("When the Ship Comes In"). The biggest find, material-wise, was the Gordon Lightfoot composition "For Lovin' Me" (a #30 hit single), which gave the Canadian songwriter (who had yet to release his first United Artists LP) some of his first wide exposure in the United States. Overall, the trio's sound and balance of repertoire had still changed little, if at all, from their debut. They were at their best on folk tunes with sad melodies and harmonies, as on "Jimmy Whalen" and "Ballad of Spring Hill."

Review by Richie Unterberger, Allmusic.com


Tracklist:

01. When The Ship Comes In (02:38)
02. Jimmy Whalen (02:42)
03. Come And Go With Me (03:07)
04. Gilgarra Mountain (06:04)
05. Ballad Of Spring Hill (Spring Hill Disaster) (03:13)
06. Motherless Child (03:42)
07. Wasn't That A Time (02:32)
08. Monday Morning (03:21)
09. The Cuckoo (02:21)
10. San Fransisco Bay Blues (03:05)
11. Talkin' Candy Bar Blues (02:38)
12. For Lovin' Me (02:09)


Exact Audio Copy V1.0 beta 3 from 29. August 2011

EAC extraction logfile from 25. December 2012, 21:34

Peter, Paul & Mary / A Song Will Rise

Used drive : PLEXTOR BD-R PX-B950SA Adapter: 6 ID: 0

Read mode : Secure
Utilize accurate stream : Yes
Defeat audio cache : Yes
Make use of C2 pointers : No

Read offset correction : 6
Overread into Lead-In and Lead-Out : No
Fill up missing offset samples with silence : Yes
Delete leading and trailing silent blocks : No
Null samples used in CRC calculations : Yes
Used interface : Native Win32 interface for Win NT & 2000

Used output format : Internal WAV Routines
Sample format : 44.100 Hz; 16 Bit; Stereo


TOC of the extracted CD

Track | Start | Length | Start sector | End sector
––––––––––––––––––––––––––––-
1 | 0:00.00 | 2:38.33 | 0 | 11882
2 | 2:38.33 | 2:42.00 | 11883 | 24032
3 | 5:20.33 | 3:07.69 | 24033 | 38126
4 | 8:28.27 | 6:04.38 | 38127 | 65464
5 | 14:32.65 | 3:13.59 | 65465 | 79998
6 | 17:46.49 | 3:42.12 | 79999 | 96660
7 | 21:28.61 | 2:32.37 | 96661 | 108097
8 | 24:01.23 | 3:21.69 | 108098 | 123241
9 | 27:23.17 | 2:21.68 | 123242 | 133884
10 | 29:45.10 | 3:05.41 | 133885 | 147800
11 | 32:50.51 | 2:38.26 | 147801 | 159676
12 | 35:29.02 | 2:09.61 | 159677 | 169412


Range status and errors

Selected range

Filename C:\Users\Meijin\Desktop\Rip by ALLexxess\Peter, Paul & Mary\1965 A Song Will Rise (Mini LP CD Warner Music Japan 2012)\Peter, Paul & Mary - A Song Will Rise.wav

Peak level 100.0 %
Extraction speed 6.7 X
Range quality 100.0 %
Test CRC A8CD796E
Copy CRC A8CD796E
Copy OK

No errors occurred


AccurateRip summary

Track 1 not present in database
Track 2 not present in database
Track 3 not present in database
Track 4 not present in database
Track 5 not present in database
Track 6 not present in database
Track 7 not present in database
Track 8 not present in database
Track 9 not present in database
Track 10 not present in database
Track 11 not present in database
Track 12 not present in database

None of the tracks are present in the AccurateRip database

End of status report

==== Log checksum A2E30E08136E9B67273DDA486264AD5974460E3B26DC93131C15E61BA5C25FA3 ====

foobar2000 1.2.1 / Dynamic Range Meter 1.1.1
log date: 2013-01-22 17:00:59

––––––––––––––––––––––––––––––––––––––––
Analyzed: Peter, Paul & Mary / A Song Will Rise
––––––––––––––––––––––––––––––––––––––––

DR Peak RMS Duration Track
––––––––––––––––––––––––––––––––––––––––
DR11 0.00 dB -12.77 dB 2:38 01-When The Ship Comes In
DR12 0.00 dB -14.90 dB 2:42 02-Jimmy Whalen
DR11 0.00 dB -13.10 dB 3:08 03-Come And Go With Me
DR14 -0.32 dB -17.19 dB 6:05 04-Gilgarra Mountain
DR12 0.00 dB -16.82 dB 3:14 05-Ballad Of Spring Hill (Spring Hill Disaster)
DR14 -1.57 dB -17.29 dB 3:42 06-Motherless Child
DR10 0.00 dB -12.71 dB 2:32 07-Wasn't That A Time
DR14 0.00 dB -18.57 dB 3:22 08-Monday Morning
DR12 0.00 dB -13.96 dB 2:22 09-The Cuckoo
DR9 -0.73 dB -12.31 dB 3:06 10-San Fransisco Bay Blues
DR13 0.00 dB -15.44 dB 2:38 11-Talkin' Candy Bar Blues
DR10 0.00 dB -13.72 dB 2:10 12-For Lovin' Me
––––––––––––––––––––––––––––––––––––––––

Number of tracks: 12
Official DR value: DR12

Samplerate: 44100 Hz
Channels: 2
Bits per sample: 16
Bitrate: 817 kbps
Codec: FLAC
================================================================================




Peter, Paul and Mary - Albums Collection 1962-1969 (12CD) Japanese Mini-LP Remastered Reissue 2012

Peter, Paul and Mary - See What Tomorrow Brings (1965)
Japanese Mini-LP Remastered Reissue 2012

EAC | FLAC | Image (Cue&Log) ~ 192 Mb | Mp3 (CBR320) ~ 77 Mb | Scans ~ 116 Mb
Label: Warner Music Japan | # WPCR-14597 | Time: 00:33:52

See What Tomorrow Brings is a strong album that plays to the strengths of Peter, Paul, & Mary. There is a good variety of material within their folk format, and a nice esprit de corps that pervades the recording. All members sing lead, which brings a good balance to the proceedings. Worth noting are two early versions of Gordon Lightfoot's "Early Morning Rain" and Ewan MacColl's "The First Time Ever I Saw Your Face." Although there isn't one number that shouts instant classic, all cuts have something to recommend them. Lest we forget the trio's idealism, the opening song "If I Were Free" speaks to the hope of wars ending and the beginning of peaceful times. "Jane, Jane" and "Because All Men Are Brothers" show the group's gospel roots, while "The Rising of the Moon," an intense cut, has Irish music as its base. "Tryin' to Win" and "On a Desert Island" manifests the humorous side of the trio as they sing about real and imagined love relationships. Throughout the album, arrangements are tasteful, clean, and never obtrusive to the songs presented. All in all, this is a very good album that has variety, strong material, tasteful production, and a fine spirit that gives it a winning edge.

Review by Michael Ofjord, Allmusic.com


Tracklist:

01. If I Were Free (02:48)
02. Betty & Dupree (03:15)
03. The Rising Of The Moon (03:37)
04. Early Mornin' Rain (03:08)
05. Jane, Jane (02:55)
06. Because All Men Are Brothers (02:14)
07. Hangman (02:51)
08. Brother, (Buddy) Can You Spare A Dime? (02:34)
09. The First Time Ever I Saw Your Face (03:09)
10. Tryin' To Win (02:38)
11. On A Desert Island (With You In My Dreams) (01:54)
12. The Last Thing On My Mind (02:43)


Exact Audio Copy V1.0 beta 3 from 29. August 2011

EAC extraction logfile from 25. December 2012, 21:10

Peter, Paul & Mary / See What Tomorrow Brings

Used drive : PLEXTOR BD-R PX-B950SA Adapter: 6 ID: 0

Read mode : Secure
Utilize accurate stream : Yes
Defeat audio cache : Yes
Make use of C2 pointers : No

Read offset correction : 6
Overread into Lead-In and Lead-Out : No
Fill up missing offset samples with silence : Yes
Delete leading and trailing silent blocks : No
Null samples used in CRC calculations : Yes
Used interface : Native Win32 interface for Win NT & 2000

Used output format : Internal WAV Routines
Sample format : 44.100 Hz; 16 Bit; Stereo


TOC of the extracted CD

Track | Start | Length | Start sector | End sector
––––––––––––––––––––––––––––-
1 | 0:00.00 | 2:48.46 | 0 | 12645
2 | 2:48.46 | 3:15.16 | 12646 | 27286
3 | 6:03.62 | 3:37.56 | 27287 | 43617
4 | 9:41.43 | 3:08.64 | 43618 | 57781
5 | 12:50.32 | 2:55.17 | 57782 | 70923
6 | 15:45.49 | 2:14.05 | 70924 | 80978
7 | 17:59.54 | 2:51.40 | 80979 | 93843
8 | 20:51.19 | 2:34.16 | 93844 | 105409
9 | 23:25.35 | 3:09.27 | 105410 | 119611
10 | 26:34.62 | 2:38.72 | 119612 | 131533
11 | 29:13.59 | 1:54.21 | 131534 | 140104
12 | 31:08.05 | 2:43.25 | 140105 | 152354


Range status and errors

Selected range

Filename C:\Users\Meijin\Desktop\Rip by ALLexxess\Peter, Paul & Mary\1965 See What Tomorrow Brings (Mini LP CD Warner Music Japan 2012)\Peter, Paul & Mary - See What Tomorrow Brings.wav

Peak level 100.0 %
Extraction speed 2.9 X
Range quality 100.0 %
Test CRC 0C96ABB0
Copy CRC 0C96ABB0
Copy OK

No errors occurred


AccurateRip summary

Track 1 not present in database
Track 2 not present in database
Track 3 not present in database
Track 4 not present in database
Track 5 not present in database
Track 6 not present in database
Track 7 not present in database
Track 8 not present in database
Track 9 not present in database
Track 10 not present in database
Track 11 not present in database
Track 12 not present in database

None of the tracks are present in the AccurateRip database

End of status report

==== Log checksum 4441EBBC1FA2018684E2335DC2F869CD68C4A5A70E181467B91829994345122A ====

foobar2000 1.2.1 / Dynamic Range Meter 1.1.1
log date: 2013-01-22 17:01:47

––––––––––––––––––––––––––––––––––––––––
Analyzed: Peter, Paul & Mary / See What Tomorrow Brings
––––––––––––––––––––––––––––––––––––––––

DR Peak RMS Duration Track
––––––––––––––––––––––––––––––––––––––––
DR11 0.00 dB -14.26 dB 2:49 01-If I Were Free
DR11 0.00 dB -13.33 dB 3:15 02-Betty & Dupree
DR11 0.00 dB -15.29 dB 3:38 03-The Rising Of The Moon
DR10 0.00 dB -12.90 dB 3:09 04-Early Mornin' Rain
DR12 0.00 dB -15.49 dB 2:55 05-Jane, Jane
DR11 0.00 dB -15.12 dB 2:14 06-Because All Men Are Brothers
DR15 0.00 dB -18.09 dB 2:52 07-Hangman
DR14 0.00 dB -18.60 dB 2:34 08-Brother, (Buddy) Can You Spare A Dime?
DR12 0.00 dB -15.55 dB 3:09 09-The First Time Ever I Saw Your Face
DR13 0.00 dB -15.89 dB 2:39 10-Tryin' To Win
DR12 0.00 dB -16.51 dB 1:54 11-On A Desert Island (With You In My Dreams)
DR12 -0.44 dB -14.78 dB 2:43 12-The Last Thing On My Mind
––––––––––––––––––––––––––––––––––––––––

Number of tracks: 12
Official DR value: DR12

Samplerate: 44100 Hz
Channels: 2
Bits per sample: 16
Bitrate: 793 kbps
Codec: FLAC
================================================================================




Peter, Paul and Mary - Albums Collection 1962-1969 (12CD) Japanese Mini-LP Remastered Reissue 2012

Peter, Paul and Mary - Album (1966)
Japanese Mini-LP Remastered Reissue 2012

EAC | FLAC | Image (Cue&Log) ~ 208 Mb | Mp3 (CBR320) ~ 81 Mb | Scans ~ 134 Mb
Label: Warner Music Japan | # WPCR-14598 | Time: 00:35:25

With this record the trio were, in their halting fashion, making some concessions to or trying to keep up with the times. This was the first Peter, Paul & Mary album to include significant additional instrumentation other than the usual acoustic guitars. It wasn't exactly folk-rock, as there were drums on just three tracks. It was more folk-rockish folk, particularly as the rotating cast of backup players included musicians who had played with Bob Dylan (Mike Bloomfield, Kenneth Buttrey, Charlie McCoy, Bobby Gregg, Al Kooper) and Ian & Sylvia (bassists Bill Lee and Ross Savakus). The group was also leaning more toward contemporary songwriters, and made some astute choices in that regard by covering Laura Nyro's "And When I Die" (when that singer was barely known), Fred Neil's "The Other Side of This Life," and Richard Farina's "Pack Up Your Sorrows." For those who wanted the "classic" PPM sound, there were a few cuts in that mold, such as "Kisses Sweeter Than Wine." On the couple of occasions on which they actually tried to play rock music, they sounded, well, uncomfortable, as on the overlong "The King of Names" (with several members of the Paul Butterfield Blues Band) and Paul Stookey's odd "Norman Normal," an apparent psychedelic parody of "Secret Agent Man" on which he played all of the instruments and multi-tracked all of the vocals. They would have been better off just being themselves (and Mary Travers' absence from both of those cuts seemed to indicate that she wasn't totally into that direction herself). What the group couldn't control, however, was the unavoidable fact that the times were starting to pass them by.

Review by Richie Unterberger, Allmusic.com


Tracklist:

01. And When I Die (02:37)
02. Sometime Lovin' (03:06)
03. Pack Up Your Sorrows (03:06)
04. The King Of Names (04:09)
05. For Baby (For Bobbie) (02:46)
06. Hurry Sundown (02:57)
07. The Other Side Of This Life (03:03)
08. The Good Times We Had (02:35)
09. Kisses Sweeter Than Wine (03:07)
10. Norman Normal (02:18)
11. Mon Vrai Destin (02:21)
12. Well, Well, Well (03:14)


Exact Audio Copy V1.0 beta 3 from 29. August 2011

EAC extraction logfile from 25. December 2012, 20:30

Peter, Paul & Mary / Album

Used drive : PLEXTOR BD-R PX-B950SA Adapter: 6 ID: 0

Read mode : Secure
Utilize accurate stream : Yes
Defeat audio cache : Yes
Make use of C2 pointers : No

Read offset correction : 6
Overread into Lead-In and Lead-Out : No
Fill up missing offset samples with silence : Yes
Delete leading and trailing silent blocks : No
Null samples used in CRC calculations : Yes
Used interface : Native Win32 interface for Win NT & 2000

Used output format : Internal WAV Routines
Sample format : 44.100 Hz; 16 Bit; Stereo


TOC of the extracted CD

Track | Start | Length | Start sector | End sector
––––––––––––––––––––––––––––-
1 | 0:00.00 | 2:37.26 | 0 | 11800
2 | 2:37.26 | 3:06.31 | 11801 | 25781
3 | 5:43.57 | 3:06.29 | 25782 | 39760
4 | 8:50.11 | 4:09.48 | 39761 | 58483
5 | 12:59.59 | 2:46.52 | 58484 | 70985
6 | 15:46.36 | 2:57.34 | 70986 | 84294
7 | 18:43.70 | 3:03.69 | 84295 | 98088
8 | 21:47.64 | 2:35.63 | 98089 | 109776
9 | 24:23.52 | 3:07.08 | 109777 | 123809
10 | 27:30.60 | 2:18.31 | 123810 | 134190
11 | 29:49.16 | 2:21.24 | 134191 | 144789
12 | 32:10.40 | 3:14.69 | 144790 | 159408


Range status and errors

Selected range

Filename C:\Users\Meijin\Desktop\Rip by ALLexxess\Peter, Paul & Mary\1966 Album (Mini LP CD Warner Music Japan 2012)\Peter, Paul & Mary - Album.wav

Peak level 100.0 %
Extraction speed 6.4 X
Range quality 99.9 %
Test CRC 90B8FB37
Copy CRC 90B8FB37
Copy OK

No errors occurred


AccurateRip summary

Track 1 not present in database
Track 2 not present in database
Track 3 not present in database
Track 4 not present in database
Track 5 not present in database
Track 6 not present in database
Track 7 not present in database
Track 8 not present in database
Track 9 not present in database
Track 10 not present in database
Track 11 not present in database
Track 12 not present in database

None of the tracks are present in the AccurateRip database

End of status report

==== Log checksum 02E3ABFACDBAD386BDDD0FA2674503EB8AE6C8E0C1A0FCDC45ED3A316FAC9D73 ====

foobar2000 1.2.1 / Dynamic Range Meter 1.1.1
log date: 2013-01-22 17:02:25

––––––––––––––––––––––––––––––––––––––––
Analyzed: Peter, Paul & Mary / Album
––––––––––––––––––––––––––––––––––––––––

DR Peak RMS Duration Track
––––––––––––––––––––––––––––––––––––––––
DR7 0.00 dB -9.71 dB 2:37 01-And When I Die
DR11 0.00 dB -15.03 dB 3:06 02-Sometime Lovin'
DR11 0.00 dB -13.88 dB 3:06 03-Pack Up Your Sorrows
DR9 0.00 dB -11.73 dB 4:10 04-The King Of Names
DR12 0.00 dB -14.37 dB 2:47 05-For Baby (For Bobbie)
DR8 0.00 dB -11.77 dB 2:57 06-Hurry Sundown
DR11 0.00 dB -13.67 dB 3:04 07-The Other Side Of This Life
DR11 -1.53 dB -15.74 dB 2:36 08-The Good Times We Had
DR11 -0.34 dB -14.15 dB 3:07 09-Kisses Sweeter Than Wine
DR10 0.00 dB -12.27 dB 2:18 10-Norman Normal
DR11 -0.41 dB -14.94 dB 2:21 11-Mon Vrai Destin
DR10 0.00 dB -13.37 dB 3:15 12-Well, Well, Well
––––––––––––––––––––––––––––––––––––––––

Number of tracks: 12
Official DR value: DR10

Samplerate: 44100 Hz
Channels: 2
Bits per sample: 16
Bitrate: 824 kbps
Codec: FLAC
================================================================================




Peter, Paul and Mary - Albums Collection 1962-1969 (12CD) Japanese Mini-LP Remastered Reissue 2012

Peter, Paul and Mary - Album 1700 (1967)
Japanese Mini-LP Remastered Reissue 2012

EAC | FLAC | Image (Cue&Log) ~ 233 Mb | Mp3 (CBR320) ~ 92 Mb | Scans ~ 124 Mb
Label: Warner Music Japan | # WPCR-14599 | Time: 00:40:14

For a 1967 album that managed to yield a number one hit single and an additional Top Ten smash, Album 1700 was pretty out of sync with contemporary trends. This is not exactly a rock record, but the trio was unquestionably making more use of backup musicians and arrangements that owed a bit to pop/rock. (Paul Butterfield, Paul Winter, Canadian rock band the Paupers, and top New York folk-rock session musicians Paul Griffin, Russ Savakus, and Harvey Brooks all play on the record.) They never did sound too comfortable with that form, but at least they didn't sound as uncomfortable as they had in the past. The material was an uneven mixture of passably pleasant original tunes covering light comedy and social/philosophical commentary, including an honest to God folk-rock cover of Eric Andersen's "Rolling Home," albeit with the pure folk harmonies of their early days unchanged; a Bob Dylan cover ("Bob Dylan's Dream") that could have easily fit onto a PPM album early in their career; and, perhaps to make sure there was one song for the toddler when it was played in the family living room, the positively embarrassing "I'm in Love With a Big Blue Frog." "I Dig Rock and Roll Music," though it made the Top Ten, was not a wholehearted embrace of the new rock sounds, coming off as a rather savage and strange parody of the Mamas & the Papas. The album's ace in the hole was the melodic and slightly maudlin "Leaving on a Jet Plane," an early John Denver composition that would became a number one smash in late 1969, two years after the LP's release.
collapse

Review by Richie Unterberger, Allmusic.com


Tracklist:

01. Rolling Home (03:30)
02. Leaving On A Jet Plane (03:32)
03. Weep For Jamie (04:12)
04. No Other Name (02:31)
05. The House Song (04:19)
06. The Great Mandala (Wheel Of Life) (04:44)
07. I Dig Rock And Roll Music (02:33)
08. If I Had Wings (02:22)
09. I'm In Love With A Big Blue Frog (02:09)
10. Whatshername (03:27)
11. Bob Dylan's Dream (04:02)
12. The Song Is Love (02:46)


Exact Audio Copy V1.0 beta 3 from 29. August 2011

EAC extraction logfile from 25. December 2012, 19:56

Peter, Paul & Mary / Album 1700

Used drive : PLEXTOR BD-R PX-B950SA Adapter: 6 ID: 0

Read mode : Secure
Utilize accurate stream : Yes
Defeat audio cache : Yes
Make use of C2 pointers : No

Read offset correction : 6
Overread into Lead-In and Lead-Out : No
Fill up missing offset samples with silence : Yes
Delete leading and trailing silent blocks : No
Null samples used in CRC calculations : Yes
Used interface : Native Win32 interface for Win NT & 2000

Used output format : Internal WAV Routines
Sample format : 44.100 Hz; 16 Bit; Stereo


TOC of the extracted CD

Track | Start | Length | Start sector | End sector
––––––––––––––––––––––––––––-
1 | 0:00.00 | 3:30.67 | 0 | 15816
2 | 3:30.67 | 3:32.31 | 15817 | 31747
3 | 7:03.23 | 4:13.00 | 31748 | 50722
4 | 11:16.23 | 2:31.45 | 50723 | 62092
5 | 13:47.68 | 4:19.07 | 62093 | 81524
6 | 18:07.00 | 4:44.67 | 81525 | 102891
7 | 22:51.67 | 2:33.74 | 102892 | 114440
8 | 25:25.66 | 2:22.57 | 114441 | 125147
9 | 27:48.48 | 2:09.02 | 125148 | 134824
10 | 29:57.50 | 3:27.58 | 134825 | 150407
11 | 33:25.33 | 4:02.03 | 150408 | 168560
12 | 37:27.36 | 2:46.71 | 168561 | 181081


Range status and errors

Selected range

Filename C:\Users\Meijin\Desktop\Rip by ALLexxess\Peter, Paul & Mary\1967 Album 1700 (Mini LP CD Warner Music Japan 2012)\Peter, Paul & Mary - Album 1700.wav

Peak level 100.0 %
Extraction speed 3.1 X
Range quality 100.0 %
Test CRC B6B5B131
Copy CRC B6B5B131
Copy OK

No errors occurred


AccurateRip summary

Track 1 not present in database
Track 2 not present in database
Track 3 not present in database
Track 4 not present in database
Track 5 not present in database
Track 6 not present in database
Track 7 not present in database
Track 8 not present in database
Track 9 not present in database
Track 10 not present in database
Track 11 not present in database
Track 12 not present in database

None of the tracks are present in the AccurateRip database

End of status report

==== Log checksum 0673556B4DA39EF1D4BFF6F194559A8E4615B6AEA40C3201D6004DA4353C7A27 ====

foobar2000 1.2.1 / Dynamic Range Meter 1.1.1
log date: 2013-01-22 17:03:08

––––––––––––––––––––––––––––––––––––––––
Analyzed: Peter, Paul & Mary / Album 1700
––––––––––––––––––––––––––––––––––––––––

DR Peak RMS Duration Track
––––––––––––––––––––––––––––––––––––––––
DR7 0.00 dB -9.45 dB 3:31 01-Rolling Home
DR9 0.00 dB -11.79 dB 3:32 02-Leaving On A Jet Plane
DR9 0.00 dB -12.79 dB 4:13 03-Weep For Jamie
DR11 0.00 dB -13.86 dB 2:32 04-No Other Name
DR9 0.00 dB -13.03 dB 4:19 05-The House Song
DR10 0.00 dB -13.84 dB 4:45 06-The Great Mandala (Wheel Of Life)
DR8 0.00 dB -10.80 dB 2:34 07-I Dig Rock And Roll Music
DR11 0.00 dB -12.35 dB 2:23 08-If I Had Wings
DR9 0.00 dB -11.66 dB 2:09 09-I'm In Love With A Big Blue Frog
DR13 0.00 dB -16.10 dB 3:28 10-Whatshername
DR11 0.00 dB -13.44 dB 4:02 11-Bob Dylan's Dream
DR9 0.00 dB -11.70 dB 2:47 12-The Song Is Love
––––––––––––––––––––––––––––––––––––––––

Number of tracks: 12
Official DR value: DR10

Samplerate: 44100 Hz
Channels: 2
Bits per sample: 16
Bitrate: 812 kbps
Codec: FLAC
================================================================================




Peter, Paul and Mary - Albums Collection 1962-1969 (12CD) Japanese Mini-LP Remastered Reissue 2012

Peter, Paul and Mary - In Japan (1967)
Japanese Mini-LP Remastered Reissue 2012

EAC | FLAC | Image (Cue&Log) ~ 258 Mb | Mp3 (CBR320) ~ 100 Mb | Scans ~ 247 Mb
Label: Warner Music Japan | # WPCR-14600 | Time: 00:43:54

Peter, Paul and Mary may not have pleased the folk purists very much, but the trio did as much as anyone to bring folk music to a commercial peak in the early '60s, and by championing new songwriters like Bob Dylan, Fred Neil, and John Denver, among others, and sticking up for rock (even though rock wasn't even close to what they did), the group showed a sharp sense of time and era. The trio toured Japan in December of 1967, with concerts in both Tokyo and Kyoto, and released a live album there drawn from the two shows – the album was never released in the U.S. This two-disc set makes up for that, with the original album on disc one and a dozen additional tracks from the two shows that were discovered on the original master tapes making up the second disc. It's a pretty standard Peter, Paul and Mary set for the time, featuring the trio's signature versions of "Puff, the Magic Dragon," Pete Seeger's "If I Had a Hammer," and Bob Dylan's "Blowin' in the Wind," among others, including a nice version of Fred Neil's "The Other Side of This Life," and it's nicely recorded, full of good will, energy, and the trio's trademark vocal harmonies.

Review by Steve Leggett, Allmusic.com


Tracklist:

01. Sometime Lovin' (03:52)
02. No Other Name (02:39)
03. The Other Side Of This Life (03:15)
04. The Good Times We Had (03:17)
05. Paul Talk (06:16)
06. Puff The Magic Dragon (06:06)
07. Serge's Blues (01:53)
08. For Baby (For Bobbie) (03:21)
09. If I Had My Way (03:25)
10. Don't Think Twice It's All Right (03:31)
11. If I Had A Hammer (02:39)
12. This Land Is Your Land (03:34)


Exact Audio Copy V1.0 beta 3 from 29. August 2011

EAC extraction logfile from 25. December 2012, 16:27

Peter, Paul & Mary / In Japan

Used drive : PLEXTOR BD-R PX-B950SA Adapter: 6 ID: 0

Read mode : Secure
Utilize accurate stream : Yes
Defeat audio cache : Yes
Make use of C2 pointers : No

Read offset correction : 6
Overread into Lead-In and Lead-Out : No
Fill up missing offset samples with silence : Yes
Delete leading and trailing silent blocks : No
Null samples used in CRC calculations : Yes
Used interface : Native Win32 interface for Win NT & 2000

Used output format : Internal WAV Routines
Sample format : 44.100 Hz; 16 Bit; Stereo


TOC of the extracted CD

Track | Start | Length | Start sector | End sector
––––––––––––––––––––––––––––-
1 | 0:00.00 | 3:52.00 | 0 | 17399
2 | 3:52.00 | 2:39.43 | 17400 | 29367
3 | 6:31.43 | 3:15.15 | 29368 | 44007
4 | 9:46.58 | 3:17.62 | 44008 | 58844
5 | 13:04.45 | 6:16.64 | 58845 | 87108
6 | 19:21.34 | 6:06.10 | 87109 | 114568
7 | 25:27.44 | 1:53.38 | 114569 | 123081
8 | 27:21.07 | 3:21.43 | 123082 | 138199
9 | 30:42.50 | 3:25.36 | 138200 | 153610
10 | 34:08.11 | 3:31.45 | 153611 | 169480
11 | 37:39.56 | 2:39.61 | 169481 | 181466
12 | 40:19.42 | 3:34.33 | 181467 | 197549


Range status and errors

Selected range

Filename C:\Users\Meijin\Desktop\Rip by ALLexxess\Peter, Paul & Mary\1967 In Japan (Mini LP CD Warner Music Japan 2012)\Peter, Paul & Mary - In Japan.wav

Peak level 99.9 %
Extraction speed 6.9 X
Range quality 100.0 %
Test CRC A2E0BC31
Copy CRC A2E0BC31
Copy OK

No errors occurred


AccurateRip summary

Track 1 accurately ripped (confidence 1) [D1FE8C27] (AR v1)
Track 2 accurately ripped (confidence 1) [D803E3D9] (AR v1)
Track 3 accurately ripped (confidence 1) [214E668D] (AR v1)
Track 4 accurately ripped (confidence 1) [4264D253] (AR v1)
Track 5 accurately ripped (confidence 1) [B5B63ED1] (AR v1)
Track 6 accurately ripped (confidence 1) [5DB01DF2] (AR v1)
Track 7 accurately ripped (confidence 1) [466585B6] (AR v1)
Track 8 accurately ripped (confidence 1) [E0A83BC7] (AR v1)
Track 9 accurately ripped (confidence 1) [84993C8A] (AR v1)
Track 10 accurately ripped (confidence 1) [D3BE2B37] (AR v1)
Track 11 accurately ripped (confidence 1) [C64279F8] (AR v1)
Track 12 accurately ripped (confidence 1) [04C15A3B] (AR v1)

All tracks accurately ripped

End of status report

==== Log checksum EC4CD9832C9F687A76CF5DA2370965FBEA180DA135F096E3E45850EAE9443955 ====

foobar2000 1.2.1 / Dynamic Range Meter 1.1.1
log date: 2013-01-22 17:03:53

––––––––––––––––––––––––––––––––––––––––
Analyzed: Peter, Paul & Mary / In Japan
––––––––––––––––––––––––––––––––––––––––

DR Peak RMS Duration Track
––––––––––––––––––––––––––––––––––––––––
DR13 0.00 dB -17.18 dB 3:52 01-Sometime Lovin'
DR12 0.00 dB -17.50 dB 2:40 02-No Other Name
DR9 0.00 dB -11.61 dB 3:15 03-The Other Side Of This Life
DR13 0.00 dB -16.18 dB 3:18 04-The Good Times We Had
DR16 0.00 dB -21.43 dB 6:17 05-Paul Talk
DR10 0.00 dB -13.79 dB 6:06 06-Puff The Magic Dragon
DR12 -1.50 dB -17.57 dB 1:54 07-Serge's Blues
DR11 0.00 dB -16.24 dB 3:22 08-For Baby (For Bobbie)
DR7 0.00 dB -8.91 dB 3:25 09-If I Had My Way
DR10 0.00 dB -13.99 dB 3:32 10-Don't Think Twice It's All Right
DR7 0.00 dB -9.42 dB 2:40 11-If I Had A Hammer
DR8 0.00 dB -11.14 dB 3:34 12-This Land Is Your Land
––––––––––––––––––––––––––––––––––––––––

Number of tracks: 12
Official DR value: DR11

Samplerate: 44100 Hz
Channels: 2
Bits per sample: 16
Bitrate: 821 kbps
Codec: FLAC
================================================================================




Peter, Paul and Mary - Albums Collection 1962-1969 (12CD) Japanese Mini-LP Remastered Reissue 2012

Peter, Paul and Mary - Late Again (1968)
Japanese Mini-LP Remastered Reissue 2012

EAC | FLAC | Image (Cue&Log) ~ 224 Mb | Mp3 (CBR320) ~ 84 Mb | Scans ~ 189 Mb
Label: Warner Music Japan | # WPCR-14601 | Time: 00:33:05

With Late Again, Peter, Paul & Mary completed the transition from folk to folk-rock that had begun a couple of years before its release. Granted, it was a transition as slow and halting as that of an ox carrying a piano on its back, but it did actually take place. You can't call an album that numbers Elvin Bishop, Herbie Hancock, Paul Griffin, Charlie McCoy, Bernard Purdie, John Simon, and Paul Winter among its many accompanying musicians a folk album, after all. As for the music, it was adequate but rather inconsequential, the harmonies polished and pleasing as always. The trio were at this point composing the majority of their own material, with serious-minded, mildly tuneful, subdued, and fairly unmemorable originals, the best of them being "Rich Man Poor Man." They did add some diversity in flavor and arrangement with the churchy "Tramp on the Street," the haunting "Hymn," and occasional orchestration. The most notable track, by far, was their cover of Bob Dylan's "Too Much of Nothing." Previously released as a single in late 1967, it was the very first version of a Dylan Basement Tapes-era composition to reach the charts.

Review by Richie Unterberger, Allmusic.com


Tracklist:

01. Apologize (02:51)
02. Moments Of Soft Persuasion (02:35)
03. Yesterday's Tomorrow (03:34)
04. Too Much Of Nothing (02:31)
05. There's Anger In The Land (03:46)
06. Love City (Postcards To Duluth) (03:44)
07. She Dreams (02:56)
08. Hymn (02:19)
09. Tramp On The Street (03:51)
10. I Shall Be Released (02:40)
11. Reason To Believe (02:12)
12. Rich Man, Poor Man (03:36)


Exact Audio Copy V1.0 beta 3 from 29. August 2011

EAC extraction logfile from 25. December 2012, 15:54

Peter, Paul & Mary / Late Again

Used drive : PLEXTOR BD-R PX-B950SA Adapter: 6 ID: 0

Read mode : Secure
Utilize accurate stream : Yes
Defeat audio cache : Yes
Make use of C2 pointers : No

Read offset correction : 6
Overread into Lead-In and Lead-Out : No
Fill up missing offset samples with silence : Yes
Delete leading and trailing silent blocks : No
Null samples used in CRC calculations : Yes
Used interface : Native Win32 interface for Win NT & 2000

Used output format : Internal WAV Routines
Sample format : 44.100 Hz; 16 Bit; Stereo


TOC of the extracted CD

Track | Start | Length | Start sector | End sector
––––––––––––––––––––––––––––-
1 | 0:00.00 | 2:51.68 | 0 | 12892
2 | 2:51.68 | 2:35.15 | 12893 | 24532
3 | 5:27.08 | 3:34.61 | 24533 | 40643
4 | 9:01.69 | 2:31.47 | 40644 | 52015
5 | 11:33.41 | 3:46.42 | 52016 | 69007
6 | 15:20.08 | 3:44.40 | 69008 | 85847
7 | 19:04.48 | 2:56.48 | 85848 | 99095
8 | 22:01.21 | 2:19.47 | 99096 | 109567
9 | 24:20.68 | 3:51.36 | 109568 | 126928
10 | 28:12.29 | 2:40.66 | 126929 | 138994
11 | 30:53.20 | 2:12.30 | 138995 | 148924
12 | 33:05.50 | 3:36.11 | 148925 | 165135


Range status and errors

Selected range

Filename C:\Users\Meijin\Desktop\Rip by ALLexxess\Peter, Paul & Mary\1968 Late Again (Mini LP CD Warner Music Japan 2012)\Peter, Paul & Mary - Late Again.wav

Peak level 100.0 %
Extraction speed 6.5 X
Range quality 99.9 %
Test CRC 0F686025
Copy CRC 0F686025
Copy OK

No errors occurred


AccurateRip summary

Track 1 not present in database
Track 2 not present in database
Track 3 not present in database
Track 4 not present in database
Track 5 not present in database
Track 6 not present in database
Track 7 not present in database
Track 8 not present in database
Track 9 not present in database
Track 10 not present in database
Track 11 not present in database
Track 12 not present in database

None of the tracks are present in the AccurateRip database

End of status report

==== Log checksum 9AE432EA2580455666B4D469EE28CA703E0D15FDF99D5EE071F8804DF58DF70F ====

foobar2000 1.2.1 / Dynamic Range Meter 1.1.1
log date: 2013-01-22 17:04:33

––––––––––––––––––––––––––––––––––––––––
Analyzed: Peter, Paul & Mary / Late Again
––––––––––––––––––––––––––––––––––––––––

DR Peak RMS Duration Track
––––––––––––––––––––––––––––––––––––––––
DR9 0.00 dB -10.85 dB 2:52 01-Apologize
DR8 0.00 dB -11.69 dB 2:35 02-Moments Of Soft Persuasion
DR9 0.00 dB -12.14 dB 3:35 03-Yesterday's Tomorrow
DR8 0.00 dB -9.29 dB 2:32 04-Too Much Of Nothing
DR9 0.00 dB -12.66 dB 3:47 05-There's Anger In The Land
DR8 0.00 dB -11.20 dB 3:45 06-Love City (Postcards To Duluth)
DR9 0.00 dB -11.17 dB 2:57 07-She Dreams
DR11 0.00 dB -15.11 dB 2:20 08-Hymn
DR10 0.00 dB -12.13 dB 3:51 09-Tramp On The Street
DR9 0.00 dB -10.39 dB 2:41 10-I Shall Be Released
DR9 0.00 dB -11.25 dB 2:12 11-Reason To Believe
DR9 0.00 dB -10.64 dB 3:36 12-Rich Man, Poor Man
––––––––––––––––––––––––––––––––––––––––

Number of tracks: 12
Official DR value: DR9

Samplerate: 44100 Hz
Channels: 2
Bits per sample: 16
Bitrate: 875 kbps
Codec: FLAC
================================================================================




Peter, Paul and Mary - Albums Collection 1962-1969 (12CD) Japanese Mini-LP Remastered Reissue 2012

Peter, Paul and Mary - Peter, Paul and Mommy (1969) Japanese Mini-LP Remastered Reissue 2012
EAC | FLAC | Image (Cue&Log) ~ 210 Mb | Mp3 (CBR320) ~ 82 Mb | Scans ~ 215 Mb
Label: Warner Music Japan | # WPCR-14602 | Time: 00:35:48

This particular reissue gets a lower audio rating because of a general music mix that comes across as far too busy, between the usual guitars (picked with folky enthusiasm), the vocal arrangements (often with children incorporated), and the addition of not only acoustic bass (heard before on the group's albums), but banjo, autoharp, hammer dulcimer, etc. The tape hiss is more evident on this album, too. Peter, Paul and Mary had the essential appeal of seeming like a family – Peter Yarrow and Noel Paul Stookey looked as though they could have been brothers, and it really wasn't a stretch to see Mary as their sister. It's this picture that informs Peter, Paul and Mommy, an album of songs for children (as played by people accommodating to adults) and prevents it from becoming a lump of sugar. As a result you get Tom Paxton's "The Marvelous Toy" with its charming imagery, Yarrow's "Day Is Done," a melancholy paean to the truth of passing the flame to a new generation, and the outright goofiness of Shel Silverstein's "Boa Constrictor." As a fillip you also get "Puff (The Magic Dragon)." While short at 35 minutes (it would have been nice to have as a two-fer) it's a charming, well-done album that's as delightful for grown-ups as for kids – and as vital for kids as it ever was. If you have children, you can sit with them and enjoy this album.

Review by Steven McDonald, Allmusic.com


Tracklist:

01. The Marvelous Toy (03:10)
02. Day Is Done (03:17)
03. Leatherwing Bat (02:33)
04. I Have A Song To Sing, O! (04:08)
05. All Through The Night (02:36)
06. It's Raining (04:09)
07. Going To The Zoo (03:12)
08. Boa Constrictor (00:49)
09. Make-Believe Town (03:49)
10. Mockingbird (01:21)
11. Christmas Dinner (03:03)
12. Puff (The Magic Dragon) (03:37)


Exact Audio Copy V1.0 beta 3 from 29. August 2011

EAC extraction logfile from 24. December 2012, 21:50

Peter, Paul & Mary / Peter, Paul And Mommy

Used drive : PLEXTOR BD-R PX-B950SA Adapter: 6 ID: 0

Read mode : Secure
Utilize accurate stream : Yes
Defeat audio cache : Yes
Make use of C2 pointers : No

Read offset correction : 6
Overread into Lead-In and Lead-Out : No
Fill up missing offset samples with silence : Yes
Delete leading and trailing silent blocks : No
Null samples used in CRC calculations : Yes
Used interface : Native Win32 interface for Win NT & 2000

Used output format : Internal WAV Routines
Sample format : 44.100 Hz; 16 Bit; Stereo


TOC of the extracted CD

Track | Start | Length | Start sector | End sector
––––––––––––––––––––––––––––-
1 | 0:00.00 | 3:10.13 | 0 | 14262
2 | 3:10.13 | 3:17.24 | 14263 | 29061
3 | 6:27.37 | 2:33.45 | 29062 | 40581
4 | 9:01.07 | 4:08.46 | 40582 | 59227
5 | 13:09.53 | 2:36.17 | 59228 | 70944
6 | 15:45.70 | 4:09.08 | 70945 | 89627
7 | 19:55.03 | 3:12.56 | 89628 | 104083
8 | 23:07.59 | 0:49.56 | 104084 | 107814
9 | 23:57.40 | 3:49.13 | 107815 | 125002
10 | 27:46.53 | 1:21.53 | 125003 | 131130
11 | 29:08.31 | 3:03.04 | 131131 | 144859
12 | 32:11.35 | 3:37.55 | 144860 | 161189


Range status and errors

Selected range

Filename C:\Users\Meijin\Desktop\Rip by ALLexxess\Peter, Paul & Mary\1969 Peter, Paul And Mommy (Mini LP CD Warner Music Japan 2012)\Peter, Paul & Mary - Peter, Paul And Mommy.wav

Peak level 100.0 %
Extraction speed 6.6 X
Range quality 100.0 %
Test CRC E80C0525
Copy CRC E80C0525
Copy OK

No errors occurred


AccurateRip summary

Track 1 not present in database
Track 2 not present in database
Track 3 not present in database
Track 4 not present in database
Track 5 not present in database
Track 6 not present in database
Track 7 not present in database
Track 8 not present in database
Track 9 not present in database
Track 10 not present in database
Track 11 not present in database
Track 12 not present in database

None of the tracks are present in the AccurateRip database

End of status report

==== Log checksum D3D5D68E4D7EA5FC0362DCCF9B18A9F52DA6862C35F1CEE4A7437D01A3A035B6 ====

foobar2000 1.2.1 / Dynamic Range Meter 1.1.1
log date: 2013-01-22 17:05:10

––––––––––––––––––––––––––––––––––––––––
Analyzed: Peter, Paul & Mary / Peter, Paul And Mommy
––––––––––––––––––––––––––––––––––––––––

DR Peak RMS Duration Track
––––––––––––––––––––––––––––––––––––––––
DR10 0.00 dB -13.43 dB 3:10 01-The Marvelous Toy
DR10 0.00 dB -12.57 dB 3:17 02-Day Is Done
DR9 0.00 dB -12.76 dB 2:34 03-Leatherwing Bat
DR12 -0.27 dB -15.15 dB 4:09 04-I Have A Song To Sing, O!
DR11 -2.59 dB -16.66 dB 2:36 05-All Through The Night
DR10 0.00 dB -13.91 dB 4:09 06-It's Raining
DR8 0.00 dB -11.19 dB 3:13 07-Going To The Zoo
DR11 -0.65 dB -15.35 dB 0:50 08-Boa Constrictor
DR11 0.00 dB -16.76 dB 3:49 09-Make-Believe Town
DR11 -3.00 dB -16.37 dB 1:22 10-Mockingbird
DR13 -0.59 dB -17.15 dB 3:03 11-Christmas Dinner
DR12 0.00 dB -15.26 dB 3:38 12-Puff (The Magic Dragon)
––––––––––––––––––––––––––––––––––––––––

Number of tracks: 12
Official DR value: DR11

Samplerate: 44100 Hz
Channels: 2
Bits per sample: 16
Bitrate: 821 kbps
Codec: FLAC
================================================================================




All thanks to original releaser

More interesting music in My Blog