Tags
Language
Tags
July 2024
Su Mo Tu We Th Fr Sa
30 1 2 3 4 5 6
7 8 9 10 11 12 13
14 15 16 17 18 19 20
21 22 23 24 25 26 27
28 29 30 31 1 2 3

Oscar Peterson - Songbooks (2009)

Posted By: popsakov
Oscar Peterson - Songbooks (2009)

Oscar Peterson - Songbooks (2009)
2CD | EAC Rip | FLAC (Img) + Cue + Log ~ 675 Mb | MP3 CBR320 ~ 402 Mb
Full Scans | 01:14:13 + 01:16:52 | RAR 5% Recovery
Jazz | Not Now Music #NOT2CD286

Oscar Peterson was one of the greatest piano players of all time. A pianist with phenomenal technique on the level of his idol, Art Tatum, Peterson's speed, dexterity, and ability to swing at any tempo were amazing. Very effective in small groups, jam sessions, and in accompanying singers, O.P. was at his absolute best when performing unaccompanied solos. His original style did not fall into any specific idiom. Like Erroll Garner and George Shearing, Peterson's distinctive playing formed during the mid- to late '40s and fell somewhere between swing and bop. Peterson was criticized through the years because he used so many notes, didn't evolve much since the 1950s, and recorded a remarkable number of albums. Perhaps it is because critics ran out of favorable adjectives to use early in his career; certainly it can be said that Peterson played 100 notes when other pianists might have used ten, but all 100 usually fit, and there is nothing wrong with showing off technique when it serves the music. As with Johnny Hodges and Thelonious Monk, to name two, Peterson spent his career growing within his style rather than making any major changes once his approach was set, certainly an acceptable way to handle one's career. Because he was Norman Granz's favorite pianist (along with Tatum) and the producer tended to record some of his artists excessively, Peterson made an incredible number of albums. Not all are essential, and a few are routine, but the great majority are quite excellent, and there are dozens of classics.

***************

Track List CD1:

The Duke Ellington Songbook (1952)
01. John Hardy's Wife [0:03:22.51]
02. Sophisticated Lady [0:02:59.38]
03. Things Aint What They Used To Be [0:03:13.18]
04. Just A-Sittin And A-Rockin [0:03:42.61]
05. In A Mellow Tone [0:03:08.22]
06. I Got It Bad (And That Aint Good) [0:03:13.23]
07. Prelude To A Kiss [0:03:17.56]
08. Cotton Tail [0:03:50.00]
09. Don't Get Around Much Anymore [0:03:59.28]
10. Take The 'A' Train [0:03:17.13]
11. Rockin' In Rhythm [0:02:54.40]
12. Do Nothin' Till You Hear From Me [0:02:50.33]

The Jerome Kern Songbook (1953)
13. I Won't Dance [0:02:30.60]
14. Bill [0:02:58.41]
15. The Song Is You [0:03:03.07]
16. A Fine Romance [0:03:08.17]
17. Can't Help Lovin' Dat Man [0:02:44.17]
18. Ol' Man River [0:02:38.00]
19. Long Ago And Far Away [0:02:34.67]
20. Lovely To Look At [0:02:47.52]
21. Pick Yourself Up [0:02:10.71]
22. Smoke Get's In Your Eyes [0:02:47.51]
23. The Way You Look Tonight [0:03:39.67]
24. Yesterday's [0:03:20.10]

Exact Audio Copy V1.3 from 2. September 2016

EAC extraction logfile from 27. June 2018, 23:11

Oscar Peterson / Songbooks (CD1)

Used drive : ATAPI iHAS124 D Adapter: 0 ID: 2

Read mode : Secure
Utilize accurate stream : Yes
Defeat audio cache : Yes
Make use of C2 pointers : No

Read offset correction : 6
Overread into Lead-In and Lead-Out : No
Fill up missing offset samples with silence : Yes
Delete leading and trailing silent blocks : No
Null samples used in CRC calculations : Yes
Used interface : Installed external ASPI interface

Used output format : User Defined Encoder
Selected bitrate : 1024 kBit/s
Quality : High
Add ID3 tag : No
Command line compressor : C:\Program Files (x86)\Exact Audio Copy\Flac\flac.exe
Additional command line options : -6 -V -T "ARTIST=%artist%" -T "TITLE=%title%" -T "ALBUM=%albumtitle%" -T "DATE=%year%" -T "TRACKNUMBER=%tracknr%" -T "GENRE=%genre%" -T "COMMENT=%comment%" -T "BAND=%albuminterpret%" -T "ALBUMARTIST=%albuminterpret%" -T "COMPOSER=%composer%" %haslyrics%–tag-from-file=LYRICS="%lyricsfile%"%haslyrics% -T "DISCNUMBER=%cdnumber%" -T "TOTALDISCS=%totalcds%" -T "TOTALTRACKS=%numtracks%" %hascover%–picture="%coverfile%"%hascover% %source% -o %dest%


TOC of the extracted CD

Track | Start | Length | Start sector | End sector
––––––––––––––––––––––––––––-
1 | 0:00.00 | 3:22.51 | 0 | 15200
2 | 3:22.51 | 2:59.38 | 15201 | 28663
3 | 6:22.14 | 3:13.18 | 28664 | 43156
4 | 9:35.32 | 3:42.61 | 43157 | 59867
5 | 13:18.18 | 3:08.22 | 59868 | 73989
6 | 16:26.40 | 3:13.23 | 73990 | 88487
7 | 19:39.63 | 3:17.56 | 88488 | 103318
8 | 22:57.44 | 3:50.00 | 103319 | 120568
9 | 26:47.44 | 3:59.28 | 120569 | 138521
10 | 30:46.72 | 3:17.13 | 138522 | 153309
11 | 34:04.10 | 2:54.40 | 153310 | 166399
12 | 36:58.50 | 2:50.33 | 166400 | 179182
13 | 39:49.08 | 2:30.60 | 179183 | 190492
14 | 42:19.68 | 2:58.41 | 190493 | 203883
15 | 45:18.34 | 3:03.07 | 203884 | 217615
16 | 48:21.41 | 3:08.17 | 217616 | 231732
17 | 51:29.58 | 2:44.17 | 231733 | 244049
18 | 54:14.00 | 2:38.00 | 244050 | 255899
19 | 56:52.00 | 2:34.67 | 255900 | 267516
20 | 59:26.67 | 2:47.52 | 267517 | 280093
21 | 62:14.44 | 2:10.71 | 280094 | 289914
22 | 64:25.40 | 2:47.51 | 289915 | 302490
23 | 67:13.16 | 3:39.67 | 302491 | 318982
24 | 70:53.08 | 3:20.10 | 318983 | 333992


Range status and errors

Selected range

Filename C:\mm\Oscar Peterson\2009 - Songbooks {2xCD} [NOT2CD286]\Oscar Peterson - Songbooks (CD1).wav

Peak level 98.8 %
Extraction speed 2.1 X
Range quality 100.0 %
Test CRC B5AC96EE
Copy CRC B5AC96EE
Copy OK

No errors occurred

End of status report

–– CUETools DB Plugin V2.1.6

[CTDB TOCID: FF.GN896y0qjVeavu_XED_eLZtQ-] found
Submit result: already submitted
Track | CTDB Status
1 | (15/15) Accurately ripped
2 | (15/15) Accurately ripped
3 | (15/15) Accurately ripped
4 | (15/15) Accurately ripped
5 | (15/15) Accurately ripped
6 | (15/15) Accurately ripped
7 | (15/15) Accurately ripped
8 | (15/15) Accurately ripped
9 | (15/15) Accurately ripped
10 | (15/15) Accurately ripped
11 | (15/15) Accurately ripped
12 | (15/15) Accurately ripped
13 | (15/15) Accurately ripped
14 | (15/15) Accurately ripped
15 | (15/15) Accurately ripped
16 | (15/15) Accurately ripped
17 | (15/15) Accurately ripped
18 | (15/15) Accurately ripped
19 | (15/15) Accurately ripped
20 | (15/15) Accurately ripped
21 | (15/15) Accurately ripped
22 | (15/15) Accurately ripped
23 | (15/15) Accurately ripped
24 | (15/15) Accurately ripped

foobar2000 1.3.16 / Dynamic Range Meter 1.1.1
log date: 2018-07-01 00:50:52

––––––––––––––––––––––––––––––––––––––––
Analyzed: Oscar Peterson / Songbooks (CD1)
––––––––––––––––––––––––––––––––––––––––

DR Peak RMS Duration Track
––––––––––––––––––––––––––––––––––––––––
DR10 -0.10 dB -13.00 dB 3:23 01-John Hardy's Wife
DR10 -0.10 dB -13.11 dB 3:00 02-Sophisticated Lady
DR9 -0.10 dB -12.31 dB 3:13 03-Things Aint What They Used To Be
DR10 -0.10 dB -12.13 dB 3:43 04-Just A-Sittin And A-Rockin
DR10 -0.10 dB -12.78 dB 3:08 05-In A Mellow Tone
DR10 -0.10 dB -13.30 dB 3:13 06-I Got It Bad (And That Aint Good)
DR11 -0.10 dB -14.15 dB 3:18 07-Prelude To A Kiss
DR9 -0.10 dB -10.90 dB 3:50 08-Cotton Tail
DR11 -0.10 dB -13.69 dB 3:59 09-Don't Get Around Much Anymore
DR11 -0.10 dB -13.58 dB 3:17 10-Take The 'A' Train
DR10 -0.10 dB -12.71 dB 2:55 11-Rockin' In Rhythm
DR13 -0.10 dB -15.99 dB 2:50 12-Do Nothin' Till You Hear From Me
DR12 -0.10 dB -15.80 dB 2:31 13-I Won't Dance
DR12 -0.91 dB -20.20 dB 2:59 14-Bill
DR12 -0.10 dB -14.71 dB 3:03 15-The Song Is You
DR13 -0.10 dB -15.91 dB 3:08 16-A Fine Romance
DR12 -3.10 dB -19.06 dB 2:44 17-Can't Help Lovin' Dat Man
DR12 -0.10 dB -15.28 dB 2:38 18-Ol' Man River
DR10 -3.26 dB -17.85 dB 2:35 19-Long Ago And Far Away
DR14 -0.16 dB -18.01 dB 2:48 20-Lovely To Look At
DR11 -0.37 dB -14.45 dB 2:11 21-Pick Yourself Up
DR12 -2.76 dB -18.92 dB 2:48 22-Smoke Get's In Your Eyes
DR13 -0.10 dB -15.97 dB 3:40 23-The Way You Look Tonight
DR12 -0.82 dB -17.85 dB 3:20 24-Yesterday's
––––––––––––––––––––––––––––––––––––––––

Number of tracks: 24
Official DR value: DR11

Samplerate: 44100 Hz
Channels: 2
Bits per sample: 16
Bitrate: 580 kbps
Codec: FLAC
================================================================================

[CUETools log; Date: 01.07.2018 0:51:04; Version: 2.1.6]
[CTDB TOCID: FF.GN896y0qjVeavu_XED_eLZtQ-] found.
Track | CTDB Status
1 | (15/15) Accurately ripped
2 | (15/15) Accurately ripped
3 | (15/15) Accurately ripped
4 | (15/15) Accurately ripped
5 | (15/15) Accurately ripped
6 | (15/15) Accurately ripped
7 | (15/15) Accurately ripped
8 | (15/15) Accurately ripped
9 | (15/15) Accurately ripped
10 | (15/15) Accurately ripped
11 | (15/15) Accurately ripped
12 | (15/15) Accurately ripped
13 | (15/15) Accurately ripped
14 | (15/15) Accurately ripped
15 | (15/15) Accurately ripped
16 | (15/15) Accurately ripped
17 | (15/15) Accurately ripped
18 | (15/15) Accurately ripped
19 | (15/15) Accurately ripped
20 | (15/15) Accurately ripped
21 | (15/15) Accurately ripped
22 | (15/15) Accurately ripped
23 | (15/15) Accurately ripped
24 | (15/15) Accurately ripped
[AccurateRip ID: 0041b98c-04682bda-5c116518] found.
Track [ CRC | V2 ] Status
01 [db46636a|dfc18234] (00+04/16) Accurately ripped
02 [068f59c5|4b1175ea] (00+04/16) Accurately ripped
03 [9fd0425e|39c33a8f] (00+03/15) Accurately ripped
04 [5e6cc65d|72a1817c] (00+03/15) Accurately ripped
05 [bcf50c63|831eff30] (00+03/15) Accurately ripped
06 [e1fda047|63a3f2b2] (00+03/15) Accurately ripped
07 [7e46f1a2|b61f1860] (00+03/15) Accurately ripped
08 [a2f1a8a5|f830ce6b] (00+03/14) Accurately ripped
09 [47950f85|96298169] (00+03/15) Accurately ripped
10 [3cfc60f4|f5a2d565] (00+03/15) Accurately ripped
11 [f67a02a2|c3303f82] (00+03/15) Accurately ripped
12 [b2d5fac6|c91f3d05] (00+03/15) Accurately ripped
13 [db76b964|aa0df164] (00+03/15) Accurately ripped
14 [0f9465d0|7421b321] (00+03/15) Accurately ripped
15 [472a44ea|680f7764] (00+03/15) Accurately ripped
16 [ea76a7c2|6c985de0] (00+03/15) Accurately ripped
17 [3922c68b|a0478ce9] (00+03/15) Accurately ripped
18 [e4ee8faf|e0b27e62] (00+03/15) Accurately ripped
19 [35bee0bc|c3393b84] (00+03/15) Accurately ripped
20 [bc189d0d|7fd14d0e] (00+03/15) Accurately ripped
21 [e7f26f3f|bf37f410] (00+03/15) Accurately ripped
22 [6833e116|426bac0c] (00+03/15) Accurately ripped
23 [22b1a89a|bfadcc69] (00+03/15) Accurately ripped
24 [50627278|0dc4ea3b] (00+03/15) Accurately ripped
Offsetted by 1328:
01 [358f10ba] (03/16) Accurately ripped
02 [087ab545] (03/16) Accurately ripped
03 [69aa037e] (03/15) Accurately ripped
04 [260d62ed] (03/15) Accurately ripped
05 [ca4a5c13] (03/15) Accurately ripped
06 [47d58687] (03/15) Accurately ripped
07 [6413cca2] (03/15) Accurately ripped
08 [84f67fc5] (03/14) Accurately ripped
09 [a13d7005] (03/15) Accurately ripped
10 [2e4e2c84] (03/15) Accurately ripped
11 [ec1d37b2] (03/15) Accurately ripped
12 [da31b9d6] (03/15) Accurately ripped
13 [743a6b94] (03/15) Accurately ripped
14 [d2040260] (03/15) Accurately ripped
15 [6ee2779a] (03/15) Accurately ripped
16 [716adaa2] (03/15) Accurately ripped
17 [88382d7b] (03/15) Accurately ripped
18 [3a668d5f] (03/15) Accurately ripped
19 [e9a6248c] (03/15) Accurately ripped
20 [66a12e8d] (03/15) Accurately ripped
21 [2f5a49cf] (03/15) Accurately ripped
22 [5dcce756] (03/15) Accurately ripped
23 [499691ea] (03/15) Accurately ripped
24 [84d7a518] (03/15) Accurately ripped
Offsetted by -12:
01 [bad83cd6] (00/16) No match (V2 was not tested)
02 [63d804e5] (00/16) No match (V2 was not tested)
03 [90e19196] (00/15) No match (V2 was not tested)
04 [457d0ef9] (00/15) No match (V2 was not tested)
05 [46dc5fb7] (00/15) No match (V2 was not tested)
06 [51a615b7] (00/15) No match (V2 was not tested)
07 [d41aaee2] (00/15) No match (V2 was not tested)
08 [e64c9a5d] (00/14) No match (V2 was not tested)
09 [131c0565] (00/15) No match (V2 was not tested)
10 [072481d0] (00/15) No match (V2 was not tested)
11 [68b0d31e] (00/15) No match (V2 was not tested)
12 [2c4fc0c2] (00/15) No match (V2 was not tested)
13 [9eb5ba18] (00/15) No match (V2 was not tested)
14 [a994ee6c] (00/15) No match (V2 was not tested)
15 [e290b37e] (00/15) No match (V2 was not tested)
16 [521c8b8a] (00/15) No match (V2 was not tested)
17 [ecdadf0f] (00/15) No match (V2 was not tested)
18 [64ee3f83] (00/15) No match (V2 was not tested)
19 [cc060a88] (00/15) No match (V2 was not tested)
20 [07a9e2ad] (00/15) No match (V2 was not tested)
21 [5c81b05b] (00/15) No match (V2 was not tested)
22 [e3ab8e86] (00/15) No match (V2 was not tested)
23 [ba3f0306] (00/15) No match (V2 was not tested)
24 [2c70cf50] (00/15) No match (V2 was not tested)
Offsetted by 664:
01 [886aba12] (00/16) No match (V2 was not tested)
02 [87850785] (00/16) No match (V2 was not tested)
03 [84bd22ee] (00/15) No match (V2 was not tested)
04 [c23d14a5] (00/15) No match (V2 was not tested)
05 [439fb43b] (00/15) No match (V2 was not tested)
06 [14e99367] (00/15) No match (V2 was not tested)
07 [f12d5f22] (00/15) No match (V2 was not tested)
08 [13f41435] (00/14) No match (V2 was not tested)
09 [f4693fc5] (00/15) No match (V2 was not tested)
10 [35a546bc] (00/15) No match (V2 was not tested)
11 [f14b9d2a] (00/15) No match (V2 was not tested)
12 [c683da4e] (00/15) No match (V2 was not tested)
13 [a7d8927c] (00/15) No match (V2 was not tested)
14 [70cc3418] (00/15) No match (V2 was not tested)
15 [5b065e42] (00/15) No match (V2 was not tested)
16 [2df0c132] (00/15) No match (V2 was not tested)
17 [60ad7a03] (00/15) No match (V2 was not tested)
18 [8faa8e87] (00/15) No match (V2 was not tested)
19 [0fb282a4] (00/15) No match (V2 was not tested)
20 [115ce5cd] (00/15) No match (V2 was not tested)
21 [0ba65c87] (00/15) No match (V2 was not tested)
22 [63006436] (00/15) No match (V2 was not tested)
23 [b6241d42] (00/15) No match (V2 was not tested)
24 [6a9d0bc8] (00/15) No match (V2 was not tested)

Track Peak [ CRC32 ] [W/O NULL] [ LOG ]
– 98,8 [B5AC96EE] [B139965F] CRC32
01 98,8 [F6ADE62B] [406B1170]
02 98,8 [6822B147] [8EBDF2BE]
03 98,8 [B16956C2] [5D080FB4]
04 98,8 [071468EF] [0A0B6BDF]
05 98,8 [D9F8B942] [5A86E3AE]
06 98,8 [A4EF8BBE] [4F621D3D]
07 98,8 [66733402] [9EC147B4]
08 98,8 [4ED7FEBE] [266997BF]
09 98,8 [82E017A4] [31FBF1F6]
10 98,8 [7A5F722F] [41FF88F4]
11 98,8 [72A0EBCE] [397E0C98]
12 98,8 [679205C6] [0CCF2B14]
13 98,8 [90709291] [3C7DD107]
14 90,1 [979B1208] [AC5C9701]
15 98,8 [0D9D211A] [4A8B9591]
16 98,8 [84132133] [D1B7792F]
17 69,9 [5F65D521] [A83C1462]
18 98,8 [A6FCB773] [B3F23497]
19 68,7 [54E8B05C] [F5CF1079]
20 98,1 [A24BF226] [919A2DB8]
21 95,8 [1B3D6035] [CC237768]
22 72,7 [F264C383] [14C176F3]
23 98,8 [AE662090] [66C7F65C]
24 90,9 [C7BF980A] [17BC1CD8]

Track List CD2:

The Count Basie Songbook (1956)
01. Lester Leaps In [0:03:59.37]
02. Easy Does It [0:06:29.17]
03. 9:20 Special [0:03:41.14]
04. Jumpin' at the Woodside [0:05:40.50]
05. Blues for Basie [0:03:32.42]
06. Broadway [0:04:29.32]
07. Blue and Sentimental [0:02:27.55]
08. Topsy [0:04:20.47]
09. One O'Clock Jump [0:05:48.08]
10. Jive at Five [0:04:13.18]

The Harry Warren & Vincent Youmans Songbooks (1954)
11. Lullaby Of Broadway [0:02:30.53]
12. Serenade In Blue [0:03:12.07]
13. You'll Never Know [0:03:22.70]
14. I Had The Craziest Dream [0:02:51.40]
15. I Only Have Eyes For You [0:03:39.67]
16. Chattanooga Choo-Choo [0:02:06.06]
17. More Than You Know [0:02:59.24]
18. Carioca [0:02:15.40]
19. Without a Song [0:03:35.28]
20. Drums In My Heart [0:01:44.14]
21. Time On My Hands [0:01:50.30]
22. Great Day [0:02:01.20]

Exact Audio Copy V1.3 from 2. September 2016

EAC extraction logfile from 28. June 2018, 1:25

Oscar Peterson / Songbooks (CD2)

Used drive : ATAPI iHAS124 D Adapter: 0 ID: 2

Read mode : Secure
Utilize accurate stream : Yes
Defeat audio cache : Yes
Make use of C2 pointers : No

Read offset correction : 6
Overread into Lead-In and Lead-Out : No
Fill up missing offset samples with silence : Yes
Delete leading and trailing silent blocks : No
Null samples used in CRC calculations : Yes
Used interface : Installed external ASPI interface

Used output format : User Defined Encoder
Selected bitrate : 1024 kBit/s
Quality : High
Add ID3 tag : No
Command line compressor : C:\Program Files (x86)\Exact Audio Copy\Flac\flac.exe
Additional command line options : -6 -V -T "ARTIST=%artist%" -T "TITLE=%title%" -T "ALBUM=%albumtitle%" -T "DATE=%year%" -T "TRACKNUMBER=%tracknr%" -T "GENRE=%genre%" -T "COMMENT=%comment%" -T "BAND=%albuminterpret%" -T "ALBUMARTIST=%albuminterpret%" -T "COMPOSER=%composer%" %haslyrics%–tag-from-file=LYRICS="%lyricsfile%"%haslyrics% -T "DISCNUMBER=%cdnumber%" -T "TOTALDISCS=%totalcds%" -T "TOTALTRACKS=%numtracks%" %hascover%–picture="%coverfile%"%hascover% %source% -o %dest%


TOC of the extracted CD

Track | Start | Length | Start sector | End sector
––––––––––––––––––––––––––––-
1 | 0:00.00 | 3:59.37 | 0 | 17961
2 | 3:59.37 | 6:29.17 | 17962 | 47153
3 | 10:28.54 | 3:41.14 | 47154 | 63742
4 | 14:09.68 | 5:40.50 | 63743 | 89292
5 | 19:50.43 | 3:32.42 | 89293 | 105234
6 | 23:23.10 | 4:29.32 | 105235 | 125441
7 | 27:52.42 | 2:27.55 | 125442 | 136521
8 | 30:20.22 | 4:20.47 | 136522 | 156068
9 | 34:40.69 | 5:48.08 | 156069 | 182176
10 | 40:29.02 | 4:13.18 | 182177 | 201169
11 | 44:42.20 | 2:30.53 | 201170 | 212472
12 | 47:12.73 | 3:12.07 | 212473 | 226879
13 | 50:25.05 | 3:22.70 | 226880 | 242099
14 | 53:48.00 | 2:51.40 | 242100 | 254964
15 | 56:39.40 | 3:39.67 | 254965 | 271456
16 | 60:19.32 | 2:06.06 | 271457 | 280912
17 | 62:25.38 | 2:59.24 | 280913 | 294361
18 | 65:24.62 | 2:15.40 | 294362 | 304526
19 | 67:40.27 | 3:35.28 | 304527 | 320679
20 | 71:15.55 | 1:44.14 | 320680 | 328493
21 | 72:59.69 | 1:50.30 | 328494 | 336773
22 | 74:50.24 | 2:01.20 | 336774 | 345868


Range status and errors

Selected range

Filename C:\mm\Oscar Peterson\2009 - Songbooks {2xCD} [NOT2CD286]\Oscar Peterson - Songbooks (CD2).wav

Peak level 98.8 %
Extraction speed 2.1 X
Range quality 100.0 %
Test CRC 090D821C
Copy CRC 090D821C
Copy OK

No errors occurred

End of status report

–– CUETools DB Plugin V2.1.6

[CTDB TOCID: 9R8XJfbgjcE3qiZeSyOw9E.u0aw-] found
Submit result: already submitted
Track | CTDB Status
1 | (15/15) Accurately ripped
2 | (15/15) Accurately ripped
3 | (15/15) Accurately ripped
4 | (15/15) Accurately ripped
5 | (15/15) Accurately ripped
6 | (15/15) Accurately ripped
7 | (15/15) Accurately ripped
8 | (15/15) Accurately ripped
9 | (15/15) Accurately ripped
10 | (15/15) Accurately ripped
11 | (15/15) Accurately ripped
12 | (15/15) Accurately ripped
13 | (15/15) Accurately ripped
14 | (15/15) Accurately ripped
15 | (15/15) Accurately ripped
16 | (15/15) Accurately ripped
17 | (15/15) Accurately ripped
18 | (15/15) Accurately ripped
19 | (15/15) Accurately ripped
20 | (15/15) Accurately ripped
21 | (15/15) Accurately ripped
22 | (15/15) Accurately ripped

foobar2000 1.3.16 / Dynamic Range Meter 1.1.1
log date: 2018-07-01 00:52:36

––––––––––––––––––––––––––––––––––––––––
Analyzed: Oscar Peterson / Songbooks (CD2)
––––––––––––––––––––––––––––––––––––––––

DR Peak RMS Duration Track
––––––––––––––––––––––––––––––––––––––––
DR10 -2.14 dB -14.91 dB 3:59 01-Lester Leaps In
DR10 -2.14 dB -15.32 dB 6:29 02-Easy Does It
DR9 -2.14 dB -13.99 dB 3:41 03-9:20 Special
DR8 -2.15 dB -12.03 dB 5:41 04-Jumpin' at the Woodside
DR8 -2.14 dB -12.84 dB 3:33 05-Blues for Basie
DR10 -2.15 dB -14.17 dB 4:29 06-Broadway
DR10 -2.15 dB -15.04 dB 2:28 07-Blue and Sentimental
DR11 -2.13 dB -15.08 dB 4:21 08-Topsy
DR10 -2.15 dB -14.82 dB 5:48 09-One O'Clock Jump
DR12 -2.14 dB -16.21 dB 4:13 10-Jive at Five
DR12 -0.10 dB -15.59 dB 2:31 11-Lullaby Of Broadway
DR13 -0.10 dB -18.79 dB 3:12 12-Serenade In Blue
DR13 -2.11 dB -19.39 dB 3:23 13-You'll Never Know
DR13 -0.55 dB -19.17 dB 2:52 14-I Had The Craziest Dream
DR11 -1.00 dB -17.85 dB 3:40 15-I Only Have Eyes For You
DR13 -0.48 dB -16.89 dB 2:06 16-Chattanooga Choo-Choo
DR12 -1.05 dB -17.83 dB 2:59 17-More Than You Know
DR11 -0.10 dB -14.34 dB 2:16 18-Carioca
DR11 -0.10 dB -15.42 dB 3:35 19-Without a Song
DR12 -0.10 dB -15.96 dB 1:44 20-Drums In My Heart
DR11 -3.29 dB -22.69 dB 1:50 21-Time On My Hands
DR11 -0.10 dB -14.66 dB 2:01 22-Great Day
––––––––––––––––––––––––––––––––––––––––

Number of tracks: 22
Official DR value: DR11

Samplerate: 44100 Hz
Channels: 2
Bits per sample: 16
Bitrate: 540 kbps
Codec: FLAC
================================================================================

[CUETools log; Date: 01.07.2018 0:52:46; Version: 2.1.6]
[CTDB TOCID: 9R8XJfbgjcE3qiZeSyOw9E.u0aw-] found.
Track | CTDB Status
1 | (15/15) Accurately ripped
2 | (15/15) Accurately ripped
3 | (15/15) Accurately ripped
4 | (15/15) Accurately ripped
5 | (15/15) Accurately ripped
6 | (15/15) Accurately ripped
7 | (15/15) Accurately ripped
8 | (15/15) Accurately ripped
9 | (15/15) Accurately ripped
10 | (15/15) Accurately ripped
11 | (15/15) Accurately ripped
12 | (15/15) Accurately ripped
13 | (15/15) Accurately ripped
14 | (15/15) Accurately ripped
15 | (15/15) Accurately ripped
16 | (15/15) Accurately ripped
17 | (15/15) Accurately ripped
18 | (15/15) Accurately ripped
19 | (15/15) Accurately ripped
20 | (15/15) Accurately ripped
21 | (15/15) Accurately ripped
22 | (15/15) Accurately ripped
[AccurateRip ID: 00455705-0433edeb-26120316] found.
Track [ CRC | V2 ] Status
01 [29e835e6|c91e0b85] (00+03/15) Accurately ripped
02 [2cac4447|5e804599] (00+03/15) Accurately ripped
03 [70c18da6|385eecba] (00+03/15) Accurately ripped
04 [7d5daa17|e4c68141] (00+03/15) Accurately ripped
05 [ab732175|f5347cab] (00+03/15) Accurately ripped
06 [32b39565|985ac2bf] (00+03/15) Accurately ripped
07 [7f9e8449|57357cf3] (00+03/15) Accurately ripped
08 [c87a89e6|9e547ffd] (00+03/15) Accurately ripped
09 [2db04fe2|0cbfa7f6] (00+03/15) Accurately ripped
10 [b65d65a8|2fae6055] (00+03/15) Accurately ripped
11 [a3c5a0d4|d3a8c551] (00+03/15) Accurately ripped
12 [f9430b16|a6ffd6da] (00+03/15) Accurately ripped
13 [c7169e0d|85afa507] (00+03/15) Accurately ripped
14 [5f4ebd98|0f0a64f3] (00+03/15) Accurately ripped
15 [b75661cf|9c8dc18f] (00+03/15) Accurately ripped
16 [528fd7df|c02ffc66] (00+03/15) Accurately ripped
17 [dcc930e7|20c59924] (00+03/15) Accurately ripped
18 [1ff1fe81|4cfcf0a2] (00+03/14) Accurately ripped
19 [04810923|f36e9a7f] (00+03/15) Accurately ripped
20 [b0c0e8bf|df46d62b] (00+03/15) Accurately ripped
21 [1f5d1628|2ebd2c80] (00+03/15) Accurately ripped
22 [00eb8388|51ea6b8e] (00+03/15) Accurately ripped
Offsetted by 1328:
01 [c539efb6] (03/15) Accurately ripped
02 [141db967] (03/15) Accurately ripped
03 [76081d36] (03/15) Accurately ripped
04 [ddb0e507] (03/15) Accurately ripped
05 [9f070295] (03/15) Accurately ripped
06 [272031f5] (03/15) Accurately ripped
07 [9f228fe9] (03/15) Accurately ripped
08 [9c0dc546] (03/15) Accurately ripped
09 [72115b82] (03/15) Accurately ripped
10 [2d148948] (03/15) Accurately ripped
11 [7e0d5494] (03/15) Accurately ripped
12 [0707d4a6] (03/15) Accurately ripped
13 [01f0b6fd] (03/15) Accurately ripped
14 [8a3cf888] (03/15) Accurately ripped
15 [0cd0560f] (03/15) Accurately ripped
16 [87d8c06f] (03/15) Accurately ripped
17 [6d0e3277] (03/15) Accurately ripped
18 [cf55eaa1] (02/14) Accurately ripped
19 [450ecb33] (03/15) Accurately ripped
20 [8dd8065f] (03/15) Accurately ripped
21 [99e909b8] (03/15) Accurately ripped
22 [3eb21608] (03/15) Accurately ripped
Offsetted by -12:
01 [f977aa32] (00/15) No match (V2 was not tested)
02 [9813567f] (00/15) No match (V2 was not tested)
03 [37a5ed82] (00/15) No match (V2 was not tested)
04 [2c4d7d9b] (00/15) No match (V2 was not tested)
05 [fe1168ad] (00/15) No match (V2 was not tested)
06 [d0e0de01] (00/15) No match (V2 was not tested)
07 [a2cde6e1] (00/15) No match (V2 was not tested)
08 [ca6c198e] (00/15) No match (V2 was not tested)
09 [48d4727a] (00/15) No match (V2 was not tested)
10 [238ea240] (00/15) No match (V2 was not tested)
11 [dadc1ce4] (00/15) No match (V2 was not tested)
12 [35483472] (00/15) No match (V2 was not tested)
13 [dceb0211] (00/15) No match (V2 was not tested)
14 [238bd11c] (00/15) No match (V2 was not tested)
15 [f505dbbf] (00/15) No match (V2 was not tested)
16 [d77a5d7b] (00/15) No match (V2 was not tested)
17 [a70c6c43] (00/15) No match (V2 was not tested)
18 [20ac76f9] (00/14) No match (V2 was not tested)
19 [5b0da25f] (00/15) No match (V2 was not tested)
20 [670b7ed7] (00/15) No match (V2 was not tested)
21 [8f9b0d04] (00/15) No match (V2 was not tested)
22 [45c264e8] (00/15) No match (V2 was not tested)
Offsetted by 664:
01 [f79112ce] (00/15) No match (V2 was not tested)
02 [a064fed7] (00/15) No match (V2 was not tested)
03 [7364d56e] (00/15) No match (V2 was not tested)
04 [ad87478f] (00/15) No match (V2 was not tested)
05 [253d1205] (00/15) No match (V2 was not tested)
06 [ace9e3ad] (00/15) No match (V2 was not tested)
07 [8f608a19] (00/15) No match (V2 was not tested)
08 [b2442796] (00/15) No match (V2 was not tested)
09 [4fe0d5b2] (00/15) No match (V2 was not tested)
10 [71b8f778] (00/15) No match (V2 was not tested)
11 [10e97ab4] (00/15) No match (V2 was not tested)
12 [00256fde] (00/15) No match (V2 was not tested)
13 [6483aa85] (00/15) No match (V2 was not tested)
14 [f4c5db10] (00/15) No match (V2 was not tested)
15 [62135bef] (00/15) No match (V2 was not tested)
16 [ed344c27] (00/15) No match (V2 was not tested)
17 [24ebb1af] (00/15) No match (V2 was not tested)
18 [f7a3f491] (00/14) No match (V2 was not tested)
19 [a4c7ea2b] (00/15) No match (V2 was not tested)
20 [9f4c778f] (00/15) No match (V2 was not tested)
21 [dca30ff0] (00/15) No match (V2 was not tested)
22 [1fceccc8] (00/15) No match (V2 was not tested)

Track Peak [ CRC32 ] [W/O NULL] [ LOG ]
– 98,8 [090D821C] [04A7BE2B] CRC32
01 78,1 [306D882A] [A3A8295A]
02 78,1 [53B06BFE] [7B615069]
03 78,1 [6FE0DBC0] [49F6E870]
04 78,0 [48BC81C7] [E45456DB]
05 78,1 [DD28B64C] [22895DE1]
06 78,1 [B302C083] [CB90454F]
07 78,0 [715AAD5B] [CC15CD01]
08 78,2 [8E88217A] [AD920453]
09 78,1 [AAD2019D] [AAFF34B4]
10 78,1 [97B1FD1B] [C0B45630]
11 98,8 [F71B2285] [E112D9B7]
12 98,8 [D54378FD] [8E591210]
13 78,4 [9A0F28C5] [A00CF739]
14 93,8 [71248300] [FB966392]
15 89,1 [C6751001] [37184BF0]
16 94,5 [F5C7DF77] [8D0D94A0]
17 88,6 [BF94A24C] [E241A0EE]
18 98,8 [9ACDBE0B] [79D1D523]
19 98,8 [128B3463] [AA9D2C7D]
20 98,8 [30A4B90C] [CF9EEE04]
21 68,4 [F4D3B2FF] [33B7D2B0]
22 98,8 [74D68AE0] [FE441E28]

All thanks go to sergych

>>> Oscar Peterson in my Blog <<<

DOWNLOAD: