Tags
Language
Tags

Masayuki Takayanagi & New Directions - Independence: Tread on Sure Ground (1970) [Japanese Edition 2007] (Re-up)

Posted By: gribovar
Masayuki Takayanagi & New Directions - Independence: Tread on Sure Ground (1970) [Japanese Edition 2007] (Re-up)

Masayuki Takayanagi & New Directions - Independence: Tread on Sure Ground (1970) [Japanese Edition 2007]
EAC Rip | FLAC (tracks+.cue+log) - 248 MB | MP3 CBR 320 kbps (LAME 3.93) - 106 MB | Covers - 45 MB
Genre: Avant-garde Jazz, Free Jazz | RAR 3% Rec. | Label: Tiliqua Records (TILAR-5008)

Legendary Japanese jazz guitarist Masayuki Takayanagi formed the New Directions trio in 1969, with Motoharu Yoshizawa on bass and cello and Yoshisaburo Toyozumi on percussion. Their first recordings together were published a year later on the original issue of this wonderful album. Takayanagi was prominent in the Japanese swing and bebop scenes from the 1950s onwards, but found a new lease of life in the uninhibited improv of New Directions, a platform he could use to divorce his playing not only from the conventional harmonics of jazz, but even the shackles of his own instrument, using violin bows and table-top guitars in the style of Keith Rowe. Consequently the dynamics of Takayanagi's performance tend towards feedback and heavy waves of noise - pretty radical for its time. There are a couple of beautiful solo guitar miniatures in there too: both 'Sick… Sick… Sickness… My Aunt' and 'Deepening Swamp' sounding at once visceral yet strangely refined. The relationship between the guitar and Yoshizawa's strings elsewhere make for some pretty radical textural upheaval, particularly on the incredible 'Harman's Pipe Of Spain', in which Takayanagi makes like Derek Bailey, scraping and yanking his way through the piece, but with a few glimmers of his wonderful technique thrown in along the way. A remarkable free jazz recording this, and one which doesn't sound at all like the fruits of a single, spontaneous session, but rather a laboured and varied sequence of recordings.
Tracklist:
01. The Galactic System
02. Sick…Sick…Sickness…My Aunt
03. Study No.3 Up and Down
04. Herdsman's Pipe of Spain
05. Deepnight…Swamp
06. Piranha
07. Mass Projection

Total time: 45:06

Exact Audio Copy V1.0 beta 3 from 29. August 2011

EAC extraction logfile from 5. February 2012, 11:04

Masayuki Takayanagi and New Directions / Independence: Tread On Sure Ground

Used drive : Optiarc DVD RW AD-7585H Adapter: 0 ID: 1

Read mode : Secure
Utilize accurate stream : Yes
Defeat audio cache : Yes
Make use of C2 pointers : No

Read offset correction : 6
Overread into Lead-In and Lead-Out : No
Fill up missing offset samples with silence : Yes
Delete leading and trailing silent blocks : No
Null samples used in CRC calculations : Yes
Used interface : Native Win32 interface for Win NT & 2000
Gap handling : Appended to previous track

Used output format : User Defined Encoder
Selected bitrate : 128 kBit/s
Quality : High
Add ID3 tag : No
Command line compressor : C:\Program Files (x86)\Exact Audio Copy\Flac\flac.exe
Additional command line options : -8 -V -T "ARTIST=%artist%" -T "TITLE=%title%" -T "ALBUM=%albumtitle%" -T "DATE=%year%" -T "TRACKNUMBER=%tracknr%" -T "GENRE=%genre%" -T "PERFORMER=%albuminterpret%" -T "COMPOSER=%composer%" %haslyrics%–tag-from-file=LYRICS="%lyricsfile%"%haslyrics% -T "ALBUMARTIST=%albumartist%" -T "DISCNUMBER=%cdnumber%" -T "TOTALDISCS=%totalcds%" -T "TOTALTRACKS=%numtracks%" -T "COMMENT=EAC V1.0 beta 3, Secure Mode, Test & Copy, AccurateRip, FLAC -8" %source% -o %dest%


TOC of the extracted CD

Track | Start | Length | Start sector | End sector
––––––––––––––––––––––––––––-
1 | 0:00.00 | 11:28.00 | 0 | 51599
2 | 11:28.00 | 1:14.00 | 51600 | 57149
3 | 12:42.00 | 5:58.00 | 57150 | 83999
4 | 18:40.00 | 6:47.00 | 84000 | 114524
5 | 25:27.00 | 1:25.00 | 114525 | 120899
6 | 26:52.00 | 13:22.00 | 120900 | 181049
7 | 40:14.00 | 4:52.00 | 181050 | 202949


Track 1

Filename C:\EAC Rips\01 - The Galactic System.wav

Pre-gap length 0:00:02.00

Peak level 98.0 %
Extraction speed 3.1 X
Track quality 100.0 %
Test CRC 1238A91D
Copy CRC 1238A91D
Accurately ripped (confidence 2) [C0E7B66B] (AR v1)
Copy OK

Track 2

Filename C:\EAC Rips\02 - Sick…Sick…Sickness…My Aunt.wav

Peak level 98.1 %
Extraction speed 1.6 X
Track quality 99.8 %
Test CRC 2AF4F794
Copy CRC 2AF4F794
Accurately ripped (confidence 2) [A43C3EF4] (AR v1)
Copy OK

Track 3

Filename C:\EAC Rips\03 - Study No.3 Up And Down.wav

Peak level 98.0 %
Extraction speed 3.6 X
Track quality 100.0 %
Test CRC 63AEF089
Copy CRC 63AEF089
Accurately ripped (confidence 2) [BDB5DF0A] (AR v1)
Copy OK

Track 4

Filename C:\EAC Rips\04 - Herdsman's Pipe Of Spain.wav

Peak level 97.9 %
Extraction speed 3.5 X
Track quality 99.9 %
Test CRC 431C2BF2
Copy CRC 431C2BF2
Accurately ripped (confidence 2) [1706C045] (AR v1)
Copy OK

Track 5

Filename C:\EAC Rips\05 - Deepnight…Swamp.wav

Peak level 98.1 %
Extraction speed 2.1 X
Track quality 99.8 %
Test CRC 2F6B377F
Copy CRC 2F6B377F
Accurately ripped (confidence 2) [F67AE619] (AR v1)
Copy OK

Track 6

Filename C:\EAC Rips\06 - Piranha.wav

Peak level 98.0 %
Extraction speed 4.6 X
Track quality 100.0 %
Test CRC 8F276DFF
Copy CRC 8F276DFF
Accurately ripped (confidence 2) [E34E80EB] (AR v1)
Copy OK

Track 7

Filename C:\EAC Rips\07 - Mass Projection.wav

Peak level 98.1 %
Extraction speed 4.6 X
Track quality 100.0 %
Test CRC C028334A
Copy CRC C028334A
Accurately ripped (confidence 2) [B0BABBF8] (AR v1)
Copy OK


All tracks accurately ripped

No errors occurred

End of status report

–– CUETools DB Plugin V2.1.3

[CTDB TOCID: CNgIkMUWLTRyfYXyRtJVOhqgFII-] disk not present in database, Submit result: CNgIkMUWLTRyfYXyRtJVOhqgFII- has been uploaded


==== Log checksum 4550AA8DCF5F20B98D2961A8872656F7FAEC3852B75AA8C8341D8B1CFB8AB763 ====

[CUETools log; Date: 24.05.2022 15:10:11; Version: 2.1.4]
[CTDB TOCID: CNgIkMUWLTRyfYXyRtJVOhqgFII-] found.
Track | CTDB Status
1 | (12/12) Accurately ripped
2 | (12/12) Accurately ripped
3 | (12/12) Accurately ripped
4 | (12/12) Accurately ripped
5 | (12/12) Accurately ripped
6 | (12/12) Accurately ripped
7 | (12/12) Accurately ripped
[AccurateRip ID: 000c648f-00493c8a-520a9207] found.
Track [ CRC | V2 ] Status
01 [c0e7b66b|5aeb16a1] (2+0/2) Accurately ripped
02 [a43c3ef4|3ed722f4] (2+0/2) Accurately ripped
03 [bdb5df0a|19cedfc2] (2+0/2) Accurately ripped
04 [1706c045|1a93ed39] (2+0/2) Accurately ripped
05 [f67ae619|85cacd98] (2+0/2) Accurately ripped
06 [e34e80eb|418362e9] (2+0/2) Accurately ripped
07 [b0babbf8|2c67bc89] (2+0/2) Accurately ripped

Track Peak [ CRC32 ] [W/O NULL] [ LOG ]
– 98,1 [61D5B6C8] [D587723B]
01 98,0 [1238A91D] [044B9D78] CRC32
02 98,1 [2AF4F794] [6ED449C2] CRC32
03 98,0 [63AEF089] [9B43A6ED] CRC32
04 97,9 [431C2BF2] [DF1B4CB9] CRC32
05 98,1 [2F6B377F] [D1265E50] CRC32
06 98,0 [8F276DFF] [DC732210] CRC32
07 98,1 [C028334A] [041F913F] CRC32

Thanks to dashdash