Tags
Language
Tags
February 2023
Su Mo Tu We Th Fr Sa
29 30 31 1 2 3 4
5 6 7 8 9 10 11
12 13 14 15 16 17 18
19 20 21 22 23 24 25
26 27 28 1 2 3 4

Horst-Tanu Margraf, Händel-Festspielorchester Halle - George Frideric Handel: Radamisto (1998)

Posted By: ArlegZ
Horst-Tanu Margraf, Händel-Festspielorchester Halle - George Frideric Handel: Radamisto (1998)

Horst-Tanu Margraf, Händel-Festspielorchester Halle - George Frideric Handel: Radamisto (1998)
EAC | FLAC | Image (Cue & Log) ~ 911 Mb | Total time: 49:03+69:17+58:44 | Scans included
Classical | Label: Berlin Classics | # 0093342BC | Recorded: 1962

'Radamisto' was the first opera Handel composed for the Royal Academy, his first operatic venture in London, being produced for the first time in 1719; it was revived and revised in 1720, 1721 and 1728. This Berlin Classics recording, dating from 1962, presents an adaptation of the 1721 version, which drops a minor character, Fraarte. More importantly, in addition to the use of modern instruments and a chorus (in general Handel's chorus was assembled from the soloists–opera in eighteenth century London was a commercial venture so personnel was kept to a minimum), the libretto is translated into German and all the castrato roles are transposed down into either tenor or bass registers. The result, while nothing Handel would have recognized, is in keeping with the spirit of free adaptation that reigned in 18th-century opera. As such it is reasonably well done if a bit heavy for contemporary tastes. The German language sits heavily on the music and renders the coloratura a weightier tone than is expected in this music.
–Arkivmusic


Performer:
Polissena - Hanne-Lore Kuhse, soprano
Zenobia - Sigrid Kehl, alto
Tigrane - Rolf Apreck, tenor
Radamisto - Hellmuth Kaphahn, bass
Farasmane - Reiner Süß, bass
Tiridate - Günther Leib, baritone
Robert Köbler, harpsichord
Rundfunkchor Leipzig
Händel-Festspielorchester Halle
Conductor - Horst-Tanu Margraf

Tracklist:
George Frideric Handel (1685-1759)
Radamisto, HWV 12
CD1:
01. Ersten Akt. Ouvertüre
02. Arioso: Helft, o Götter! (Polissena)
03. Rezitativ: O Fürstin, verzeih die Störung (Tigrane, Polissena)
04. Arie: Hor meine Worte an (Tigrane)
05. Rezitativ: Ja! Heute muß Radamisto fallen (Tiridate, Polissena)
06. Arie: Du heißest mich gehen! (Polissena)
07. Rezitativ: Läßt du mich holen, Eidam (Farasmane, Tiridate)
08. Arie: Ja, ich werde triumphieren (Tiridate)
09. Rezitativ: Du darfst mir jetzt nicht fiolgen! (Radamisto, Zenobia)
10. Arie: Laß die Hoffnung nicht entschwinden (Radamisto)
11. Rezitativ: Soladten, hört: diese Stadt muß fallen (Tigrane, Zenobia, Radamisto, Farasmane)
12. Arie: Ja, es muß, es muß geschehen (Zenobia)
13. Rezitativ: Wo bist du, mein Sohn? (Farasmane, Radamisto, Tigrane)
14. Sinfonia
15. Rezitativ: Sieg! Der Feind ist geschlagen! (Tiridate, Tigrane, Polissena)
16. Arie: Stille der Tränen Lauf! (Tigrane)
CD2:
01. Rezitativ: Er sagt die Wahrheit (Polissena)
02. Arie: Darf ich mich in Hoffnung wiegen? (Polissena)
03. Rezitativ: Warte, nur kurze Rast (Zenobia, Radamisto)
04. Arioso: O, wie hart sind wir geschlagen (Zenobia)
05. Rezitativ: Sie kommen, uns zu fangen (Radamisto, Zenobia)
06. Arie: O Zenobia! (Radamisto)
07. Rezitativ: Soldaten, laßt ab (Tigrane, Radamisto)
08. Arie: Höchste Wonne ist, ihr zu dienen (Tigrane)
09. Zweiter Akt. Rezitativ: König! Nun sprich, was gibt es (Tigrane, Tiridate, Zenobia)
10. Arie: Ja, du ergibst dich mir (Tiridate)
11. Rezitativ: Nichts mehr bleibt mir zu hoffen (Zenobia)
12. Arie: Der Sturm meiner Schmerzen (Zenobia)
13. Rezitativ: Teure Fürstin, erlaubet (Tigrane, Polissena, Radamisto)
14. Arie: Weh, du verrätst uns alle (Radamisto)
15. Rezitativ: Zwischen Bruder und Gatten (Polissena)
16. Arie: Ach, wie kann ich es ertragen (Polissena)
17. Rezitativ: Komm, setz dich! (Tiridate, Zenobia, Tigrane, Radamisto)
18. Arie: Wag's nicht, du bist mir so verhaßt! (Zenobia)
19. Rezitativ: Hör zu, merk auf (Tiridate)
20. Rezitativ: O Götter, gebt mir Kraft (Zenobia, Radamisto)
21. Duett: Wir sind vereint aufs neu (Zenobia, Radamisto)
CD3:
01. Dritter Akt. Arioso: Warten und Hoffen (Polissena)
02. Rezitativ: Polissena, der König (Tigrane, Polissena)
03. Arie: Wer kennt des Menschen Herz? (Polissena)
04. Rezitativ: Diese herrliche Frau soll das erdulden? (Tigrane)
05. Arie: Jetzt muß ich mit ihm brechen! (Tigrane)
06. Rezitativ: Du schöne Herrin (Tiridate, Zenobia, Radamisto, Polissena)
07. Arie: Ja, blick ihm nach (Tiridate)
08. Rezitativ: Doch halt! (Tiridate, Polissena)
09. Arie: Ja, nun muß ich gehen! (Polissena)
10. Rezitativ: Mein Radamisto, hier bin ich! (Zenobia, Radamisto)
11. Arie: Jetzt mußt du doch von mir scheiden (Zenobia)
12. Rezitativ: Da liegt sie stumm und von Sinnen (Radamisto)
13. Arie: Jetzt ruhe, jetzt schlafe! (Radamisto)
14. Rezitativ: Die Truppen Tiridates sind in meiner Hand (Tigrane, Farasmane)
15. Arie: Gefallen sind die Ketten (Farasmane)
16. Rezitativ: Nun sprich, Zenobia (Tiridate, Zenobia, Radamisto, Farasmane, Polissena)
17. Quartett: Das Schwert leg ab, sofort! (Radamisto, Polissena, Zenobia, Tiridate)
18. Rezitativ: Wie steht es? Ist er bereit? (Tigrane, Tiridate, Polissena, Farasmane, Radamisto)
19. Chor und Soli: Jetzt enden die Leiden (Chor, Zenobia, Radamisto, Polissena, Tiridate)


Exact Audio Copy V1.6 from 23. October 2020

EAC extraction logfile from 24. November 2022, 18:34

Horst-Tanu Margraf, Halle Handel Festival Orchestra / Handel: Radamisto CD1

Used drive : PIONEER DVD-RW DVR-218L Adapter: 1 ID: 0

Read mode : Secure
Utilize accurate stream : Yes
Defeat audio cache : Yes
Make use of C2 pointers : No

Read offset correction : 6
Overread into Lead-In and Lead-Out : No
Fill up missing offset samples with silence : Yes
Delete leading and trailing silent blocks : No
Null samples used in CRC calculations : Yes
Used interface : Native Win32 interface for Win NT & 2000

Used output format : User Defined Encoder
Selected bitrate : 768 kBit/s
Quality : High
Add ID3 tag : No
Command line compressor : C:\Program Files\Exact Audio Copy\FLAC\FLAC.EXE
Additional command line options : -6 -V -T "ARTIST=%artist%" -T "TITLE=%title%" -T "ALBUM=%albumtitle%" -T "DATE=%year%" -T "TRACKNUMBER=%tracknr%" -T "GENRE=%genre%" -T "COMMENT=%comment%" -T "BAND=%albuminterpret%" -T "ALBUMARTIST=%albuminterpret%" -T "COMPOSER=%composer%" %haslyrics%–tag-from-file=LYRICS="%lyricsfile%"%haslyrics% -T "DISCNUMBER=%cdnumber%" -T "TOTALDISCS=%totalcds%" -T "TOTALTRACKS=%numtracks%" %hascover%–picture="%coverfile%"%hascover% %source% -o %dest%


TOC of the extracted CD

Track | Start | Length | Start sector | End sector
––––––––––––––––––––––––––––-
1 | 0:00.00 | 4:07.62 | 0 | 18586
2 | 4:07.62 | 3:15.48 | 18587 | 33259
3 | 7:23.35 | 1:20.10 | 33260 | 39269
4 | 8:43.45 | 4:54.19 | 39270 | 61338
5 | 13:37.64 | 1:18.61 | 61339 | 67249
6 | 14:56.50 | 4:13.45 | 67250 | 86269
7 | 19:10.20 | 2:06.40 | 86270 | 95759
8 | 21:16.60 | 4:32.27 | 95760 | 116186
9 | 25:49.12 | 1:11.20 | 116187 | 121531
10 | 27:00.32 | 2:40.23 | 121532 | 133554
11 | 29:40.55 | 2:36.47 | 133555 | 145301
12 | 32:17.27 | 4:53.65 | 145302 | 167341
13 | 37:11.17 | 1:53.38 | 167342 | 175854
14 | 39:04.55 | 0:41.45 | 175855 | 178974
15 | 39:46.25 | 3:14.20 | 178975 | 193544
16 | 43:00.45 | 6:00.45 | 193545 | 220589


Range status and errors

Selected range

Filename D:\ArlegZ\Handel - Radamisto - Horst-Tanu Margraf CD1.wav

Peak level 94.6 %
Extraction speed 1.7 X
Range quality 99.9 %
Test CRC FE13EE79
Copy CRC FE13EE79
Copy OK

No errors occurred


AccurateRip summary

Track 1 accurately ripped (confidence 4) [80FB0572] (AR v2)
Track 2 accurately ripped (confidence 4) [B69175B0] (AR v2)
Track 3 accurately ripped (confidence 4) [CC7604EF] (AR v2)
Track 4 accurately ripped (confidence 4) [37029E32] (AR v2)
Track 5 accurately ripped (confidence 4) [812F1B59] (AR v2)
Track 6 accurately ripped (confidence 4) [6B6D62FA] (AR v2)
Track 7 accurately ripped (confidence 4) [5177D405] (AR v2)
Track 8 accurately ripped (confidence 4) [92CEE225] (AR v2)
Track 9 accurately ripped (confidence 4) [AFC2E10D] (AR v2)
Track 10 accurately ripped (confidence 4) [75643E50] (AR v2)
Track 11 accurately ripped (confidence 4) [C6E16F3F] (AR v2)
Track 12 accurately ripped (confidence 4) [B6763558] (AR v2)
Track 13 accurately ripped (confidence 4) [C15F1D43] (AR v2)
Track 14 accurately ripped (confidence 4) [C2756E54] (AR v2)
Track 15 accurately ripped (confidence 4) [B36279EC] (AR v2)
Track 16 accurately ripped (confidence 4) [642DB6C1] (AR v2)

All tracks accurately ripped

End of status report

–– CUETools DB Plugin V2.1.6

[CTDB TOCID: lD4flRSDQN2ndN3sX9glF_gSDPs-] found
Submit result: lD4flRSDQN2ndN3sX9glF_gSDPs- has been confirmed
Track | CTDB Status
1 | (12/12) Accurately ripped
2 | (12/12) Accurately ripped
3 | (12/12) Accurately ripped
4 | (12/12) Accurately ripped
5 | (12/12) Accurately ripped
6 | (12/12) Accurately ripped
7 | (12/12) Accurately ripped
8 | (12/12) Accurately ripped
9 | (12/12) Accurately ripped
10 | (12/12) Accurately ripped
11 | (12/12) Accurately ripped
12 | (12/12) Accurately ripped
13 | (12/12) Accurately ripped
14 | (12/12) Accurately ripped
15 | (12/12) Accurately ripped
16 | (12/12) Accurately ripped


==== Log checksum 30D7C021A9F8B3FAE64D69C26AC5A47421035AC7CD9CA86A0BDD44B3C6827A60 ====


Exact Audio Copy V1.6 from 23. October 2020

EAC extraction logfile from 24. November 2022, 19:50

Horst-Tanu Margraf, Halle Handel Festival Orchestra / Handel: Radamisto CD2

Used drive : PIONEER DVD-RW DVR-218L Adapter: 1 ID: 0

Read mode : Secure
Utilize accurate stream : Yes
Defeat audio cache : Yes
Make use of C2 pointers : No

Read offset correction : 6
Overread into Lead-In and Lead-Out : No
Fill up missing offset samples with silence : Yes
Delete leading and trailing silent blocks : No
Null samples used in CRC calculations : Yes
Used interface : Native Win32 interface for Win NT & 2000

Used output format : User Defined Encoder
Selected bitrate : 768 kBit/s
Quality : High
Add ID3 tag : No
Command line compressor : C:\Program Files\Exact Audio Copy\FLAC\FLAC.EXE
Additional command line options : -6 -V -T "ARTIST=%artist%" -T "TITLE=%title%" -T "ALBUM=%albumtitle%" -T "DATE=%year%" -T "TRACKNUMBER=%tracknr%" -T "GENRE=%genre%" -T "COMMENT=%comment%" -T "BAND=%albuminterpret%" -T "ALBUMARTIST=%albuminterpret%" -T "COMPOSER=%composer%" %haslyrics%–tag-from-file=LYRICS="%lyricsfile%"%haslyrics% -T "DISCNUMBER=%cdnumber%" -T "TOTALDISCS=%totalcds%" -T "TOTALTRACKS=%numtracks%" %hascover%–picture="%coverfile%"%hascover% %source% -o %dest%


TOC of the extracted CD

Track | Start | Length | Start sector | End sector
––––––––––––––––––––––––––––-
1 | 0:00.00 | 0:40.60 | 0 | 3059
2 | 0:40.60 | 6:13.57 | 3060 | 31091
3 | 6:54.42 | 1:17.40 | 31092 | 36906
4 | 8:12.07 | 3:16.55 | 36907 | 51661
5 | 11:28.62 | 1:52.30 | 51662 | 60091
6 | 13:21.17 | 7:13.43 | 60092 | 92609
7 | 20:34.60 | 1:05.72 | 92610 | 97556
8 | 21:40.57 | 9:15.70 | 97557 | 139251
9 | 30:56.52 | 2:21.63 | 139252 | 149889
10 | 33:18.40 | 3:40.37 | 149890 | 166426
11 | 36:59.02 | 0:47.30 | 166427 | 169981
12 | 37:46.32 | 5:25.55 | 169982 | 194411
13 | 43:12.12 | 2:13.58 | 194412 | 204444
14 | 45:25.70 | 3:23.62 | 204445 | 219731
15 | 48:49.57 | 0:32.18 | 219732 | 222149
16 | 49:22.00 | 5:55.67 | 222150 | 248841
17 | 55:17.67 | 5:51.23 | 248842 | 275189
18 | 61:09.15 | 2:22.40 | 275190 | 285879
19 | 63:31.55 | 0:47.52 | 285880 | 289456
20 | 64:19.32 | 1:28.38 | 289457 | 296094
21 | 65:47.70 | 3:27.22 | 296095 | 311641


Range status and errors

Selected range

Filename D:\ArlegZ\Handel - Radamisto - Horst-Tanu Margraf CD2.wav

Peak level 99.8 %
Extraction speed 2.0 X
Range quality 100.0 %
Test CRC 437FCC3C
Copy CRC 437FCC3C
Copy OK

No errors occurred


AccurateRip summary

Track 1 accurately ripped (confidence 4) [466D173C] (AR v2)
Track 2 accurately ripped (confidence 4) [B7F62C68] (AR v2)
Track 3 accurately ripped (confidence 4) [AD3817D3] (AR v2)
Track 4 accurately ripped (confidence 4) [C15B9F5A] (AR v2)
Track 5 accurately ripped (confidence 4) [56D93169] (AR v2)
Track 6 accurately ripped (confidence 4) [91AC6AB4] (AR v2)
Track 7 accurately ripped (confidence 4) [8179C233] (AR v2)
Track 8 accurately ripped (confidence 4) [D92C61C1] (AR v2)
Track 9 accurately ripped (confidence 4) [90C68C50] (AR v2)
Track 10 accurately ripped (confidence 4) [FDC5C539] (AR v2)
Track 11 accurately ripped (confidence 4) [271A9D0A] (AR v2)
Track 12 accurately ripped (confidence 4) [3375EBB1] (AR v2)
Track 13 accurately ripped (confidence 4) [BE8B15C3] (AR v2)
Track 14 accurately ripped (confidence 4) [2D623767] (AR v2)
Track 15 accurately ripped (confidence 4) [EE85266A] (AR v2)
Track 16 accurately ripped (confidence 4) [F42F112B] (AR v2)
Track 17 accurately ripped (confidence 4) [2A6D221C] (AR v2)
Track 18 accurately ripped (confidence 4) [F51D49C1] (AR v2)
Track 19 accurately ripped (confidence 4) [35574AA9] (AR v2)
Track 20 accurately ripped (confidence 4) [23EA564D] (AR v2)
Track 21 accurately ripped (confidence 4) [23BFA1C1] (AR v2)

All tracks accurately ripped

End of status report

–– CUETools DB Plugin V2.1.6

[CTDB TOCID: W_IYBTWO59ran.AB7YqsfvnXoKI-] found
Submit result: W_IYBTWO59ran.AB7YqsfvnXoKI- has been confirmed
Track | CTDB Status
1 | (11/11) Accurately ripped
2 | (10/11) Accurately ripped
3 | (10/11) Accurately ripped
4 | (11/11) Accurately ripped
5 | (11/11) Accurately ripped
6 | (11/11) Accurately ripped
7 | (11/11) Accurately ripped
8 | (10/11) Accurately ripped
9 | (10/11) Accurately ripped
10 | (11/11) Accurately ripped
11 | (11/11) Accurately ripped
12 | (10/11) Accurately ripped
13 | (10/11) Accurately ripped
14 | (11/11) Accurately ripped
15 | (11/11) Accurately ripped
16 | (10/11) Accurately ripped
17 | (10/11) Accurately ripped
18 | (11/11) Accurately ripped
19 | (11/11) Accurately ripped
20 | (11/11) Accurately ripped
21 | (11/11) Accurately ripped


==== Log checksum 57A4FBDBB5A92FDE24C00B13B3EFEA87BC4429440A49F862FAA3AC267AD45161 ====


Exact Audio Copy V1.6 from 23. October 2020

EAC extraction logfile from 24. November 2022, 21:21

Horst-Tanu Margraf, Halle Handel Festival Orchestra / Handel: Radamisto CD3

Used drive : PIONEER DVD-RW DVR-218L Adapter: 1 ID: 0

Read mode : Secure
Utilize accurate stream : Yes
Defeat audio cache : Yes
Make use of C2 pointers : No

Read offset correction : 6
Overread into Lead-In and Lead-Out : No
Fill up missing offset samples with silence : Yes
Delete leading and trailing silent blocks : No
Null samples used in CRC calculations : Yes
Used interface : Native Win32 interface for Win NT & 2000

Used output format : User Defined Encoder
Selected bitrate : 768 kBit/s
Quality : High
Add ID3 tag : No
Command line compressor : C:\Program Files\Exact Audio Copy\FLAC\FLAC.EXE
Additional command line options : -6 -V -T "ARTIST=%artist%" -T "TITLE=%title%" -T "ALBUM=%albumtitle%" -T "DATE=%year%" -T "TRACKNUMBER=%tracknr%" -T "GENRE=%genre%" -T "COMMENT=%comment%" -T "BAND=%albuminterpret%" -T "ALBUMARTIST=%albuminterpret%" -T "COMPOSER=%composer%" %haslyrics%–tag-from-file=LYRICS="%lyricsfile%"%haslyrics% -T "DISCNUMBER=%cdnumber%" -T "TOTALDISCS=%totalcds%" -T "TOTALTRACKS=%numtracks%" %hascover%–picture="%coverfile%"%hascover% %source% -o %dest%


TOC of the extracted CD

Track | Start | Length | Start sector | End sector
––––––––––––––––––––––––––––-
1 | 0:00.00 | 2:03.35 | 0 | 9259
2 | 2:03.35 | 2:10.50 | 9260 | 19059
3 | 4:14.10 | 5:55.57 | 19060 | 45741
4 | 10:09.67 | 1:00.48 | 45742 | 50289
5 | 11:10.40 | 4:09.22 | 50290 | 68986
6 | 15:19.62 | 2:51.18 | 68987 | 81829
7 | 18:11.05 | 4:46.65 | 81830 | 103344
8 | 22:57.70 | 1:16.57 | 103345 | 109101
9 | 24:14.52 | 5:11.50 | 109102 | 132476
10 | 29:26.27 | 1:29.13 | 132477 | 139164
11 | 30:55.40 | 4:29.25 | 139165 | 159364
12 | 35:24.65 | 0:44.62 | 159365 | 162726
13 | 36:09.52 | 6:12.33 | 162727 | 190659
14 | 42:22.10 | 0:56.24 | 190660 | 194883
15 | 43:18.34 | 4:23.61 | 194884 | 214669
16 | 47:42.20 | 1:49.70 | 214670 | 222914
17 | 49:32.15 | 3:27.70 | 222915 | 238509
18 | 53:00.10 | 2:36.62 | 238510 | 250271
19 | 55:36.72 | 3:05.00 | 250272 | 264146


Range status and errors

Selected range

Filename D:\ArlegZ\Handel - Radamisto - Horst-Tanu Margraf CD3.wav

Peak level 90.0 %
Extraction speed 1.9 X
Range quality 100.0 %
Test CRC 1AFDD334
Copy CRC 1AFDD334
Copy OK

No errors occurred


AccurateRip summary

Track 1 accurately ripped (confidence 3) [63CC08CB] (AR v2)
Track 2 accurately ripped (confidence 3) [C119B3AA] (AR v2)
Track 3 accurately ripped (confidence 3) [1E766383] (AR v2)
Track 4 accurately ripped (confidence 3) [CDF5277F] (AR v2)
Track 5 accurately ripped (confidence 3) [E4B1C9AC] (AR v2)
Track 6 accurately ripped (confidence 3) [5BE0552B] (AR v2)
Track 7 accurately ripped (confidence 3) [830DE3A5] (AR v2)
Track 8 accurately ripped (confidence 3) [D4AEAFD0] (AR v2)
Track 9 accurately ripped (confidence 3) [78C975DA] (AR v2)
Track 10 accurately ripped (confidence 3) [FD4ADB56] (AR v2)
Track 11 accurately ripped (confidence 3) [9AE6F96E] (AR v2)
Track 12 accurately ripped (confidence 3) [DAB2FDA0] (AR v2)
Track 13 accurately ripped (confidence 3) [9C7978FE] (AR v2)
Track 14 accurately ripped (confidence 3) [AD762E46] (AR v2)
Track 15 accurately ripped (confidence 3) [427E4DCB] (AR v2)
Track 16 accurately ripped (confidence 3) [BE25F36A] (AR v2)
Track 17 accurately ripped (confidence 3) [27DFA332] (AR v2)
Track 18 accurately ripped (confidence 3) [57965A62] (AR v2)
Track 19 accurately ripped (confidence 3) [02B5D612] (AR v2)

All tracks accurately ripped

End of status report

–– CUETools DB Plugin V2.1.6

[CTDB TOCID: orxrCX0zcmEPTKcd86vbuk5VSco-] found
Submit result: orxrCX0zcmEPTKcd86vbuk5VSco- has been confirmed
Track | CTDB Status
1 | (12/13) Accurately ripped
2 | (12/13) Accurately ripped
3 | (12/13) Accurately ripped
4 | (12/13) Accurately ripped
5 | (12/13) Accurately ripped
6 | (12/13) Accurately ripped
7 | (12/13) Accurately ripped
8 | (12/13) Accurately ripped
9 | (11/13) Accurately ripped
10 | (11/13) Accurately ripped
11 | (12/13) Accurately ripped
12 | (12/13) Accurately ripped
13 | (11/13) Accurately ripped
14 | (12/13) Accurately ripped
15 | (11/13) Accurately ripped
16 | (11/13) Accurately ripped
17 | (12/13) Accurately ripped
18 | (12/13) Accurately ripped
19 | (12/13) Accurately ripped


==== Log checksum DD48655E58DEBE55331714B32918042E0E0FF5662E9AE496E78BCE036C1F4E4B ====

Horst-Tanu Margraf, Händel-Festspielorchester Halle - George Frideric Handel: Radamisto (1998)