Tags
Language
Tags
July 2024
Su Mo Tu We Th Fr Sa
30 1 2 3 4 5 6
7 8 9 10 11 12 13
14 15 16 17 18 19 20
21 22 23 24 25 26 27
28 29 30 31 1 2 3

Geff Harrison Band - Together (1977) & Geff Harrison & The London Symphonic Rock Orchestra (1977) [2CD Reissue 2017]

Posted By: gribovar
Geff Harrison Band - Together (1977) & Geff Harrison & The London Symphonic Rock Orchestra (1977) [2CD Reissue 2017]

Geff Harrison Band - Together (1977) & Geff Harrison & The London Symphonic Rock Orchestra (1977) [2CD Reissue 2017] (Re-up)
EAC Rip | FLAC (tracks+.cue+log) - 558 MB | MP3 CBR 320 kbps (LAME 3.93) - 230 MB | Covers - 91 MB
Genre: Psychedelic Rock, Classic Rock, Hard Rock, Symphonic Rock | RAR 3% Rec. | Label: MIG Music (MiG 01942 2CD)

After the success of the re-released first album of Twenty Sixty Six And Then MIG comes up now with a complex Collectors Premium edition of two further classics by Geff Harrison.
After the break-up of Twenty Sixty Six And Then, Geff Harrison became the singer with among other bands Kin Ping Meh, before he made his dream come true: to collaborate with a big orchestra, the London Symphonic-Rock Orchestra. Ralph Siegel was persuaded to finance the whole project. Trevor Jones who had also worked with the Moody Blues sat in the producer’s chair.
It has always been important for Geff Harrison to be present on Europe’s stages. To go on tour with the London Symphonic Rock Orchestra plus a band would have been too expensive. That is why the busy Brit went into the studio for a second time in 1977 to record with his Geff Harrison Band the album “Together”.
Often, Geff has been compared to Rod Stewart. A lot of critics came up with the comparison after listening to the opener of the album “Together”, the midtempo ballad “Red Sky Tonight”. Geff himself always took this quite calmly: “What can I do if my voice sounds practically similar and we accidentally happen to move within the same genre?”
CD 1 Tracklist (Together, 1977):
01. Red Sky Tonight
02. I Know a Bit About Love
03. I Can See the Way
04. Lightning Strikes Twice Every Night
05. Goodbye Mona Lisa
06. Reach Out
07. Rags to Riches
08. Together

Bonus Tracks:
09. You Can't Sell Love
10. Hold On
11. Tell Me Why
12. Time Won't Wait for No One

Total time: 54:00

CD 2 Tracklist (Geff Harrison & The London Symphonic Rock Orchestra, 1977):
01. Love Fell Like Rain
02. Days
03. It's Not Easy for a Singer in a Rock'n Roll Band
04. Stranger in This Town
05. I Wanna Say It with My Music
06. Transatlantic Telephone
07. Love Or Money
08. Heaven

Bonus Tracks:
09. Eve of Destruction
10. How Can You Sleep

Total time: 43:39

Exact Audio Copy V1.0 beta 3 from 29. August 2011

EAC extraction logfile from 15. August 2017, 18:56

Geff Harrison Band / Together

Used drive : _NEC DVD_RW ND-3540A Adapter: 1 ID: 0

Read mode : Secure
Utilize accurate stream : Yes
Defeat audio cache : Yes
Make use of C2 pointers : No

Read offset correction : 48
Overread into Lead-In and Lead-Out : No
Fill up missing offset samples with silence : Yes
Delete leading and trailing silent blocks : No
Null samples used in CRC calculations : Yes
Used interface : Native Win32 interface for Win NT & 2000
Gap handling : Appended to previous track

Used output format : User Defined Encoder
Selected bitrate : 1024 kBit/s
Quality : High
Add ID3 tag : Yes
Command line compressor : C:\Program Files (x86)\Exact Audio Copy\FLAC\FLAC.EXE
Additional command line options : -6 -V -T "ARTIST=%artist%" -T "TITLE=%title%" -T "ALBUM=%albumtitle%" -T "DATE=%year%" -T "TRACKNUMBER=%tracknr%" -T "GENRE=%genre%" -T "COMMENT=%comment%" %hascover%–picture="%coverfile%"%hascover% %source% -o %dest%


TOC of the extracted CD

Track | Start | Length | Start sector | End sector
––––––––––––––––––––––––––––-
1 | 0:00.00 | 4:04.69 | 0 | 18368
2 | 4:04.69 | 5:06.08 | 18369 | 41326
3 | 9:11.02 | 5:11.44 | 41327 | 64695
4 | 14:22.46 | 3:43.29 | 64696 | 81449
5 | 18:06.00 | 7:08.00 | 81450 | 113549
6 | 25:14.00 | 6:03.53 | 113550 | 140827
7 | 31:17.53 | 4:30.38 | 140828 | 161115
8 | 35:48.16 | 2:56.63 | 161116 | 174378
9 | 38:45.04 | 4:11.34 | 174379 | 193237
10 | 42:56.38 | 4:12.57 | 193238 | 212194
11 | 47:09.20 | 3:22.70 | 212195 | 227414
12 | 50:32.15 | 3:28.44 | 227415 | 243058


Track 1

Filename F:\Music\olaf_alien\GEFF HARRISON (2017, MiG)\CD 1 - Geff Harrison Band - Together (1977)\01 - Red Sky Tonight.wav

Pre-gap length 0:00:02.00

Peak level 99.5 %
Extraction speed 4.6 X
Track quality 100.0 %
Test CRC FA26EEB3
Copy CRC FA26EEB3
Track not present in AccurateRip database
Copy OK

Track 2

Filename F:\Music\olaf_alien\GEFF HARRISON (2017, MiG)\CD 1 - Geff Harrison Band - Together (1977)\02 - I Know a Bit About Love.wav

Pre-gap length 0:00:02.00

Peak level 99.5 %
Extraction speed 4.5 X
Track quality 99.9 %
Test CRC 9FD9F9C8
Copy CRC 9FD9F9C8
Track not present in AccurateRip database
Copy OK

Track 3

Filename F:\Music\olaf_alien\GEFF HARRISON (2017, MiG)\CD 1 - Geff Harrison Band - Together (1977)\03 - I Can See the Way.wav

Pre-gap length 0:00:02.00

Peak level 99.5 %
Extraction speed 5.8 X
Track quality 100.0 %
Test CRC 398B135E
Copy CRC 398B135E
Track not present in AccurateRip database
Copy OK

Track 4

Filename F:\Music\olaf_alien\GEFF HARRISON (2017, MiG)\CD 1 - Geff Harrison Band - Together (1977)\04 - Lightning Strikes Twice Every Night.wav

Pre-gap length 0:00:02.00

Peak level 99.5 %
Extraction speed 5.9 X
Track quality 100.0 %
Test CRC A30339BD
Copy CRC A30339BD
Track not present in AccurateRip database
Copy OK

Track 5

Filename F:\Music\olaf_alien\GEFF HARRISON (2017, MiG)\CD 1 - Geff Harrison Band - Together (1977)\05 - Goodbye Mona Lisa.wav

Pre-gap length 0:00:02.00

Peak level 99.5 %
Extraction speed 6.7 X
Track quality 100.0 %
Test CRC F3DAE478
Copy CRC F3DAE478
Track not present in AccurateRip database
Copy OK

Track 6

Filename F:\Music\olaf_alien\GEFF HARRISON (2017, MiG)\CD 1 - Geff Harrison Band - Together (1977)\06 - Reach Out.wav

Pre-gap length 0:00:02.00

Peak level 99.5 %
Extraction speed 7.2 X
Track quality 100.0 %
Test CRC 6CF62466
Copy CRC 6CF62466
Track not present in AccurateRip database
Copy OK

Track 7

Filename F:\Music\olaf_alien\GEFF HARRISON (2017, MiG)\CD 1 - Geff Harrison Band - Together (1977)\07 - Rags to Riches.wav

Pre-gap length 0:00:02.00

Peak level 99.5 %
Extraction speed 7.3 X
Track quality 100.0 %
Test CRC 1AD50525
Copy CRC 1AD50525
Track not present in AccurateRip database
Copy OK

Track 8

Filename F:\Music\olaf_alien\GEFF HARRISON (2017, MiG)\CD 1 - Geff Harrison Band - Together (1977)\08 - Together.wav

Pre-gap length 0:00:02.00

Peak level 99.5 %
Extraction speed 7.1 X
Track quality 100.0 %
Test CRC EAA1917C
Copy CRC EAA1917C
Track not present in AccurateRip database
Copy OK

Track 9

Filename F:\Music\olaf_alien\GEFF HARRISON (2017, MiG)\CD 1 - Geff Harrison Band - Together (1977)\09 - You Can't Sell Love (bonus).wav

Pre-gap length 0:00:02.00

Peak level 99.5 %
Extraction speed 7.6 X
Track quality 100.0 %
Test CRC 03E44599
Copy CRC 03E44599
Track not present in AccurateRip database
Copy OK

Track 10

Filename F:\Music\olaf_alien\GEFF HARRISON (2017, MiG)\CD 1 - Geff Harrison Band - Together (1977)\10 - Hold On (bonus).wav

Pre-gap length 0:00:02.00

Peak level 99.5 %
Extraction speed 7.4 X
Track quality 100.0 %
Test CRC F41B5DC8
Copy CRC F41B5DC8
Track not present in AccurateRip database
Copy OK

Track 11

Filename F:\Music\olaf_alien\GEFF HARRISON (2017, MiG)\CD 1 - Geff Harrison Band - Together (1977)\11 - Tell Me Why (bonus).wav

Pre-gap length 0:00:02.00

Peak level 99.5 %
Extraction speed 7.4 X
Track quality 100.0 %
Test CRC E500A4FA
Copy CRC E500A4FA
Track not present in AccurateRip database
Copy OK

Track 12

Filename F:\Music\olaf_alien\GEFF HARRISON (2017, MiG)\CD 1 - Geff Harrison Band - Together (1977)\12 - Time Won't Wait for No One (bonus).wav

Pre-gap length 0:00:02.00

Peak level 99.5 %
Extraction speed 7.9 X
Track quality 100.0 %
Test CRC 85804A88
Copy CRC 85804A88
Track not present in AccurateRip database
Copy OK


None of the tracks are present in the AccurateRip database

No errors occurred

End of status report

–– CUETools DB Plugin V2.1.4

[CTDB TOCID: f2a3Ly53kkhbzFSaXwqZBB0YwvQ-] found
Submit result: f2a3Ly53kkhbzFSaXwqZBB0YwvQ- has been confirmed
Track | CTDB Status
1 | (1/1) Accurately ripped
2 | (1/1) Accurately ripped
3 | (1/1) Accurately ripped
4 | (1/1) Accurately ripped
5 | (1/1) Accurately ripped
6 | (1/1) Accurately ripped
7 | (1/1) Accurately ripped
8 | (1/1) Accurately ripped
9 | (1/1) Accurately ripped
10 | (1/1) Accurately ripped
11 | (1/1) Accurately ripped
12 | (1/1) Accurately ripped


==== Log checksum F23511AFB875371EAD9005F2A5FEFC78208EA9699840EFAE72B8A09A0C3DB425 ====

[CUETools log; Date: 13.06.2024 12:39:33; Version: 2.1.4]
[CTDB TOCID: f2a3Ly53kkhbzFSaXwqZBB0YwvQ-] found.
Track | CTDB Status
1 | (4/4) Accurately ripped
2 | (4/4) Accurately ripped
3 | (4/4) Accurately ripped
4 | (4/4) Accurately ripped
5 | (4/4) Accurately ripped
6 | (4/4) Accurately ripped
7 | (4/4) Accurately ripped
8 | (4/4) Accurately ripped
9 | (4/4) Accurately ripped
10 | (4/4) Accurately ripped
11 | (4/4) Accurately ripped
12 | (4/4) Accurately ripped
[AccurateRip ID: 001981c6-00eca005-a80ca80c] found.
Track [ CRC | V2 ] Status
01 [901a110b|6bd173f2] (0+2/2) Accurately ripped
02 [a4588e3a|703abea3] (0+2/2) Accurately ripped
03 [c3a60e64|ed2a5b76] (0+2/2) Accurately ripped
04 [2ae1e0c1|f40743fd] (0+2/2) Accurately ripped
05 [75949a00|bc09ea08] (0+2/2) Accurately ripped
06 [6ede1c8e|6edb955d] (0+2/2) Accurately ripped
07 [aa7ca243|7dfe19dc] (0+2/2) Accurately ripped
08 [a20c8c5a|d97933a8] (0+2/2) Accurately ripped
09 [59c0b607|147d0cdc] (0+2/2) Accurately ripped
10 [64c0db48|ae980da4] (0+2/2) Accurately ripped
11 [69bc3e1c|5e07fcbd] (0+2/2) Accurately ripped
12 [32e95cf1|9fe5c79f] (0+2/2) Accurately ripped

Track Peak [ CRC32 ] [W/O NULL] [ LOG ]
– 99,5 [D78D5575] [5B485D2C]
01 99,5 [FA26EEB3] [0279FB92] CRC32
02 99,5 [9FD9F9C8] [C55B5953] CRC32
03 99,5 [398B135E] [EC936C79] CRC32
04 99,5 [A30339BD] [DBECA1FF] CRC32
05 99,5 [F3DAE478] [D35A9205] CRC32
06 99,5 [6CF62466] [C18F4EDB] CRC32
07 99,5 [1AD50525] [6E61F06F] CRC32
08 99,5 [EAA1917C] [B6907063] CRC32
09 99,5 [03E44599] [9CD971A3] CRC32
10 99,5 [F41B5DC8] [C1ED1FA7] CRC32
11 99,5 [E500A4FA] [3B0644E8] CRC32
12 99,5 [85804A88] [DCBAF9E0] CRC32

Exact Audio Copy V1.0 beta 3 from 29. August 2011

EAC extraction logfile from 15. August 2017, 19:23

Geff Harrison & The London Symphonic Rock Orchestra / Geff Harrison & The London Symphonic Rock Orchestra

Used drive : _NEC DVD_RW ND-3540A Adapter: 1 ID: 0

Read mode : Secure
Utilize accurate stream : Yes
Defeat audio cache : Yes
Make use of C2 pointers : No

Read offset correction : 48
Overread into Lead-In and Lead-Out : No
Fill up missing offset samples with silence : Yes
Delete leading and trailing silent blocks : No
Null samples used in CRC calculations : Yes
Used interface : Native Win32 interface for Win NT & 2000
Gap handling : Appended to previous track

Used output format : User Defined Encoder
Selected bitrate : 1024 kBit/s
Quality : High
Add ID3 tag : Yes
Command line compressor : C:\Program Files (x86)\Exact Audio Copy\FLAC\FLAC.EXE
Additional command line options : -6 -V -T "ARTIST=%artist%" -T "TITLE=%title%" -T "ALBUM=%albumtitle%" -T "DATE=%year%" -T "TRACKNUMBER=%tracknr%" -T "GENRE=%genre%" -T "COMMENT=%comment%" %hascover%–picture="%coverfile%"%hascover% %source% -o %dest%


TOC of the extracted CD

Track | Start | Length | Start sector | End sector
––––––––––––––––––––––––––––-
1 | 0:00.00 | 4:07.72 | 0 | 18596
2 | 4:07.72 | 4:45.37 | 18597 | 40008
3 | 8:53.34 | 3:42.40 | 40009 | 56698
4 | 12:35.74 | 5:05.05 | 56699 | 79578
5 | 17:41.04 | 4:13.42 | 79579 | 98595
6 | 21:54.46 | 4:31.05 | 98596 | 118925
7 | 26:25.51 | 2:58.23 | 118926 | 132298
8 | 29:23.74 | 6:36.34 | 132299 | 162032
9 | 36:00.33 | 3:32.07 | 162033 | 177939
10 | 39:32.40 | 4:06.38 | 177940 | 196427


Track 1

Filename F:\Music\olaf_alien\GEFF HARRISON (2017, MiG)\CD 2 - Geff Harrison & The London Symphonic Rock Orchestra (1977)\01 - Love Fell Like Rain.wav

Pre-gap length 0:00:02.00

Peak level 99.3 %
Extraction speed 3.9 X
Track quality 99.9 %
Test CRC 7B163CC9
Copy CRC 7B163CC9
Track not present in AccurateRip database
Copy OK

Track 2

Filename F:\Music\olaf_alien\GEFF HARRISON (2017, MiG)\CD 2 - Geff Harrison & The London Symphonic Rock Orchestra (1977)\02 - Days.wav

Pre-gap length 0:00:02.00

Peak level 99.3 %
Extraction speed 4.5 X
Track quality 99.9 %
Test CRC F6565BD3
Copy CRC F6565BD3
Track not present in AccurateRip database
Copy OK

Track 3

Filename F:\Music\olaf_alien\GEFF HARRISON (2017, MiG)\CD 2 - Geff Harrison & The London Symphonic Rock Orchestra (1977)\03 - It's Not Easy for a Singer in a Rock'n Roll Band.wav

Pre-gap length 0:00:02.00

Peak level 99.3 %
Extraction speed 5.4 X
Track quality 100.0 %
Test CRC 3F4466DE
Copy CRC 3F4466DE
Track not present in AccurateRip database
Copy OK

Track 4

Filename F:\Music\olaf_alien\GEFF HARRISON (2017, MiG)\CD 2 - Geff Harrison & The London Symphonic Rock Orchestra (1977)\04 - Stranger in This Town.wav

Pre-gap length 0:00:02.00

Peak level 99.3 %
Extraction speed 6.0 X
Track quality 100.0 %
Test CRC 6BAE829C
Copy CRC 6BAE829C
Track not present in AccurateRip database
Copy OK

Track 5

Filename F:\Music\olaf_alien\GEFF HARRISON (2017, MiG)\CD 2 - Geff Harrison & The London Symphonic Rock Orchestra (1977)\05 - I Wanna Say It with My Music.wav

Pre-gap length 0:00:02.00

Peak level 99.3 %
Extraction speed 6.2 X
Track quality 100.0 %
Test CRC DFFE3A93
Copy CRC DFFE3A93
Track not present in AccurateRip database
Copy OK

Track 6

Filename F:\Music\olaf_alien\GEFF HARRISON (2017, MiG)\CD 2 - Geff Harrison & The London Symphonic Rock Orchestra (1977)\06 - Transatlantic Telephone.wav

Pre-gap length 0:00:02.00

Peak level 99.3 %
Extraction speed 6.7 X
Track quality 100.0 %
Test CRC A31487CE
Copy CRC A31487CE
Track not present in AccurateRip database
Copy OK

Track 7

Filename F:\Music\olaf_alien\GEFF HARRISON (2017, MiG)\CD 2 - Geff Harrison & The London Symphonic Rock Orchestra (1977)\07 - Love Or Money.wav

Pre-gap length 0:00:02.00

Peak level 99.3 %
Extraction speed 5.1 X
Track quality 99.9 %
Test CRC 5E0C9AEC
Copy CRC 5E0C9AEC
Track not present in AccurateRip database
Copy OK

Track 8

Filename F:\Music\olaf_alien\GEFF HARRISON (2017, MiG)\CD 2 - Geff Harrison & The London Symphonic Rock Orchestra (1977)\08 - Heaven.wav

Pre-gap length 0:00:02.00

Peak level 99.3 %
Extraction speed 7.5 X
Track quality 100.0 %
Test CRC BE661E25
Copy CRC BE661E25
Track not present in AccurateRip database
Copy OK

Track 9

Filename F:\Music\olaf_alien\GEFF HARRISON (2017, MiG)\CD 2 - Geff Harrison & The London Symphonic Rock Orchestra (1977)\09 - Eve of Destruction (bonus).wav

Pre-gap length 0:00:02.00

Peak level 99.5 %
Extraction speed 7.2 X
Track quality 100.0 %
Test CRC 54C79A3B
Copy CRC 54C79A3B
Track not present in AccurateRip database
Copy OK

Track 10

Filename F:\Music\olaf_alien\GEFF HARRISON (2017, MiG)\CD 2 - Geff Harrison & The London Symphonic Rock Orchestra (1977)\10 - How Can You Sleep (bonus).wav

Pre-gap length 0:00:02.00

Peak level 99.5 %
Extraction speed 7.6 X
Track quality 100.0 %
Test CRC 008D367C
Copy CRC 008D367C
Track not present in AccurateRip database
Copy OK


None of the tracks are present in the AccurateRip database

No errors occurred

End of status report

–– CUETools DB Plugin V2.1.4

[CTDB TOCID: mwS_B.2zmLWJUVirgRdnOHmIXp0-] found
Submit result: mwS_B.2zmLWJUVirgRdnOHmIXp0- has been confirmed
Track | CTDB Status
1 | (1/1) Accurately ripped
2 | (1/1) Accurately ripped
3 | (1/1) Accurately ripped
4 | (1/1) Accurately ripped
5 | (1/1) Accurately ripped
6 | (1/1) Accurately ripped
7 | (1/1) Accurately ripped
8 | (1/1) Accurately ripped
9 | (1/1) Accurately ripped
10 | (1/1) Accurately ripped


==== Log checksum 50AC238D41A80C3D983DB12F223396732DD75DF274C716AA97CE94C8198167BE ====

[CUETools log; Date: 13.06.2024 12:40:19; Version: 2.1.4]
[CTDB TOCID: mwS_B.2zmLWJUVirgRdnOHmIXp0-] found.
Track | CTDB Status
1 | (5/5) Accurately ripped
2 | (5/5) Accurately ripped
3 | (5/5) Accurately ripped
4 | (5/5) Accurately ripped
5 | (5/5) Accurately ripped
6 | (5/5) Accurately ripped
7 | (5/5) Accurately ripped
8 | (5/5) Accurately ripped
9 | (5/5) Accurately ripped
10 | (5/5) Accurately ripped
[AccurateRip ID: 00107f12-00842ef0-890a3b0a] found.
Track [ CRC | V2 ] Status
01 [f99079e8|29b71e7d] (0+2/2) Accurately ripped
02 [6c5d1252|d51acae7] (0+2/2) Accurately ripped
03 [0910a12c|a4a4d8d9] (0+2/2) Accurately ripped
04 [d5bf7869|9cbb9371] (0+2/2) Accurately ripped
05 [ae978cee|fc6751c0] (0+2/2) Accurately ripped
06 [fcaa7c29|8398db9a] (0+2/2) Accurately ripped
07 [c9b04d77|2a000e4e] (0+2/2) Accurately ripped
08 [52830e45|834251dd] (0+2/2) Accurately ripped
09 [73e7702f|6c2658f1] (0+2/2) Accurately ripped
10 [44f7f1b1|f8cd2e0b] (0+2/2) Accurately ripped

Track Peak [ CRC32 ] [W/O NULL] [ LOG ]
– 99,5 [3F9A447B] [14E2A166]
01 99,3 [7B163CC9] [D716851A] CRC32
02 99,3 [F6565BD3] [D106200F] CRC32
03 99,3 [3F4466DE] [D31A1176] CRC32
04 99,3 [6BAE829C] [4B066CF3] CRC32
05 99,3 [DFFE3A93] [FF4EA84F] CRC32
06 99,3 [A31487CE] [DBE1423A] CRC32
07 99,3 [5E0C9AEC] [4D978378] CRC32
08 99,3 [BE661E25] [7F269462] CRC32
09 99,5 [54C79A3B] [28D23F8C] CRC32
10 99,5 [008D367C] [BAA8F7B5] CRC32

Thanks to Olaf_alien

See also:
Twenty Sixty Six And Then - Re...ture (1972) [2CD Reissue 2017]