Tags
Language
Tags
July 2024
Su Mo Tu We Th Fr Sa
30 1 2 3 4 5 6
7 8 9 10 11 12 13
14 15 16 17 18 19 20
21 22 23 24 25 26 27
28 29 30 31 1 2 3

Fabio Biondi - Johan Helmich Roman: Assaggi per Violino Solo (2024)

Posted By: ArlegZ
Fabio Biondi - Johan Helmich Roman: Assaggi per Violino Solo (2024)

Fabio Biondi - Johan Helmich Roman: Assaggi per Violino Solo (2024)
EAC | FLAC | Image (Cue & no Log) ~ 343 Mb | Total time: 69:58 | Scans included
Classical | Label: Naive | # V 8209 | Recorded: 2023

Through this exciting recording, the violinist Fabio Biondi pursues his exploration of the seventeenth- and eighteenth-century repertoire for solo violin. Two years after his complete recording of Johann Sebastian Bach's solo Sonatas and Partitas (V 5467), he lands on entirely unknown territory, the Assaggi by the Swedish composer Johan Helmich Roman (1694-1758). Rarely lasting more than twelve minutes, the Assaggi is thus a fascinating melting-pot of multiple aesthetics in vogue in Europe at the beginning of the eighteenth century. Fabio Biondi champions this little known territory of the European late baroque with a voracious generosity and highly eloquent sense of phrase.
In his own time Roman was an important figure in the violin world. His career led him to the four corners of Europe, affording him the opportunity to meet many crucially important figures on the German and more southern musical stages, composers as well as renowned performers, especially when he was in Italy, where he visited Tartini. He also played with Handel. In Dresden he met Pisendel, then dazzling everyone with his playing. In Hamburg, he probably met Telemann, whose Fantasias for Solo Violin, a highly creative and secret aspect of the great North German baroque master's work, he studied intensely. Product Notes Through this exciting recording, the violinist Fabio Biondi pursues his exploration of the seventeenth- and eighteenth-century repertoire for solo violin. Two years after his complete recording of Johann Sebastian Bach's solo Sonatas and Partitas (V 5467), he lands on entirely unknown territory, the Assaggi by the Swedish composer Johan Helmich Roman (1694-1758). Rarely lasting more than twelve minutes, the Assaggi is thus a fascinating melting-pot of multiple aesthetics in vogue in Europe at the beginning of the eighteenth century. Fabio Biondi champions this little known territory of the European late baroque with a voracious generosity and highly eloquent sense of phrase. In his own time Roman was an important figure in the violin world. His career led him to the four corners of Europe, affording him the opportunity to meet many crucially important figures on the German and more southern musical stages, composers as well as renowned performers, especially when he was in Italy, where he visited Tartini. He also played with Handel. In Dresden he met Pisendel, then dazzling everyone with his playing. In Hamburg, he probably met Telemann, whose Fantasias for Solo Violin, a highly creative and secret aspect of the great North German baroque master's work, he studied intensely.
All of these encounters had a long-term influence on Johan Helmich Roman's style, a different and important take on les goûts reunis. If the highly polyphonic structures of the Assaggi naturally reminds us of the Swede's Saxon origins (BeRI 314), if their study-like nature willingly brings to mind the twenty-four Fantasias of Telemann, works as much intended for professional musicians as for accomplished amateurs (the last movement of BeRI 310), the harmonies, which like the melodic outlines in Roman's work are subtly tinged with an Italianate flavour, clearly recall contrasting works by Tartini (the second part of BeRI 320 for instance, or again the Andante of BeRI 324).

Performer:
Fabio Biondi, violin

Tracklist:
Johan Helmich Roman (1694-1758)
Assaggi per Violino Solo
01-04. Assaggio per violino solo in C minor, BeRI 310
05-07. Assaggio per violino solo in G minor, BeRI 320
08-10. Assaggio per violino solo in B minor, BeRI 324
11-14. Assaggio per violino solo in D minor, BeRI 311
15-17. Assaggio per violino solo in C major, BeRI 303
18-21. Assaggio per violino solo in A major, BeRI 301
22-25. Assaggio per violino solo in G minor, BeRI 314


Exact Audio Copy V1.3 from 2. September 2016

EAC extraction logfile from 15. June 2024, 22:22

Fabio Biondi / Roman - Assaggi per violino solo

Used drive : hp DVDRW UJ8FBA Adapter: 1 ID: 0

Read mode : Secure
Utilize accurate stream : Yes
Defeat audio cache : Yes
Make use of C2 pointers : No

Read offset correction : 6
Overread into Lead-In and Lead-Out : No
Fill up missing offset samples with silence : Yes
Delete leading and trailing silent blocks : No
Null samples used in CRC calculations : Yes
Used interface : Native Win32 interface for Win NT & 2000

Used output format : User Defined Encoder
Selected bitrate : 1024 kBit/s
Quality : High
Add ID3 tag : No
Command line compressor : C:\Program Files (x86)\Exact Audio Copy\FLAC\FLAC.EXE
Additional command line options : -6 -V -T "ARTIST=%artist%" -T "TITLE=%title%" -T "ALBUM=%albumtitle%" -T "DATE=%year%" -T "TRACKNUMBER=%tracknr%" -T "GENRE=%genre%" -T "COMMENT=%comment%" -T "BAND=%albuminterpret%" -T "ALBUMARTIST=%albuminterpret%" -T "COMPOSER=%composer%" %haslyrics%–tag-from-file=LYRICS="%lyricsfile%"%haslyrics% -T "DISCNUMBER=%cdnumber%" -T "TOTALDISCS=%totalcds%" -T "TOTALTRACKS=%numtracks%" %hascover%–picture="%coverfile%"%hascover% %source% -o %dest%


TOC of the extracted CD

Track | Start | Length | Start sector | End sector
––––––––––––––––––––––––––––-
1 | 0:00.00 | 3:00.28 | 0 | 13527
2 | 3:00.28 | 2:34.71 | 13528 | 25148
3 | 5:35.24 | 2:35.69 | 25149 | 36842
4 | 8:11.18 | 1:50.52 | 36843 | 45144
5 | 10:01.70 | 3:12.46 | 45145 | 59590
6 | 13:14.41 | 2:09.66 | 59591 | 69331
7 | 15:24.32 | 1:32.08 | 69332 | 76239
8 | 16:56.40 | 4:12.21 | 76240 | 95160
9 | 21:08.61 | 4:09.59 | 95161 | 113894
10 | 25:18.45 | 3:13.60 | 113895 | 128429
11 | 28:32.30 | 2:41.57 | 128430 | 140561
12 | 31:14.12 | 2:17.06 | 140562 | 150842
13 | 33:31.18 | 3:04.61 | 150843 | 164703
14 | 36:36.04 | 4:08.30 | 164704 | 183333
15 | 40:44.34 | 3:50.67 | 183334 | 200650
16 | 44:35.26 | 1:55.37 | 200651 | 209312
17 | 46:30.63 | 3:06.18 | 209313 | 223280
18 | 49:37.06 | 2:22.26 | 223281 | 233956
19 | 51:59.32 | 4:34.42 | 233957 | 254548
20 | 56:33.74 | 5:26.01 | 254549 | 278999
21 | 62:00.00 | 1:57.36 | 279000 | 287810
22 | 63:57.36 | 1:56.23 | 287811 | 296533
23 | 65:53.59 | 1:37.14 | 296534 | 303822
24 | 67:30.73 | 1:22.70 | 303823 | 310042
25 | 68:53.68 | 1:04.67 | 310043 | 314909


Range status and errors

Selected range

Filename C:\rips\Roman - Assaggi per violino solo- Fabio Biondi\Roman - Assaggi per violino solo - Fabio Biondi.wav

Peak level 92.8 %
Extraction speed 4.7 X
Range quality 99.9 %
Test CRC 7CB2720C
Copy CRC 7CB2720C
Copy OK

No errors occurred


AccurateRip summary

Track 1 not present in database
Track 2 not present in database
Track 3 not present in database
Track 4 not present in database
Track 5 not present in database
Track 6 not present in database
Track 7 not present in database
Track 8 not present in database
Track 9 not present in database
Track 10 not present in database
Track 11 not present in database
Track 12 not present in database
Track 13 not present in database
Track 14 not present in database
Track 15 not present in database
Track 16 not present in database
Track 17 not present in database
Track 18 not present in database
Track 19 not present in database
Track 20 not present in database
Track 21 not present in database
Track 22 not present in database
Track 23 not present in database
Track 24 not present in database
Track 25 not present in database

None of the tracks are present in the AccurateRip database

End of status report

–– CUETools DB Plugin V2.1.6

[CTDB TOCID: Ab8NFsYLulhHiFvhUgS35RHt7Bs-] found
Submit result: Ab8NFsYLulhHiFvhUgS35RHt7Bs- has been confirmed
Track | CTDB Status
1 | (1/1) Accurately ripped
2 | (1/1) Accurately ripped
3 | (1/1) Accurately ripped
4 | (1/1) Accurately ripped
5 | (1/1) Accurately ripped
6 | (1/1) Accurately ripped
7 | (1/1) Accurately ripped
8 | (1/1) Accurately ripped
9 | (1/1) Accurately ripped
10 | (1/1) Accurately ripped
11 | (1/1) Accurately ripped
12 | (1/1) Accurately ripped
13 | (1/1) Accurately ripped
14 | (1/1) Accurately ripped
15 | (1/1) Accurately ripped
16 | (1/1) Accurately ripped
17 | (1/1) Accurately ripped
18 | (1/1) Accurately ripped
19 | (1/1) Accurately ripped
20 | (1/1) Accurately ripped
21 | (1/1) Accurately ripped
22 | (1/1) Accurately ripped
23 | (1/1) Accurately ripped
24 | (1/1) Accurately ripped
25 | (1/1) Accurately ripped


==== Log checksum 98A016EF0A3CE98E250B298448807DFE2AC957F595D8498AE89F76421BBAD573 ====

Fabio Biondi - Johan Helmich Roman: Assaggi per Violino Solo (2024)

Thanks to the original releaser