Tags
Language
Tags
July 2024
Su Mo Tu We Th Fr Sa
30 1 2 3 4 5 6
7 8 9 10 11 12 13
14 15 16 17 18 19 20
21 22 23 24 25 26 27
28 29 30 31 1 2 3

Daniel Cuiller, Stradivaria - Johann Sebastian Bach: Concertos pour Clavecin (2009)

Posted By: ArlegZ
Daniel Cuiller, Stradivaria - Johann Sebastian Bach: Concertos pour Clavecin (2009)

Daniel Cuiller, Stradivaria - Johann Sebastian Bach: Concertos pour Clavecin (2009)
EAC | FLAC | Image (Cue & Log) ~ 371 Mb | Total time: 58:29 | Scans included
Classical | Label: Mirare | # MIR085 | Recorded: 2008

This is an outstanding recital of Bach chamber-music playing in which four concertos (Stradivaria could have fitted in one more, in truth) bask in their own colours with a rare combination of infectious energy, quicksilver alertness among a single-string ensemble and not a hint of the affectedness which has blighted so many performances of these works in recent years. …nothing can detract from the thoughtfulness, personality and fun which radiate from this wonderful recital.— Gramophone Magazine

Performer:
Daniel Cuiller, clavecin
Stradivaria

Tracklist:
Johann Sebastian Bach (1685-1750)
Concerto pour clavecin en Ré mineur BWV 1052
01. Allegro
02. Adagio
03. Allegro
Concerto pour clavecin en Sol mineur BWV 1058
04. (Allegro)
05. Andante
06. Allegro assai
Concerto pour clavecin en Fa mineur BWV 1056
07. (Allegro)
08. Largo
09. Presto
Concerto pour clavecin en La majeur BWV 1055
10. Allegro
11. Larghetto
12. Allegro ma non tanto


Exact Audio Copy V1.6 from 23. October 2020

EAC extraction logfile from 6. June 2024, 15:26

Stradivaria, Bertrand Cuiller / J.S. Bach - Concertos pour Clavecin

Used drive : ATAPI iHAS124 F Adapter: 1 ID: 0

Read mode : Secure
Utilize accurate stream : Yes
Defeat audio cache : Yes
Make use of C2 pointers : No

Read offset correction : 6
Overread into Lead-In and Lead-Out : No
Fill up missing offset samples with silence : Yes
Delete leading and trailing silent blocks : No
Null samples used in CRC calculations : Yes
Used interface : Native Win32 interface for Win NT & 2000

Used output format : User Defined Encoder
Selected bitrate : 768 kBit/s
Quality : High
Add ID3 tag : No
Command line compressor : C:\Program Files (x86)\Exact Audio Copy\FLAC\FLAC.EXE
Additional command line options : -6 -V -T "ARTIST=%artist%" -T "TITLE=%title%" -T "ALBUM=%albumtitle%" -T "DATE=%year%" -T "TRACKNUMBER=%tracknr%" -T "GENRE=%genre%" -T "COMMENT=%comment%" -T "BAND=%albuminterpret%" -T "ALBUMARTIST=%albuminterpret%" -T "COMPOSER=%composer%" %haslyrics%–tag-from-file=LYRICS="%lyricsfile%"%haslyrics% -T "DISCNUMBER=%cdnumber%" -T "TOTALDISCS=%totalcds%" -T "TOTALTRACKS=%numtracks%" %hascover%–picture="%coverfile%"%hascover% %source% -o %dest%


TOC of the extracted CD

Track | Start | Length | Start sector | End sector
––––––––––––––––––––––––––––-
1 | 0:00.00 | 7:25.62 | 0 | 33436
2 | 7:25.62 | 6:24.62 | 33437 | 62298
3 | 13:50.49 | 7:52.13 | 62299 | 97711
4 | 21:42.62 | 3:39.72 | 97712 | 114208
5 | 25:22.59 | 5:39.09 | 114209 | 139642
6 | 31:01.68 | 3:43.58 | 139643 | 156425
7 | 34:45.51 | 3:26.34 | 156426 | 171909
8 | 38:12.10 | 2:40.63 | 171910 | 183972
9 | 40:52.73 | 3:34.17 | 183973 | 200039
10 | 44:27.15 | 4:22.59 | 200040 | 219748
11 | 48:49.74 | 5:14.29 | 219749 | 243327
12 | 54:04.28 | 4:22.74 | 243328 | 263051


Range status and errors

Selected range

Filename D:\Music\MIR085\Stradivaria, Bertrand Cuiller - J.S. Bach - Concertos pour Clavecin.wav

Peak level 95.8 %
Extraction speed 9.6 X
Range quality 100.0 %
Test CRC 56EDE0EA
Copy CRC 56EDE0EA
Copy OK

No errors occurred


AccurateRip summary

Track 1 accurately ripped (confidence 7) [1DB5828D] (AR v2)
Track 2 accurately ripped (confidence 6) [99AB836F] (AR v2)
Track 3 accurately ripped (confidence 6) [267B3421] (AR v2)
Track 4 accurately ripped (confidence 6) [1420B0D3] (AR v2)
Track 5 accurately ripped (confidence 6) [DC1207CB] (AR v2)
Track 6 accurately ripped (confidence 6) [73FC56F8] (AR v2)
Track 7 accurately ripped (confidence 6) [7654C8ED] (AR v2)
Track 8 accurately ripped (confidence 6) [E0423DDF] (AR v2)
Track 9 accurately ripped (confidence 6) [B6C5113F] (AR v2)
Track 10 accurately ripped (confidence 6) [F1C44752] (AR v2)
Track 11 accurately ripped (confidence 6) [B372510C] (AR v2)
Track 12 accurately ripped (confidence 6) [444D6EED] (AR v2)

All tracks accurately ripped

End of status report

–– CUETools DB Plugin V2.1.6

[CTDB TOCID: 8ySBaXxec2UaZte4l6UnM_rz8U8-] found
Submit result: 8ySBaXxec2UaZte4l6UnM_rz8U8- has been confirmed
Track | CTDB Status
1 | (13/13) Accurately ripped
2 | (12/13) Accurately ripped
3 | (13/13) Accurately ripped
4 | (13/13) Accurately ripped
5 | (13/13) Accurately ripped
6 | (13/13) Accurately ripped
7 | (13/13) Accurately ripped
8 | (13/13) Accurately ripped
9 | (13/13) Accurately ripped
10 | (13/13) Accurately ripped
11 | (13/13) Accurately ripped
12 | (13/13) Accurately ripped


==== Log checksum 098814C9EAA949F572B65CD050C93B5F39FB57167A7FC771E3AEE5BD4A4FC911 ====

Daniel Cuiller, Stradivaria - Johann Sebastian Bach: Concertos pour Clavecin (2009)

Thanks to the original releaser