Tags
Language
Tags
July 2024
Su Mo Tu We Th Fr Sa
30 1 2 3 4 5 6
7 8 9 10 11 12 13
14 15 16 17 18 19 20
21 22 23 24 25 26 27
28 29 30 31 1 2 3

DANdadaDAN - Sen Bana Birini Android (2006) {Fono Müzik}

Posted By: TestTickles
DANdadaDAN - Sen Bana Birini Android (2006) {Fono Müzik}

DANdadaDAN - Sen Bana Birini Android (2006) {Fono Müzik}
EAC Rip | FLAC with CUE and LOG | scans | 387 mb
MP3 CBR 320 kbps | RAR | 114 mb
Genre: indie rock, post rock, jazz-rock, psychedelic rock

Sen Bana Birini Android is the 2006 CD by Turkish rock band DANdadaDAN. This was released by
Fono Müzik.

01. Kuru Kuru
02. Zýn Zýn
03. Hayaletler
04. Tezkere
05. Kutbu Kuzey
06. Kýz
07. Aydýnlýklar
08. Kara Araba
09. Maskara
10. Cenaze
11. Kaltaklar
12. Yoðurtçubaþý Çýkmazý

Exact Audio Copy V1.3 from 2. September 2016

EAC extraction logfile from 21. June 2020, 00:23

DANdadaDAN / Sen Bana Birini Android

Used drive : ASUS BW-12D1S-U Adapter: 1 ID: 0

Read mode : Secure
Utilize accurate stream : Yes
Defeat audio cache : Yes
Make use of C2 pointers : No

Read offset correction : 667
Overread into Lead-In and Lead-Out : Yes
Fill up missing offset samples with silence : Yes
Delete leading and trailing silent blocks : No
Null samples used in CRC calculations : Yes
Used interface : Native Win32 interface for Win NT & 2000
Gap handling : Appended to previous track

Used output format : User Defined Encoder
Selected bitrate : 1024 kBit/s
Quality : High
Add ID3 tag : No
Command line compressor : C:\Program Files (x86)\Exact Audio Copy\Flac\flac.exe
Additional command line options : -8 -V -T "ARTIST=%artist%" -T "TITLE=%title%" -T "ALBUM=%albumtitle%" -T "DATE=%year%" -T "TRACKNUMBER=%tracknr%" -T "GENRE=%genre%" -T "PERFORMER=%albuminterpret%" -T "COMPOSER=%composer%" %haslyrics%–tag-from-file=LYRICS="%lyricsfile%"%haslyrics% -T "ALBUMARTIST=%albumartist%" -T "DISCNUMBER=%cdnumber%" -T "TOTALDISCS=%totalcds%" -T "TOTALTRACKS=%numtracks%" -T "COMMENT=%comment%" %source% -o %dest%


TOC of the extracted CD

Track | Start | Length | Start sector | End sector
––––––––––––––––––––––––––––-
1 | 0:00.00 | 3:53.18 | 0 | 17492
2 | 3:53.18 | 4:02.72 | 17493 | 35714
3 | 7:56.15 | 3:04.31 | 35715 | 49545
4 | 11:00.46 | 3:29.68 | 49546 | 65288
5 | 14:30.39 | 3:17.45 | 65289 | 80108
6 | 17:48.09 | 4:33.61 | 80109 | 100644
7 | 22:21.70 | 4:42.26 | 100645 | 121820
8 | 27:04.21 | 5:29.31 | 121821 | 146526
9 | 32:33.52 | 2:26.49 | 146527 | 157525
10 | 35:00.26 | 4:38.13 | 157526 | 178388
11 | 39:38.39 | 6:50.43 | 178389 | 209181
12 | 46:29.07 | 5:19.15 | 209182 | 233121


Track 1

Filename C:\cuntfist\FLAC\DANdadaDAN - Sen Bana Birini Android (2006) [FLAC] {Fono Müzik}\01 - Kuru Kuru.wav

Pre-gap length 0:00:02.00

Peak level 100.0 %
Extraction speed 4.8 X
Track quality 100.0 %
Test CRC 78AB1907
Copy CRC 78AB1907
Accurately ripped (confidence 1) [73E23A69] (AR v2)
Copy OK

Track 2

Filename C:\cuntfist\FLAC\DANdadaDAN - Sen Bana Birini Android (2006) [FLAC] {Fono Müzik}\02 - Zın Zın.wav

Peak level 100.0 %
Extraction speed 5.3 X
Track quality 100.0 %
Test CRC BDE0592C
Copy CRC BDE0592C
Accurately ripped (confidence 1) [2D123E75] (AR v2)
Copy OK

Track 3

Filename C:\cuntfist\FLAC\DANdadaDAN - Sen Bana Birini Android (2006) [FLAC] {Fono Müzik}\03 - Hayaletler.wav

Peak level 100.0 %
Extraction speed 5.4 X
Track quality 100.0 %
Test CRC F8FA0239
Copy CRC F8FA0239
Accurately ripped (confidence 1) [5376F287] (AR v2)
Copy OK

Track 4

Filename C:\cuntfist\FLAC\DANdadaDAN - Sen Bana Birini Android (2006) [FLAC] {Fono Müzik}\04 - Tezkere.wav

Peak level 100.0 %
Extraction speed 5.9 X
Track quality 100.0 %
Test CRC 3C359E00
Copy CRC 3C359E00
Accurately ripped (confidence 1) [F1CFC79A] (AR v2)
Copy OK

Track 5

Filename C:\cuntfist\FLAC\DANdadaDAN - Sen Bana Birini Android (2006) [FLAC] {Fono Müzik}\05 - Kutbu Kuzey.wav

Peak level 100.0 %
Extraction speed 6.1 X
Track quality 100.0 %
Test CRC 2C4FBC62
Copy CRC 2C4FBC62
Accurately ripped (confidence 1) [0E128189] (AR v2)
Copy OK

Track 6

Filename C:\cuntfist\FLAC\DANdadaDAN - Sen Bana Birini Android (2006) [FLAC] {Fono Müzik}\06 - Kız.wav

Peak level 100.0 %
Extraction speed 6.7 X
Track quality 100.0 %
Test CRC B2903D2F
Copy CRC B2903D2F
Accurately ripped (confidence 1) [C5713B58] (AR v2)
Copy OK

Track 7

Filename C:\cuntfist\FLAC\DANdadaDAN - Sen Bana Birini Android (2006) [FLAC] {Fono Müzik}\07 - Aydınlıklar.wav

Peak level 100.0 %
Extraction speed 7.2 X
Track quality 100.0 %
Test CRC 54A91497
Copy CRC 54A91497
Accurately ripped (confidence 1) [7D4B07E3] (AR v2)
Copy OK

Track 8

Filename C:\cuntfist\FLAC\DANdadaDAN - Sen Bana Birini Android (2006) [FLAC] {Fono Müzik}\08 - Kara Araba.wav

Peak level 100.0 %
Extraction speed 7.7 X
Track quality 100.0 %
Test CRC CD04C350
Copy CRC CD04C350
Accurately ripped (confidence 1) [21E99B1B] (AR v2)
Copy OK

Track 9

Filename C:\cuntfist\FLAC\DANdadaDAN - Sen Bana Birini Android (2006) [FLAC] {Fono Müzik}\09 - Maskara.wav

Peak level 100.0 %
Extraction speed 7.0 X
Track quality 100.0 %
Test CRC F439649A
Copy CRC F439649A
Accurately ripped (confidence 1) [EAC80B2A] (AR v2)
Copy OK

Track 10

Filename C:\cuntfist\FLAC\DANdadaDAN - Sen Bana Birini Android (2006) [FLAC] {Fono Müzik}\10 - Cenaze.wav

Peak level 100.0 %
Extraction speed 8.0 X
Track quality 100.0 %
Test CRC 56FC2A12
Copy CRC 56FC2A12
Accurately ripped (confidence 1) [8A2B0872] (AR v2)
Copy OK

Track 11

Filename C:\cuntfist\FLAC\DANdadaDAN - Sen Bana Birini Android (2006) [FLAC] {Fono Müzik}\11 - Kaltaklar.wav

Peak level 100.0 %
Extraction speed 8.6 X
Track quality 100.0 %
Test CRC F1D1F29C
Copy CRC F1D1F29C
Accurately ripped (confidence 1) [9F1FCF5D] (AR v2)
Copy OK

Track 12

Filename C:\cuntfist\FLAC\DANdadaDAN - Sen Bana Birini Android (2006) [FLAC] {Fono Müzik}\12 - Yoğurtçubaşı Çıkmazı.wav

Peak level 100.0 %
Extraction speed 9.5 X
Track quality 100.0 %
Test CRC 2C33929C
Copy CRC 2C33929C
Accurately ripped (confidence 1) [47F78D17] (AR v2)
Copy OK


All tracks accurately ripped

No errors occurred

End of status report

–– CUETools DB Plugin V2.1.6

[CTDB TOCID: xtUeMDPW0qjJJ96o2vPEcnmYl.4-] found
Submit result: xtUeMDPW0qjJJ96o2vPEcnmYl.4- has been confirmed
Track | CTDB Status
1 | (4/4) Accurately ripped
2 | (4/4) Accurately ripped
3 | (4/4) Accurately ripped
4 | (4/4) Accurately ripped
5 | (4/4) Accurately ripped
6 | (4/4) Accurately ripped
7 | (4/4) Accurately ripped
8 | (4/4) Accurately ripped
9 | (4/4) Accurately ripped
10 | (4/4) Accurately ripped
11 | (4/4) Accurately ripped
12 | (4/4) Accurately ripped


==== Log checksum B77E7118E45A4CECFC85243FB585A4438EADA0276CFB589E75AF189D2209E197 ====


DANdadaDAN - Sen Bana Birini Android (2006) {Fono Müzik}


Thank you to the original uploader.