Tags
Language
Tags
July 2024
Su Mo Tu We Th Fr Sa
30 1 2 3 4 5 6
7 8 9 10 11 12 13
14 15 16 17 18 19 20
21 22 23 24 25 26 27
28 29 30 31 1 2 3

Beauty Farm - Johannes Ockeghem: Masses, Volume 2 (2019)

Posted By: ArlegZ
Beauty Farm - Johannes Ockeghem: Masses, Volume 2 (2019)

Beauty Farm - Johannes Ockeghem: Masses, Volume 2 (2019)
EAC | FLAC | Image (Cue & Log) ~ 552 Mb | Total time: 57:26+55:43 | Scans included
Classical | Label: fra bernardo | fb 1909373 | Recorded: 2018

For a long time Johannes Ockeghem (ca.1420-1497) was one of the most famous Unknown Persons in music history. There is no doubt about his position as the most important representative of the second generation of Franco-Flemish composers.
But what its effect actually was and how its artistic development can be described, there was a long lack of clarity about it, which has only been somewhat cleared up in recent decades thanks to intensive research and discographic exploration.
The FRA BERNARDO recording of the Masses with the vocal ensemble Beauty Farm is undoubtedly an impressive way of illustrating the significance of Ockeghem.

Performer:
Beauty Farm:
Bart Uvyn, countertenor
Adriaan De Koster, tenor
Tomáš Lajtkep, tenor
Achim Schulz, tenor
Hannes Wagner, tenor
Arnout Lems, baritone
Joachim Höchbauer, bass

Tracklist:
Johannes Ockeghem (c.1420-1497)
CD1:
Missa My My
01. I.Kyrie
02. II. Gloria
03. III. Credo
04. IV. Sanctus
Missa Ecce Ancilla Domini
05. I. Kyrie
06. II. Gloria
07. III. Credo
08. IV. Sanctus
09. V. Agnus Dei
CD2:
Missa Caput
01. I. Kyrie
02. II. Gloria
03. III. Credo
04. IV. Sanctus
05. V. Agnus Dei
Missa Cuiusvis Toni
06. I. Kyrie
07. II. Gloria
08. III. Credo
09. IV. Sanctus
10. V. Agnus Dei


Exact Audio Copy V1.3 from 2. September 2016

EAC extraction logfile from 2. December 2019, 16:41

Beauty Farm / Ockeghem . Masses Vol.2

Used drive : HL-DT-STDVD+-RW GT10N Adapter: 1 ID: 1

Read mode : Secure
Utilize accurate stream : Yes
Defeat audio cache : Yes
Make use of C2 pointers : No

Read offset correction : 102
Overread into Lead-In and Lead-Out : No
Fill up missing offset samples with silence : Yes
Delete leading and trailing silent blocks : No
Null samples used in CRC calculations : Yes
Used interface : Native Win32 interface for Win NT & 2000

Used output format : User Defined Encoder
Selected bitrate : 1024 kBit/s
Quality : High
Add ID3 tag : No
Command line compressor : C:\Program Files (x86)\Exact Audio Copy\FLAC\FLAC.EXE
Additional command line options : -6 -V -T "ARTIST=%artist%" -T "TITLE=%title%" -T "ALBUM=%albumtitle%" -T "DATE=%year%" -T "TRACKNUMBER=%tracknr%" -T "GENRE=%genre%" -T "COMMENT=%comment%" -T "BAND=%albuminterpret%" -T "ALBUMARTIST=%albuminterpret%" -T "COMPOSER=%composer%" %haslyrics%–tag-from-file=LYRICS="%lyricsfile%"%haslyrics% -T "DISCNUMBER=%cdnumber%" -T "TOTALDISCS=%totalcds%" -T "TOTALTRACKS=%numtracks%" %hascover%–picture="%coverfile%"%hascover% %source% -o %dest%


TOC of the extracted CD

Track | Start | Length | Start sector | End sector
––––––––––––––––––––––––––––-
1 | 0:00.00 | 2:17.65 | 0 | 10339
2 | 2:17.65 | 6:08.37 | 10340 | 37976
3 | 8:26.27 | 8:28.23 | 37977 | 76099
4 | 16:54.50 | 5:32.04 | 76100 | 101003
5 | 22:26.54 | 4:39.63 | 101004 | 121991
6 | 27:06.42 | 4:13.60 | 121992 | 141026
7 | 31:20.27 | 6:39.12 | 141027 | 170963
8 | 37:59.39 | 8:56.43 | 170964 | 211206
9 | 46:56.07 | 6:25.24 | 211207 | 240105
10 | 53:21.31 | 4:04.55 | 240106 | 258460


Range status and errors

Selected range

Filename C:\_RIPs\Ockeghem . Masses, vol.2 . Beauty Farm\Ockeghem - Masses, vol.2 - Beauty Farm (CD1) .wav

Peak level 100.0 %
Extraction speed 1.5 X
Range quality 99.9 %
Test CRC 8EA1AA2E
Copy CRC 8EA1AA2E
Copy OK

No errors occurred


AccurateRip summary

Track 1 not present in database
Track 2 not present in database
Track 3 not present in database
Track 4 not present in database
Track 5 not present in database
Track 6 not present in database
Track 7 not present in database
Track 8 not present in database
Track 9 not present in database
Track 10 not present in database

None of the tracks are present in the AccurateRip database

End of status report

–– CUETools DB Plugin V2.1.6

[CTDB TOCID: H00HkfynMzpHOQTfsL6elwUSS0Q-] disk not present in database
Submit result: H00HkfynMzpHOQTfsL6elwUSS0Q- has been uploaded


==== Log checksum 6AF60B691F1218C7A7B0BB4673C82ED6A8078BC4F172D42BAD107FC6DF57376C ====


Exact Audio Copy V1.3 from 2. September 2016

EAC extraction logfile from 2. December 2019, 18:14

Beauty Farm / Ockeghem . Masses Vol.2

Used drive : HL-DT-STDVD+-RW GT10N Adapter: 1 ID: 1

Read mode : Secure
Utilize accurate stream : Yes
Defeat audio cache : Yes
Make use of C2 pointers : No

Read offset correction : 102
Overread into Lead-In and Lead-Out : No
Fill up missing offset samples with silence : Yes
Delete leading and trailing silent blocks : No
Null samples used in CRC calculations : Yes
Used interface : Native Win32 interface for Win NT & 2000

Used output format : User Defined Encoder
Selected bitrate : 1024 kBit/s
Quality : High
Add ID3 tag : No
Command line compressor : C:\Program Files (x86)\Exact Audio Copy\FLAC\FLAC.EXE
Additional command line options : -6 -V -T "ARTIST=%artist%" -T "TITLE=%title%" -T "ALBUM=%albumtitle%" -T "DATE=%year%" -T "TRACKNUMBER=%tracknr%" -T "GENRE=%genre%" -T "COMMENT=%comment%" -T "BAND=%albuminterpret%" -T "ALBUMARTIST=%albuminterpret%" -T "COMPOSER=%composer%" %haslyrics%–tag-from-file=LYRICS="%lyricsfile%"%haslyrics% -T "DISCNUMBER=%cdnumber%" -T "TOTALDISCS=%totalcds%" -T "TOTALTRACKS=%numtracks%" %hascover%–picture="%coverfile%"%hascover% %source% -o %dest%


TOC of the extracted CD

Track | Start | Length | Start sector | End sector
––––––––––––––––––––––––––––-
1 | 0:00.00 | 2:49.36 | 0 | 12710
2 | 2:49.36 | 6:49.48 | 12711 | 43433
3 | 9:39.09 | 7:56.31 | 43434 | 79164
4 | 17:35.40 | 7:28.41 | 79165 | 112805
5 | 25:04.06 | 5:24.21 | 112806 | 137126
6 | 30:28.27 | 2:07.72 | 137127 | 146723
7 | 32:36.24 | 4:25.38 | 146724 | 166636
8 | 37:01.62 | 8:49.54 | 166637 | 206365
9 | 45:51.41 | 6:13.06 | 206366 | 234346
10 | 52:04.47 | 3:39.06 | 234347 | 250777


Range status and errors

Selected range

Filename C:\_RIPs\Ockeghem . Masses, vol.2 . Beauty Farm\Ockeghem - Masses, vol.2 - Beauty Farm (CD2).wav

Peak level 100.0 %
Extraction speed 1.4 X
Range quality 99.9 %
Test CRC 7EEAF984
Copy CRC 7EEAF984
Copy OK

No errors occurred


AccurateRip summary

Track 1 not present in database
Track 2 not present in database
Track 3 not present in database
Track 4 not present in database
Track 5 not present in database
Track 6 not present in database
Track 7 not present in database
Track 8 not present in database
Track 9 not present in database
Track 10 not present in database

None of the tracks are present in the AccurateRip database

End of status report

–– CUETools DB Plugin V2.1.6

[CTDB TOCID: mF.SxcxFO4yVujx2NugfOytG1Lw-] disk not present in database
Submit result: mF.SxcxFO4yVujx2NugfOytG1Lw- has been uploaded


==== Log checksum 2147FDD04B6A9A2F75993AC40565EF136926E78BE4E4E6FBA17C3862546CD215 ====

Beauty Farm - Johannes Ockeghem: Masses, Volume 2 (2019)

Thanks to the original releaser