Tags
Language
Tags
July 2024
Su Mo Tu We Th Fr Sa
30 1 2 3 4 5 6
7 8 9 10 11 12 13
14 15 16 17 18 19 20
21 22 23 24 25 26 27
28 29 30 31 1 2 3

Bachman-Turner Overdrive - The Millennium Collection: The Best of Bachman-Turner Overdrive (2001) [20th Century Masters]

Posted By: Designol
Bachman-Turner Overdrive - The Millennium Collection: The Best of Bachman-Turner Overdrive (2001) [20th Century Masters]

Bachman-Turner Overdrive - The Millennium Collection: The Best of Bachman-Turner Overdrive (2001)
EAC | FLAC | Tracks (Cue&Log) ~ 403 Mb | Mp3 (CBR320) ~ 146 Mb | Scans included
| Label: Mercury, The Island Def Jam Group | # 3145480962 | Time: 00:53:49
Classic Rock, Hard Rock, Boogie Rock

Their biggest hits from the '70s like 'You Ain't Seen Nothing Yet', 'Takin' Care of Business', 'Roll On Down The Highway', 'Let it Ride', 'Hey You', 'Take It Like A Man', 'Blue Collar', 'I'm in Love', and four more!

Following his 1970 departure from the Guess Who, guitarist Randy Bachman recorded a solo album (Axe) and planned a project with ex-Nice keyboardist Keith Emerson (later canceled due to illness) before forming Bachman-Turner Overdrive in 1972. Originally called "Brave Belt," the metal group was comprised of singer/guitarist Bachman, fellow Guess Who alum Chad Allan, bassist C.F. "Fred" Turner, and Randy's brother, drummer Robbie; after a pair of LPs (Brave Belt I and Brave Belt II), Allan was replaced by another Bachman brother, guitarist Tim, and in homage to the trucker's magazine Overdrive, the unit became BTO.

While their self-titled 1973 debut caused little impact in the U.S. or the band's native Canada, Bachman-Turner Overdrive II was a smash, netting a hit single with the anthemic "Takin' Care of Business." Prior to the release of 1974's Not Fragile, Tim Bachman exited the group to begin a career in production, and was replaced by Blair Thornton; the album was a chart-topping success, and notched a number one single with "You Ain't Seen Nothin' Yet."

After 1977's Freeways, Randy Bachman left the group for a solo career and formed another group, Ironhorse. Bachman-Turner Overdrive continued on in his absence with replacement Jim Clench for two more albums, Street Action and Rock n' Roll Nights (both 1978), eventually changing their name to simply BTO. At the tail-end of the decade, the band dissolved, but in the 1980s they re-grouped to tour as both Bachman-Turner Overdrive (led by Randy) and BTO (led by Robbie); the ensuing confusion the name game triggered ultimately resulted in Randy Bachman filing suit against his one-time bandmates for rights to the group's logo.

Jason Ankeny, Allmusic.com

Bachman-Turner Overdrive - The Millennium Collection: The Best of Bachman-Turner Overdrive (2001) [20th Century Masters]



Tracklist:

01. Gimmie Your Money Please (04:42)
02. Blue Collar (06:10)
03. Takin' Care Of Business (04:51)
04. Let It Ride (04:26)
05. Roll On Down The Highway (03:56)
06. You Ain't Seen Nothing Yet (03:53)
07. Hey You (03:33)
08. Take It Like A Man (03:41)
09. Lookin' Out For # 1 (05:20)
10. Shotgun Rider (05:23)
11. I'm In Love (03:55)
12. Heartaches (03:52)


Exact Audio Copy V1.0 beta 3 from 29. August 2011

Отчёт EAC об извлечении, выполненном 5. августа 2015, 18:56

Bachman -Turner Overdrive / The Millennium Collection

Дисковод: ASUS DVD-E616A3T Adapter: 5 ID: 0

Режим чтения : Достоверность
Использование точного потока : Да
Отключение кэша аудио : Да
Использование указателей C2 : Нет

Коррекция смещения при чтении : 6
Способность читать области Lead-in и Lead-out : Нет
Заполнение пропущенных сэмплов тишиной : Да
Удаление блоков с тишиной в начале и конце : Нет
При вычислениях CRC использовались нулевые сэмплы : Да
Интерфейс : Встроенный Win32-интерфейс для Win NT/2000
Обработка зазоров : Добавлено к предыдущему треку

Выходной формат : Пользовательский кодировщик
Выбранный битрейт : 128 kBit/s
Качество : Высокий
Добавление ID3-тега : Нет
Утилита сжатия : C:\Program Files\Exact Audio Copy\Flac\flac.exe
Дополнительные параметры : -V -8 -T "Genre=%genre%" -T "Artist=%artist%" -T "Title=%title%" -T "Album=%albumtitle%" -T "Date=%year%" -T "Tracknumber=%tracknr%" -T "Comment=EAC1.0b2 FLAC -8" %source%


TOC извлечённого CD

Трек | Старт | Длительность | Начальный сектор | Конечный сектор
––––––––––––––––––––––––––––––––––-
1 | 0:00.00 | 4:42.72 | 0 | 21221
2 | 4:42.72 | 6:10.45 | 21222 | 49016
3 | 10:53.42 | 4:51.55 | 49017 | 70896
4 | 15:45.22 | 4:26.68 | 70897 | 90914
5 | 20:12.15 | 3:56.70 | 90915 | 108684
6 | 24:09.10 | 3:53.45 | 108685 | 126204
7 | 28:02.55 | 3:33.32 | 126205 | 142211
8 | 31:36.12 | 3:41.45 | 142212 | 158831
9 | 35:17.57 | 5:20.10 | 158832 | 182841
10 | 40:37.67 | 5:23.35 | 182842 | 207101
11 | 46:01.27 | 3:55.05 | 207102 | 224731
12 | 49:56.32 | 3:52.48 | 224732 | 242179


Трек 1

Имя файла R:\Раздача 51\Bachman - Turner Overdrive - 2000 - The Millennium Collection\01 Gimmie Your Money Please.wav

Длина предзазора 0:00:02.00

Пиковый уровень 90.9 %
Скорость извлечения 1.7 X
Качество трека 100.0 %
CRC теста 068ACB5D
CRC копии 068ACB5D
Точное извлечение (достоверность 8) [DFDC2897] (AR v2)
Копирование… OK

Трек 2

Имя файла R:\Раздача 51\Bachman - Turner Overdrive - 2000 - The Millennium Collection\02 Blue Collar.wav

Длина предзазора 0:00:02.40

Пиковый уровень 84.0 %
Скорость извлечения 2.0 X
Качество трека 100.0 %
CRC теста 747FC007
CRC копии 747FC007
Точное извлечение (достоверность 8) [17F19F77] (AR v2)
Копирование… OK

Трек 3

Имя файла R:\Раздача 51\Bachman - Turner Overdrive - 2000 - The Millennium Collection\03 Takin' Care Of Business.wav

Длина предзазора 0:00:01.15

Пиковый уровень 99.7 %
Скорость извлечения 2.1 X
Качество трека 100.0 %
CRC теста F6CF69AE
CRC копии F6CF69AE
Точное извлечение (достоверность 8) [81A476D9] (AR v2)
Копирование… OK

Трек 4

Имя файла R:\Раздача 51\Bachman - Turner Overdrive - 2000 - The Millennium Collection\04 Let It Ride.wav

Длина предзазора 0:00:02.42

Пиковый уровень 99.8 %
Скорость извлечения 2.0 X
Качество трека 99.9 %
CRC теста 3E59C18F
CRC копии 3E59C18F
Точное извлечение (достоверность 8) [384F55DE] (AR v2)
Копирование… OK

Трек 5

Имя файла R:\Раздача 51\Bachman - Turner Overdrive - 2000 - The Millennium Collection\05 Roll On Down The Highway.wav

Длина предзазора 0:00:02.08

Пиковый уровень 99.8 %
Скорость извлечения 2.4 X
Качество трека 100.0 %
CRC теста 928C6691
CRC копии 928C6691
Точное извлечение (достоверность 8) [CDF11B0B] (AR v2)
Копирование… OK

Трек 6

Имя файла R:\Раздача 51\Bachman - Turner Overdrive - 2000 - The Millennium Collection\06 You Ain't Seen Nothing Yet.wav

Длина предзазора 0:00:01.39

Пиковый уровень 86.0 %
Скорость извлечения 2.5 X
Качество трека 100.0 %
CRC теста 10B5387D
CRC копии 10B5387D
Точное извлечение (достоверность 8) [E1664BC4] (AR v2)
Копирование… OK

Трек 7

Имя файла R:\Раздача 51\Bachman - Turner Overdrive - 2000 - The Millennium Collection\07 Hey You.wav

Длина предзазора 0:00:01.43

Пиковый уровень 92.1 %
Скорость извлечения 1.6 X
Качество трека 99.8 %
CRC теста F1A9462F
CRC копии F1A9462F
Точное извлечение (достоверность 8) [165CBA34] (AR v2)
Копирование… OK

Трек 8

Имя файла R:\Раздача 51\Bachman - Turner Overdrive - 2000 - The Millennium Collection\08 Take It Like A Man.wav

Длина предзазора 0:00:01.67

Пиковый уровень 79.3 %
Скорость извлечения 2.7 X
Качество трека 100.0 %
CRC теста 116C8BF9
CRC копии 116C8BF9
Точное извлечение (достоверность 7) [E0CDBF76] (AR v2)
Копирование… OK

Трек 9

Имя файла R:\Раздача 51\Bachman - Turner Overdrive - 2000 - The Millennium Collection\09 Lookin' Out For # 1.wav

Длина предзазора 0:00:02.10

Пиковый уровень 79.3 %
Скорость извлечения 2.9 X
Качество трека 100.0 %
CRC теста 7E8F7D5F
CRC копии 7E8F7D5F
Точное извлечение (достоверность 8) [4D74A883] (AR v2)
Копирование… OK

Трек 10

Имя файла R:\Раздача 51\Bachman - Turner Overdrive - 2000 - The Millennium Collection\10 Shotgun Rider.wav

Длина предзазора 0:00:01.17

Пиковый уровень 100.0 %
Скорость извлечения 3.1 X
Качество трека 100.0 %
CRC теста 1D998F6E
CRC копии 1D998F6E
Точное извлечение (достоверность 8) [AF65DBFE] (AR v2)
Копирование… OK

Трек 11

Имя файла R:\Раздача 51\Bachman - Turner Overdrive - 2000 - The Millennium Collection\11 I'm In Love.wav

Длина предзазора 0:00:02.05

Пиковый уровень 100.0 %
Скорость извлечения 2.5 X
Качество трека 99.9 %
CRC теста F6E987B8
CRC копии F6E987B8
Точность не определена (достоверность 49) [AA7DE74F], AccurateRip вернул [1988A36E] (AR v2)
Копирование… OK

Трек 12

Имя файла R:\Раздача 51\Bachman - Turner Overdrive - 2000 - The Millennium Collection\12 Heartaches.wav

Длина предзазора 0:00:02.42

Пиковый уровень 100.0 %
Скорость извлечения 3.2 X
Качество трека 100.0 %
CRC теста 96818F94
CRC копии 96818F94
Точное извлечение (достоверность 7) [63A272F4] (AR v2)
Копирование… OK


11 трек(и) скопированы точно
1 трек(и) не удалось проверить на точность

Некоторые треки не прошли проверку на точность

Ошибок не произошло

Конец отчёта

==== Контрольная сумма отчёта 8AE8F675239CE310AE28A9FB2DE07CE87932498F4E8F1DA720B6556DA320E363 ====

foobar2000 1.2 / Dynamic Range Meter 1.1.1
log date: 2015-08-31 23:02:38

––––––––––––––––––––––––––––––––––––––––
Analyzed: Bachman -Turner Overdrive / The Millennium Collection
––––––––––––––––––––––––––––––––––––––––

DR Peak RMS Duration Track
––––––––––––––––––––––––––––––––––––––––
DR9 -0.82 dB -10.38 dB 4:43 01-Gimmie Your Money Please
DR10 -1.51 dB -13.27 dB 6:11 02-Blue Collar
DR9 -0.02 dB -10.12 dB 4:52 03-Takin' Care Of Business
DR8 -0.01 dB -10.33 dB 4:27 04-Let It Ride
DR8 -0.01 dB -9.36 dB 3:57 05-Roll On Down The Highway
DR7 -1.31 dB -9.99 dB 3:54 06-You Ain't Seen Nothing Yet
DR8 -0.71 dB -10.11 dB 3:33 07-Hey You
DR8 -2.01 dB -10.97 dB 3:42 08-Take It Like A Man
DR10 -2.01 dB -14.26 dB 5:20 09-Lookin' Out For # 1
DR9 0.00 dB -9.80 dB 5:23 10-Shotgun Rider
DR6 0.00 dB -7.30 dB 3:55 11-I'm In Love
DR7 0.00 dB -9.34 dB 3:53 12-Heartaches
––––––––––––––––––––––––––––––––––––––––

Number of tracks: 12
Official DR value: DR8

Samplerate: 44100 Hz
Channels: 2
Bits per sample: 16
Bitrate: 971 kbps
Codec: FLAC
================================================================================

Bachman-Turner Overdrive - The Millennium Collection: The Best of Bachman-Turner Overdrive (2001) [20th Century Masters]

Bachman-Turner Overdrive - The Millennium Collection: The Best of Bachman-Turner Overdrive (2001) [20th Century Masters]

All thanks to original releaser

More interesting music in My Blog