Tags
Language
Tags
May 2024
Su Mo Tu We Th Fr Sa
28 29 30 1 2 3 4
5 6 7 8 9 10 11
12 13 14 15 16 17 18
19 20 21 22 23 24 25
26 27 28 29 30 31 1

Stefan Hempel - Myths and Melodies - Music between the Wars (2023) [Official Digital Download 24/96]

Posted By: pyatak
Stefan Hempel - Myths and Melodies - Music between the Wars (2023) [Official Digital Download 24/96]

Stefan Hempel - Myths and Melodies - Music between the Wars (2023) [Official Digital Download 24/96]
FLAC (tracks) 24-bit/96 kHz | Front Cover | Time - 01:02:18 minutes | 1.23 GB
Classical | Studio Master, Official Digital Download

Das musikalisch wie technisch höchst anspruchsvolle Debüt-Programm Stefan Hempels und Daniel Seroussis unternimmt einen spannenden Streifzug durch das Repertoire für Violine und Klavier in wegweisenden Werken des frühen 20. Jahrhunderts.

TRACKLIST

1. Stefan Hempel - Five Melodies, Op. 35b: I. Andante
2. Stefan Hempel - Five Melodies, Op. 35b: II. Lento, ma non Troppo
3. Stefan Hempel - Five Melodies, Op. 35b: III. Animato, ma non Allegro
4. Stefan Hempel - Five Melodies, Op. 35b: IV. Allegretto leggero e Scherzando
5. Stefan Hempel - Five Melodies, Op. 35b: V. Andante non Troppo
6. Stefan Hempel - Mythes, Op. 30: I. La fontaine D'Arethuse
7. Stefan Hempel - Mythes, Op. 30: II. Narcisse
8. Stefan Hempel - Mythes, Op. 30: III. Dryades et Pan
9. Stefan Hempel - Pavane pour une infante défunte (Arr. For Violin and Piano by Paul Kochanski)
10. Stefan Hempel - Fantaisie
11. Stefan Hempel - Four Pieces from the Incidental Music to Shakespeare's "Much Ado About Nothing", Op. 11: I. The Maiden in the Bridal Chamber
13. Stefan Hempel - Four Pieces from the Incidental Music to Shakespeare's "Much Ado About Nothing", Op. 11: III. Scene in the Garden
14. Stefan Hempel - Four Pieces from the Incidental Music to Shakespeare's "Much Ado About Nothing", Op. 11: IV. Masquerade. Hornpipe
15. Stefan Hempel - Morceau de Concours

foobar2000 1.6.2 / Dynamic Range Meter 1.1.1
log date: 2023-02-05 17:46:54

––––––––––––––––––––––––––––––––––––––––
Analyzed: Stefan Hempel / Myths and Melodies - Music between the Wars
––––––––––––––––––––––––––––––––––––––––

DR Peak RMS Duration Track
––––––––––––––––––––––––––––––––––––––––
DR14 -1.00 dB -20.94 dB 2:08 01-Five Melodies, Op. 35b: I. Andante
DR12 -4.67 dB -21.64 dB 2:30 02-Five Melodies, Op. 35b: II. Lento, ma non Troppo
DR15 -1.00 dB -21.11 dB 3:27 03-Five Melodies, Op. 35b: III. Animato, ma non Allegro
DR12 -5.20 dB -22.02 dB 1:30 04-Five Melodies, Op. 35b: IV. Allegretto leggero e Scherzando
DR14 -1.00 dB -20.80 dB 3:08 05-Five Melodies, Op. 35b: V. Andante non Troppo
DR14 -1.00 dB -20.32 dB 5:42 06-Mythes, Op. 30: I. La fontaine D'Arethuse
DR14 -1.00 dB -20.75 dB 6:49 07-Mythes, Op. 30: II. Narcisse
DR13 -1.00 dB -19.27 dB 7:58 08-Mythes, Op. 30: III. Dryades et Pan
DR15 -2.91 dB -23.99 dB 4:57 09-Pavane pour une infante défunte (Arr. For Violin and Piano by Paul Kochanski)
DR12 -1.00 dB -16.10 dB 8:26 10-Fantaisie
DR13 -5.15 dB -22.59 dB 3:26 11-Four Pieces from the Incidental Music to Shakespeare's "Much Ado About Nothing", Op. 11: I. The Maiden in the Bridal Chamber
DR15 -3.70 dB -22.64 dB 5:17 13-Four Pieces from the Incidental Music to Shakespeare's "Much Ado About Nothing", Op. 11: III. Scene in the Garden
DR14 -1.00 dB -17.54 dB 2:24 14-Four Pieces from the Incidental Music to Shakespeare's "Much Ado About Nothing", Op. 11: IV. Masquerade. Hornpipe
DR12 -6.79 dB -23.10 dB 1:30 15-Morceau de Concours
––––––––––––––––––––––––––––––––––––––––

Number of tracks: 14
Official DR value: DR13

Samplerate: 96000 Hz
Channels: 2
Bits per sample: 24
Bitrate: 2807 kbps
Codec: FLAC
================================================================================



Thanks to the Original customer.