Tags
Language
Tags
March 2024
Su Mo Tu We Th Fr Sa
25 26 27 28 29 1 2
3 4 5 6 7 8 9
10 11 12 13 14 15 16
17 18 19 20 21 22 23
24 25 26 27 28 29 30
31 1 2 3 4 5 6

Orchestra Of The Age Of Enlightenment - Bach- Mass in B Minor, BWV 232 (2018) [Official Digital Download 24/96]

Posted By: pyatak
Orchestra Of The Age Of Enlightenment - Bach- Mass in B Minor, BWV 232 (2018) [Official Digital Download 24/96]

Orchestra Of The Age Of Enlightenment - Bach- Mass in B Minor, BWV 232 (2018) [Official Digital Download 24/96]
FLAC (tracks) 24-bit/96 kHz | Front Cover | Time - 01:47:45 minutes | 1.99 GB
Classical | Studio Master, Official Digital Download

Among the 23 German documents included in UNESCO’s “Memory of the World” list, there are but two musical manuscripts: Beethoven’s Symphony No. 9 and Johann Sebastian Bach’s Mass in B minor. The second one – an immense work of sacred music – is both exceptional and paradoxical among all those composed by the cantor of Leipzig. Written in the hope of securing the post of the court composer for the king of Poland and Lithuania, Elector of Saxony Augustus III, seems to crown Bach’s body of work, being a summa of his artistic mastery – paradoxically, as it is a Catholic mass, while Bach is one of the greatest composers of Lutheran sacred music. The Mass in B minor is the peak of Baroque confession, a universe of musical emotions, expanding with every new interpretation. Václav Luks published his recorded version in 2013, and now he returns to the work with other ensembles – the exquisite London-based Choir and Orchestra of the Age of Enlightenment. This is an occasion not to be missed.

TRACKLIST

1. Stephen Layton - J.S. Bach: Mass in B Minor, BWV 232: Kyrie: I. Kyrie eleison (Chorus)
2. Orchestra Of The Age Of Enlightenment - J.S. Bach: Mass in B Minor, BWV 232: Kyrie: II. Christe eleison (Soprano I, II)
3. The Choir of Trinity College Cambridge - J.S. Bach: Mass in B Minor, BWV 232: Kyrie: III. Kyrie eleison (Chorus)
4. Orchestra Of The Age Of Enlightenment - J.S. Bach: Mass in B Minor, BWV 232: Gloria: I. Gloria in excelsis Deo (Chorus)
5. The Choir of Trinity College Cambridge - J.S. Bach: Mass in B Minor, BWV 232: Gloria: II. Et in terra pax hominibus (Chorus)
6. Stephen Layton - J.S. Bach: Mass in B Minor, BWV 232: Gloria: III. Laudamus te (Soprano II)
7. The Choir of Trinity College Cambridge - J.S. Bach: Mass in B Minor, BWV 232: Gloria: IV. Gratias agimus tibi (Chorus)
8. Katherine Watson - J.S. Bach: Mass in B Minor, BWV 232: Gloria: V. Domine Deus (Soprano I, Tenor)
9. Stephen Layton - J.S. Bach: Mass in B Minor, BWV 232: Gloria: VI. Qui tollis peccata mundi (Chorus)
10. Iestyn Davies - J.S. Bach: Mass in B Minor, BWV 232: Gloria: VII. Qui sedes ad dexteram Patris (Alto)
11. Stephen Layton - J.S. Bach: Mass in B Minor, BWV 232: Gloria: VIII. Quoniam tu solus sanctus (Bass)
12. The Choir of Trinity College Cambridge - J.S. Bach: Mass in B Minor, BWV 232: Gloria: IX. Cum Sancto Spiritu (Chorus)
13. Stephen Layton - J.S. Bach: Mass in B Minor, BWV 232: Credo: I. Credo in unum Deum (Chorus)
14. Stephen Layton - J.S. Bach: Mass in B Minor, BWV 232: Credo: II. Patrem omnipotentem (Chorus)
15. Orchestra Of The Age Of Enlightenment - J.S. Bach: Mass in B Minor, BWV 232: Credo: III. Et in unum Dominum (Duet)
16. Orchestra Of The Age Of Enlightenment - J.S. Bach: Mass in B Minor, BWV 232: Credo: IV. Et incarnatus est (Chorus)
17. The Choir of Trinity College Cambridge - J.S. Bach: Mass in B Minor, BWV 232: Credo: V. Crucifixus etiam pro nobis (Chorus)
18. Stephen Layton - J.S. Bach: Mass in B Minor, BWV 232: Credo: VI. Et resurrexit tertia die (Chorus)
19. Neal Davies - J.S. Bach: Mass in B Minor, BWV 232: Credo: VII. Et in Spiritum Sanctum (Aria)
20. Stephen Layton - J.S. Bach: Mass in B Minor, BWV 232: Credo: VIII. Confiteor unum baptisma (Chorus)
21. The Choir of Trinity College Cambridge - J.S. Bach: Mass in B Minor, BWV 232: Credo: IX. Et exspecto resurrectionem (Chorus)
22. The Choir of Trinity College Cambridge - J.S. Bach: Mass in B Minor, BWV 232: Sanctus: I. Sanctus, Domine Deus (Chorus)
23. Stephen Layton - J.S. Bach: Mass in B Minor, BWV 232: Sanctus: II. Osanna in excelsis (Chorus)
24. Orchestra Of The Age Of Enlightenment - J.S. Bach: Mass in B Minor, BWV 232: Benedictus: I. Benedictus qui venit (Tenor)
25. The Choir of Trinity College Cambridge - J.S. Bach: Mass in B Minor, BWV 232: Benedictus: II. Osanna in excelsis (Chorus)
26. Stephen Layton - J.S. Bach: Mass in B Minor, BWV 232: Agnus Dei: I. Agnus Dei (Aria)
27. Orchestra Of The Age Of Enlightenment - J.S. Bach: Mass in B Minor, BWV 232: Agnus Dei: II. Dona nobis pacem (Chorus)

foobar2000 1.6.2 / Dynamic Range Meter 1.1.1
log date: 2023-10-01 17:33:26

––––––––––––––––––––––––––––––––––––––––
Analyzed: Iestyn Davies / Bach: Mass in B Minor, BWV 232 (1)
Katherine Watson / Bach: Mass in B Minor, BWV 232 (2)
Neal Davies / Bach: Mass in B Minor, BWV 232 (3)
Orchestra Of The Age Of Enlightenment / Bach: Mass in B Minor, BWV 232 (4-9)
Stephen Layton / Bach: Mass in B Minor, BWV 232 (10-19)
The Choir of Trinity College Cambridge / Bach: Mass in B Minor, BWV 232 (20-27)
––––––––––––––––––––––––––––––––––––––––

DR Peak RMS Duration Track
––––––––––––––––––––––––––––––––––––––––
DR13 -1.91 dB -19.87 dB 4:29 10-J.S. Bach: Mass in B Minor, BWV 232: Gloria: VII. Qui sedes ad dexteram Patris (Alto)
DR13 -4.08 dB -21.17 dB 5:31 08-J.S. Bach: Mass in B Minor, BWV 232: Gloria: V. Domine Deus (Soprano I, Tenor)
DR14 -4.08 dB -21.20 dB 5:19 19-J.S. Bach: Mass in B Minor, BWV 232: Credo: VII. Et in Spiritum Sanctum (Aria)
DR13 -3.90 dB -20.46 dB 4:58 02-J.S. Bach: Mass in B Minor, BWV 232: Kyrie: II. Christe eleison (Soprano I, II)
DR12 -0.64 dB -15.60 dB 1:44 04-J.S. Bach: Mass in B Minor, BWV 232: Gloria: I. Gloria in excelsis Deo (Chorus)
DR14 -1.07 dB -19.15 dB 4:23 15-J.S. Bach: Mass in B Minor, BWV 232: Credo: III. Et in unum Dominum (Duet)
DR12 -4.09 dB -21.80 dB 3:23 16-J.S. Bach: Mass in B Minor, BWV 232: Credo: IV. Et incarnatus est (Chorus)
DR12 -5.86 dB -22.61 dB 4:17 24-J.S. Bach: Mass in B Minor, BWV 232: Benedictus: I. Benedictus qui venit (Tenor)
DR11 -0.45 dB -15.79 dB 3:31 27-J.S. Bach: Mass in B Minor, BWV 232: Agnus Dei: II. Dona nobis pacem (Chorus)
DR13 -1.39 dB -19.33 dB 9:57 01-J.S. Bach: Mass in B Minor, BWV 232: Kyrie: I. Kyrie eleison (Chorus)
DR13 -2.98 dB -20.04 dB 4:23 06-J.S. Bach: Mass in B Minor, BWV 232: Gloria: III. Laudamus te (Soprano II)
DR11 -5.21 dB -20.43 dB 3:05 09-J.S. Bach: Mass in B Minor, BWV 232: Gloria: VI. Qui tollis peccata mundi (Chorus)
DR13 -3.88 dB -19.75 dB 4:29 11-J.S. Bach: Mass in B Minor, BWV 232: Gloria: VIII. Quoniam tu solus sanctus (Bass)
DR11 -1.44 dB -16.82 dB 1:59 13-J.S. Bach: Mass in B Minor, BWV 232: Credo: I. Credo in unum Deum (Chorus)
DR12 -0.69 dB -16.43 dB 2:04 14-J.S. Bach: Mass in B Minor, BWV 232: Credo: II. Patrem omnipotentem (Chorus)
DR13 -0.63 dB -17.05 dB 4:04 18-J.S. Bach: Mass in B Minor, BWV 232: Credo: VI. Et resurrexit tertia die (Chorus)
DR13 -2.27 dB -19.88 dB 3:55 20-J.S. Bach: Mass in B Minor, BWV 232: Credo: VIII. Confiteor unum baptisma (Chorus)
DR13 -0.40 dB -16.10 dB 2:42 23-J.S. Bach: Mass in B Minor, BWV 232: Sanctus: II. Osanna in excelsis (Chorus)
DR13 -2.59 dB -21.92 dB 5:17 26-J.S. Bach: Mass in B Minor, BWV 232: Agnus Dei: I. Agnus Dei (Aria)
DR13 -2.42 dB -20.21 dB 3:25 03-J.S. Bach: Mass in B Minor, BWV 232: Kyrie: III. Kyrie eleison (Chorus)
DR13 -0.66 dB -18.21 dB 4:26 05-J.S. Bach: Mass in B Minor, BWV 232: Gloria: II. Et in terra pax hominibus (Chorus)
DR11 -0.70 dB -15.72 dB 3:15 07-J.S. Bach: Mass in B Minor, BWV 232: Gloria: IV. Gratias agimus tibi (Chorus)
DR11 -0.40 dB -14.88 dB 3:42 12-J.S. Bach: Mass in B Minor, BWV 232: Gloria: IX. Cum Sancto Spiritu (Chorus)
DR13 -4.03 dB -22.44 dB 3:24 17-J.S. Bach: Mass in B Minor, BWV 232: Credo: V. Crucifixus etiam pro nobis (Chorus)
DR11 -0.57 dB -14.62 dB 2:06 21-J.S. Bach: Mass in B Minor, BWV 232: Credo: IX. Et exspecto resurrectionem (Chorus)
DR12 -0.52 dB -15.90 dB 5:12 22-J.S. Bach: Mass in B Minor, BWV 232: Sanctus: I. Sanctus, Domine Deus (Chorus)
DR13 -0.40 dB -16.80 dB 2:45 25-J.S. Bach: Mass in B Minor, BWV 232: Benedictus: II. Osanna in excelsis (Chorus)
––––––––––––––––––––––––––––––––––––––––

Number of tracks: 27
Official DR value: DR12

Samplerate: 96000 Hz
Channels: 2
Bits per sample: 24
Bitrate: 2701 kbps
Codec: FLAC
================================================================================



Thanks to the Original customer.