Tags
Language
Tags
July 2024
Su Mo Tu We Th Fr Sa
30 1 2 3 4 5 6
7 8 9 10 11 12 13
14 15 16 17 18 19 20
21 22 23 24 25 26 27
28 29 30 31 1 2 3

Shye Ben Tzur, Jonny Greenwood & the Rajasthan Express - Junun (2015) [Official Digital Download]

Posted By: SERTiL
Shye Ben Tzur, Jonny Greenwood & the Rajasthan Express - Junun (2015) [Official Digital Download]

Shye Ben Tzur, Jonny Greenwood & the Rajasthan Express - Junun (2015)
FLAC (tracks) 24-bit/48 kHz | Time - 60:43 minutes | 701 MB
Studio Master, Official Digital Download | Artwork: Digital Booklet

Nonesuch Records releases Junun – an album from composer/musician Shye Ben Tzur, guitarist Jonny Greenwood, and The Rajasthan Express, a group of Indian qawwali musicians – on November 20. Recorded earlier this year in a makeshift studio inside the 15th-century Mehrangarh Fort in Jodhpur, India, the album was made with Radiohead’s producer Nigel Godrich, who worked with the ensemble to create this Vinyl album. The album features Ben Tzur’s compositions, which combine ecstatic, devotional Sufi qawwal musical traditions and his native Hebrew.

The filmmaker Paul Thomas Anderson, a friend and frequent collaborator of Greenwood, came along to document the recording sessions as well as daily life and the close camaraderie of artistic collaboration. Anderson’s resulting impressionistic film, also entitled Junun, debuted at the New York Film Festival.

Greenwood made a guest appearance last year during Ben Tzur’s London concert, where they previewed some of the music of Junun, and this summer, the two were joined by the qawwali party for two performances at the Jerusalem Sacred Music Festival.

Shye Ben Tzur is an Israeli composer/producer/poet and performer who lives in India and Israel. He composes qawwalis, instrumental and devotional music, in Hebrew, Urdu, and Hindi. A concert by Zakir Hussain and Hariprasad Chaurasia that Ben Tzur attended as a young man was life-changing. “It touched my heart so deeply,” he says. “It was at the time the deepest musical experience I had gone through. It moved me so that I could do nothing but go find out what it is. I feel I’m still in that spot. I don’t think I have achieved it. Indian music is so vast and so deep and the more I learn different things about it, I realize how ignorant I was. It just doesn’t stop.”

“When I was in the Negev desert in southern Israel a couple of years ago, I heard a band playing a song using an Arabic violin called a rehab,” Greenwood told London’s Evening Standard. “It was a strange mix of Arabic and traditional Indian music, one that I’d never come across before.” He continued, “The best song, I found out, was written by Shye Ben Tzur, an Israeli musician who had been living in India until this year. I set out to discover more about him… I’m always a little wary of rock bands half-heartedly dabbling in world music – itself a slightly greasy term – but there are exceptions. Damon Albarn is one: his work with musicians in Mali is something he’s clearly fully committed to. And I think Shye Ben Tzur is another.”

Widely known as the guitarist for Radiohead, Jonny Greenwood also is a highly respected composer. In addition to his soundtracks to Paul Thomas Anderson’s Inherent Vice, There Will Be Blood, and The Master, Nonesuch also released his score for Norwegian Wood and his collaboration with Polish composer Krzysztof Penderecki.

Tracklist:
01. Junun
02. Roked
03. Hu
04. Chala Vahi Des
05. Kalandar
06. Eloah
07. Julus
08. Allah Elohim
09. Ahuvi
10. Azov
11. Junun Brass
12. There Are Birds In The Echo Chamber
13. Modeh

foobar2000 1.3.7 / Dynamic Range Meter 1.1.1
log date: 2018-04-28 12:28:02

––––––––––––––––––––––––––––––––––––––––
Analyzed: Shye Ben Tzur, Jonny Greenwood and the Rajasthan Express / Junun
––––––––––––––––––––––––––––––––––––––––

DR Peak RMS Duration Track
––––––––––––––––––––––––––––––––––––––––
DR6 -0.08 dB -7.23 dB 5:54 01-Junun
DR6 -0.09 dB -7.85 dB 3:22 02-Roked
DR6 -0.04 dB -9.22 dB 7:49 03-Hu
DR6 0.00 dB -8.29 dB 4:16 04-Chala Vahi Des
DR8 -0.07 dB -11.84 dB 8:50 05-Kalandar
DR7 0.00 dB -11.25 dB 3:57 06-Eloah
DR7 -0.08 dB -8.13 dB 3:44 07-Julus
DR5 -0.05 dB -6.11 dB 4:21 08-Allah Elohim
DR8 -0.10 dB -12.13 dB 5:10 09-Ahuvi
DR6 -0.09 dB -9.78 dB 3:50 10-Azov
DR7 -0.06 dB -10.15 dB 3:29 11-Junun Brass
DR10 -10.67 dB -32.81 dB 0:32 12-There Are Birds in the Echo Chamber
DR7 0.00 dB -8.82 dB 5:35 13-Modeh
––––––––––––––––––––––––––––––––––––––––

Number of tracks: 13
Official DR value: DR7

Samplerate: 48000 Hz
Channels: 2
Bits per sample: 24
Bitrate: 1673 kbps
Codec: FLAC
================================================================================


Thanks to the Original customer.