Tags
Language
Tags

Dan Laurin - Telemann - Recorder Sonatas (2022) [Official Digital Download 24/96]

Posted By: pyatak
Dan Laurin - Telemann - Recorder Sonatas (2022) [Official Digital Download 24/96]

Dan Laurin - Telemann - Recorder Sonatas (2022) [Official Digital Download 24/96]
FLAC (tracks) 24-bit/96 kHz | Front Cover | Time - 69:42 minutes | 1,43 GB
Classical | Studio Master, Official Digital Download

Over the past decades, Dan Laurin has established himself as one of the most interesting recorder players of our time. His more than 30 critically acclaimed releases on BIS range from a seminal set of van Eyck's Der Fluyten Lust-hof to contemporary concertos. The first recordings Laurin made for the label were of duets by Georg Philipp Telemann, and since then he has returned to the composer several times, recording chamber music and concertos. It is only now that he has set the complete sonatas, however – works that he describes in his liner notes as forming part of most recorder players’ "musical DNA".

Performing them here with his regular chamber music partners Anna Paradiso and Mats Olofsson, Laurin revels in the wide technical and emotional scope of the sonatas as well as their stylistic diversity. In the C major Sonata TWV 41:C5 Telemann looks backwards as he pays tribute to his illustrious forerunner Corelli, while the Empfindsamkeit of the Affettuoso of the D minor Sonata is very much of its time – and throughout the collection there are traces of composer’s fascination for Polish folk music.

TRACKLIST

1. Dan Laurin - I. Adagio - Allegro - Adagio - Allegro
2. Dan Laurin - II. Larghetto
3. Dan Laurin - III. Vivace
4. Dan Laurin - I. Andante
5. Dan Laurin - II. Allegro
6. Dan Laurin - III. Andante
7. Dan Laurin - IV. Presto
8. Dan Laurin - I. Adagio
9. Dan Laurin - II. Allegro
10. Dan Laurin - III. Adagio
11. Dan Laurin - IV. Gigue
12. Dan Laurin - I. Largo
13. Dan Laurin - II. Allegro
14. Dan Laurin - III. Dolce
15. Dan Laurin - IV. Vivace
16. Dan Laurin - I. Vivace
17. Dan Laurin - II. Largo
18. Dan Laurin - III. Allegro
19. Dan Laurin - I. Affettuoso
20. Dan Laurin - II. Presto
21. Dan Laurin - III. Grave
22. Dan Laurin - IV. Allegro
23. Dan Laurin - I. Triste
24. Dan Laurin - II. Allegro
25. Dan Laurin - III. Andante
26. Dan Laurin - IV. Vivace
27. Dan Laurin - I. Cantabile
28. Dan Laurin - II. Allegro
29. Dan Laurin - III. Grave
30. Dan Laurin - IV. Vivace

foobar2000 1.6.2 / Dynamic Range Meter 1.1.1
log date: 2022-08-06 16:45:05

––––––––––––––––––––––––––––––––––––––––
Analyzed: Dan Laurin / Telemann: Recorder Sonatas
––––––––––––––––––––––––––––––––––––––––

DR Peak RMS Duration Track
––––––––––––––––––––––––––––––––––––––––
DR10 -2.03 dB -15.73 dB 2:40 01-I. Adagio - Allegro - Adagio - Allegro
DR9 -4.33 dB -16.80 dB 2:02 02-II. Larghetto
DR11 -1.48 dB -16.19 dB 3:19 03-III. Vivace
DR9 -3.24 dB -16.75 dB 2:59 04-I. Andante
DR11 -1.26 dB -15.76 dB 1:54 05-II. Allegro
DR10 -2.52 dB -17.03 dB 2:49 06-III. Andante
DR10 -2.53 dB -15.96 dB 2:03 07-IV. Presto
DR9 -4.06 dB -16.09 dB 2:20 08-I. Adagio
DR11 -3.58 dB -16.97 dB 1:47 09-II. Allegro
DR9 -3.64 dB -16.93 dB 2:03 10-III. Adagio
DR10 -3.96 dB -17.12 dB 1:51 11-IV. Gigue
DR9 -3.40 dB -17.24 dB 2:04 12-I. Largo
DR10 -2.83 dB -16.51 dB 1:27 13-II. Allegro
DR8 -5.46 dB -17.86 dB 2:33 14-III. Dolce
DR10 -2.63 dB -16.86 dB 2:24 15-IV. Vivace
DR10 -2.57 dB -16.51 dB 2:45 16-I. Vivace
DR10 -4.18 dB -17.79 dB 2:14 17-II. Largo
DR11 -0.20 dB -17.49 dB 1:40 18-III. Allegro
DR9 -2.83 dB -15.62 dB 1:59 19-I. Affettuoso
DR11 -2.42 dB -15.66 dB 3:34 20-II. Presto
DR9 -4.41 dB -16.95 dB 0:52 21-III. Grave
DR11 -2.88 dB -16.49 dB 3:12 22-IV. Allegro
DR10 -2.35 dB -16.24 dB 2:37 23-I. Triste
DR10 -2.39 dB -16.16 dB 4:13 24-II. Allegro
DR9 -4.16 dB -16.26 dB 1:49 25-III. Andante
DR11 -3.16 dB -17.11 dB 2:25 26-IV. Vivace
DR8 -3.19 dB -15.62 dB 1:48 27-I. Cantabile
DR11 -2.25 dB -16.60 dB 2:16 28-II. Allegro
DR9 -1.67 dB -15.49 dB 1:47 29-III. Grave
DR11 -2.95 dB -16.88 dB 2:32 30-IV. Vivace
––––––––––––––––––––––––––––––––––––––––

Number of tracks: 30
Official DR value: DR10

Samplerate: 96000 Hz
Channels: 2
Bits per sample: 24
Bitrate: 2693 kbps
Codec: FLAC
================================================================================



Thanks to the Original customer.