Tags
Language
Tags
June 2024
Su Mo Tu We Th Fr Sa
26 27 28 29 30 31 1
2 3 4 5 6 7 8
9 10 11 12 13 14 15
16 17 18 19 20 21 22
23 24 25 26 27 28 29
30 1 2 3 4 5 6

Math Tutor DVD The Ultimate Physics 3 Tutor, Volume 2

Posted By: ParRus
Math Tutor DVD The Ultimate Physics 3 Tutor, Volume 2

Math Tutor DVD The Ultimate Physics 3 Tutor, Volume 2
3xDVDRip | English | AVI | 720 x 480 | DX50 ~1769 kbps | 29.970 fps
MP3 | 256 Kbps | 48.0 KHz | 2 channels | 10:47:55 | 10.67 GB
Genre: eLearning Video / Lectures, Chemistry, Physics

The study of Electricity and Magnetism in Physics is challenging for most students because the concepts usually involve higher math that requires the problems to be fully understood prior to starting work. In addition, the concepts always involve invisible electric and magnetic fields which are hard to visualize for most students.
This DVD course begins by explaining every topic in great detail using a variety of illustrations and practical examples. The core topics are all taught by working fully worked example problems which help the student review for exams and build homework problem solving skills.

Every problem is fully worked with no steps skipped. The easiest way to learn physics is to learn-by-doing, and this is what this DVD set provides.


How are the MathTutorDVD.com line of DVDs different?
The answer is simple. Most math instruction involves a lengthy discussion of the theory behind the Math before instructing the student in how to solve problems. In the vast majority of the cases the student quickly gets bored and frustrated by the time he or she starts to solve the problems. This DVD, in contrast, teaches all of the concepts by working fully worked problems step-by-step, which is a much more engaging way to learn.

Exceptional value and affordability.
MathTutorDVD.com believes in providing value for our customers. This is a 10 Hour DVD course. This entire DVD costs less than an hour of an in-home tutor, and you may rewatch the lessons as many times as needed to master the material!


What is our teaching style like?
All topics on this DVD are taught by working example problems. There are no traditional lectures of background material that won't help you solve problems and improve your skills. We believe in teaching-by-doing and that is what you will receive by watching this DVD. Undetermined coefficients is explained, for example, by working many problems in step-by-step detail. We begin with the easier problems and work our way up to the harder problems.

The student immediately gains confidence, does not get bored, and quickly feels like he or she can conquer the material. This method is extremely powerful and has proven itself time and again. Perhaps most importantly, problem solving skills are honed early on that will help with homework and taking exams even after watching the very first lesson.

also You can find my other helpful Programming-posts
(if old file-links don't show activity, try copy-paste them to the address bar)

General
Complete name : 05-Energy_Storage_in_a_Capacitor.avi
Format : AVI
Format/Info : Audio Video Interleave
File size : 1 003 MiB
Duration : 1 h 8 min
Overall bit rate : 2 039 kb/s
Writing application : Lavf51.12.1

Video
ID : 0
Format : MPEG-4 Visual
Format profile : Simple@L1
Format settings, BVOP : No
Format settings, QPel : No
Format settings, GMC : No warppoints
Format settings, Matrix : Default (H.263)
Codec ID : DX50
Codec ID/Hint : DivX 5
Duration : 1 h 8 min
Bit rate : 1 769 kb/s
Width : 720 pixels
Height : 480 pixels
Display aspect ratio : 3:2
Frame rate : 29.970 (30000/1001) FPS
Standard : NTSC
Color space : YUV
Chroma subsampling : 4:2:0
Bit depth : 8 bits
Scan type : Progressive
Compression mode : Lossy
Bits/(Pixel*Frame) : 0.171
Stream size : 870 MiB (87%)
Writing library : Lavc51.40.4

Audio
ID : 1
Format : MPEG Audio
Format version : Version 1
Format profile : Layer 3
Format settings : Joint stereo / MS Stereo
Codec ID : 55
Codec ID/Hint : MP3
Duration : 1 h 8 min
Bit rate mode : Constant
Bit rate : 256 kb/s
Channel(s) : 2 channels
Sampling rate : 48.0 kHz
Compression mode : Lossy
Stream size : 126 MiB (13%)
Alignment : Aligned on interleaves
Interleave, duration : 24 ms (0.72 video frame)
Interleave, preload duration : 24 ms
Screenshots

Math Tutor DVD The Ultimate Physics 3 Tutor, Volume 2

Math Tutor DVD The Ultimate Physics 3 Tutor, Volume 2

Math Tutor DVD The Ultimate Physics 3 Tutor, Volume 2

Math Tutor DVD The Ultimate Physics 3 Tutor, Volume 2

✅ Exclusive eLearning Videos ParRus-blogadd to bookmarks
Feel free to contact me PM
when links are dead or want any repost

Math Tutor DVD The Ultimate Physics 3 Tutor, Volume 2