Tags
Language
Tags
July 2024
Su Mo Tu We Th Fr Sa
30 1 2 3 4 5 6
7 8 9 10 11 12 13
14 15 16 17 18 19 20
21 22 23 24 25 26 27
28 29 30 31 1 2 3

Solo: A Star Wars Story (2018) [4K, Ultra HD]

Posted By: Without
2160p (4k UHD) / BluRay Remux IMDb
Solo: A Star Wars Story (2018) [4K, Ultra HD]

Solo: A Star Wars Story (2018)
4K UHD Remux | MKV | 2 h 14 min | 52.2 GB | 3840x2160 | HEVC@43.1 Mb/s | English TrueHD@4981 kb/s
English DTS-HD MA@3548 kb/s, 8 ch | English AC3@640 kb/s, 6 ch | English AC3@320 kb/s, 2 ch
Français, Español AC3@500 b/s, 8 ch | ภาษาไทย AC3@640 kb/s, 6 ch
Subs: English, Español, Français, 한국어, ภาษาไทย, 中文
Genre: Action, Adventure, Sci-Fi

Board the Millennium Falcon and journey to a galaxy far, far away in an epic action-adventure that will set the course of one of the Star Wars saga's most unlikely heroes.



General
Solo.A.Star.Wars.Story.2018.PROPER.2160p.BluRay.REMUX.HEVC.DTS-HD.MA.TrueHD.7.1.Atmos-FGT.mkv
Format : Matroska
Format version : Version 4 / Version 2
File size : 52.2 GB
Duration : 2 h 14 min
Overall bit rate mode : Variable
Overall bit rate : 55.5 Mb/s
Encoded date : UTC 2022-11-14 21:32:40
Writing application : mkvmerge v71.1.0 ('Fortitude') 64-bit
Writing library : libebml v1.4.4 + libmatroska v1.7.1
Original source medium : Blu-ray

Video
ID : 1
ID in the original source medium : 4113 (0x1011)
Format : HEVC
Format/Info : High Efficiency Video Coding
Format profile : Main 10@L5.1@High
Codec ID : V_MPEGH/ISO/HEVC
Duration : 2 h 14 min
Bit rate : 43.1 Mb/s
Width : 3840 pixels
Height : 2160 pixels
Display aspect ratio : 16:9
Frame rate mode : Constant
Frame rate : 23.976 (24000/1001) FPS
Color space : YUV
Chroma subsampling : 4:2:0 (Type 2)
Bit depth : 10 bits
Bits/(Pixel*Frame) : 0.217
Stream size : 40.6 GB (78%)
Writing library : ATEME Titan File 3.8.16 (4.8.16.0)
Language : English
Default : No
Forced : No
Color range : Limited
Color primaries : BT.2020
Transfer characteristics : SMPTE ST 2084
Matrix coefficients : BT.2020 non-constant
Mastering display color primaries : R: x=0.680000 y=0.320000, G: x=0.265000 y=0.690000, B: x=0.150000 y=0.060000, White point: x=0.312700 y=0.329000
Mastering display luminance : min: 0.0001 cd/m2, max: 1000.0000 cd/m2

Audio #1
ID : 2
ID in the original source medium : 4352 (0x1100)
Format : Atmos / TrueHD
Codec ID : A_TRUEHD
Duration : 2 h 14 min
Bit rate mode : Variable
Bit rate : 4981 kb/s
Maximum bit rate : 4647 kb/s
Channel(s) : Object Based / 8 channels
Channel positions : Object Based / Front: L C R, Side: L R, Back: L R, LFE
Sampling rate : / 48.0 kHz
Frame rate : 1200.000 FPS (40 spf)
Bit depth : 24 bits
Compression mode : Lossless
Stream size : 4.69 GB (9%)
Title : TrueHD 7.1 Atmos
Language : English
Default : Yes
Forced : No

Audio #2
ID : 3
Format : DTS
Format/Info : Digital Theater Systems
Format profile : MA / Core
Mode : 16
Format settings, Endianness : Big
Codec ID : A_DTS
Duration : 2 h 14 min
Bit rate mode : Variable / Constant
Bit rate : 3548 kb/s / 1509 kb/s
Channel(s) : 8 channels / 6 channels
Channel positions : Front: L C R, Side: L R, Back: L R, LFE / Front: L C R, Side: L R, LFE
Sampling rate : 48.0 kHz
Frame rate : 93.750 FPS (512 spf)
Bit depth : 24 bits
Compression mode : Lossless / Lossy
Stream size : 3.34 GB (6%)
Title : DTS-HD MA 7.1
Language : English
Default : No
Forced : No

Audio #3
ID : 4
ID in the original source medium : 4352 (0x1100)
Format : AC-3
Format/Info : Audio Coding 3
Mode extension : CM (complete main)
Format settings, Endianness : Big
Codec ID : A_AC3
Duration : 2 h 14 min
Bit rate mode : Constant
Bit rate : 640 kb/s
Channel(s) : 6 channels
Channel positions : Front: L C R, Side: L R, LFE
Sampling rate : 48.0 kHz
Frame rate : 31.250 FPS (1536 spf)
Bit depth : 16 bits
Compression mode : Lossy
Stream size : 617 MB (1%)
Title : DD 5.1
Language : English
Default : No
Forced : No

Audio #4
ID : 5
ID in the original source medium : 4353 (0x1101)
Format : AC-3
Format/Info : Audio Coding 3
Mode extension : CM (complete main)
Format settings, Endianness : Big
Codec ID : A_AC3
Duration : 2 h 14 min
Bit rate mode : Constant
Bit rate : 320 kb/s
Channel(s) : 2 channels
Channel positions : Front: L R
Sampling rate : 48.0 kHz
Frame rate : 31.250 FPS (1536 spf)
Bit depth : 16 bits
Compression mode : Lossy
Stream size : 308 MB (1%)
Title : DD 2.0
Language : English
Default : No
Forced : No

Audio #5
ID : 6
Format : E-AC-3
Format/Info : Enhanced Audio Coding 3
Format settings, Endianness : Big
Codec ID : A_EAC3
Duration : 2 h 14 min
Bit rate mode : Constant
Bit rate : 500 b/s
Channel(s) : 8 channels
Channel(s)_Original : 6 channels
Channel positions : Front: L C R, Side: L R, LFE
Sampling rate : 48.0 kHz
Frame rate : 187.500 FPS (256 spf)
Compression mode : Lossy
Stream size : 987 MB (2%)
Title : DDP 7.1
Language : French
Default : No
Forced : No

Audio #6
ID : 7
Format : E-AC-3
Format/Info : Enhanced Audio Coding 3
Format settings, Endianness : Big
Codec ID : A_EAC3
Duration : 2 h 14 min
Bit rate mode : Constant
Bit rate : 500 b/s
Channel(s) : 8 channels
Channel(s)_Original : 6 channels
Channel positions : Front: L C R, Side: L R, LFE
Sampling rate : 48.0 kHz
Frame rate : 187.500 FPS (256 spf)
Compression mode : Lossy
Stream size : 987 MB (2%)
Title : DDP 7.1
Language : Spanish
Default : No
Forced : No

Audio #7
ID : 8
ID in the original source medium : 4356 (0x1104)
Format : AC-3
Format/Info : Audio Coding 3
Mode extension : CM (complete main)
Format settings, Endianness : Big
Codec ID : A_AC3
Duration : 2 h 14 min
Bit rate mode : Constant
Bit rate : 640 kb/s
Channel(s) : 6 channels
Channel positions : Front: L C R, Side: L R, LFE
Sampling rate : 48.0 kHz
Frame rate : 31.250 FPS (1536 spf)
Bit depth : 16 bits
Compression mode : Lossy
Stream size : 617 MB (1%)
Title : DD 5.1
Language : Thai
Default : No
Forced : No

Text #1
ID : 9
Format : UTF-8
Codec ID : S_TEXT/UTF8
Codec ID/Info : UTF-8 Plain Text
Duration : 2 h 5 min
Bit rate : 57 b/s
Count of elements : 1956
Stream size : 52.7 KiB (0%)
Language : English
Default : Yes
Forced : No

Text #2
ID : 10
Format : UTF-8
Codec ID : S_TEXT/UTF8
Codec ID/Info : UTF-8 Plain Text
Duration : 2 h 5 min
Bit rate : 62 b/s
Count of elements : 2229
Stream size : 57.6 KiB (0%)
Title : SDH
Language : English
Default : No
Forced : No

Text #3
ID : 11
ID in the original source medium : 4768 (0x12A0)
Format : PGS
Muxing mode : zlib
Codec ID : S_HDMV/PGS
Codec ID/Info : Picture based subtitle format used on BDs/HD-DVDs
Duration : 2 h 5 min
Bit rate : 42.1 kb/s
Count of elements : 4496
Stream size : 37.7 MB (0%)
Language : English
Default : No
Forced : No

Text #4
ID : 12
ID in the original source medium : 4769 (0x12A1)
Format : PGS
Muxing mode : zlib
Codec ID : S_HDMV/PGS
Codec ID/Info : Picture based subtitle format used on BDs/HD-DVDs
Duration : 2 h 7 min
Bit rate : 31.6 kb/s
Count of elements : 3688
Stream size : 28.8 MB (0%)
Language : French
Default : No
Forced : No

Text #5
ID : 13
ID in the original source medium : 4770 (0x12A2)
Format : PGS
Muxing mode : zlib
Codec ID : S_HDMV/PGS
Codec ID/Info : Picture based subtitle format used on BDs/HD-DVDs
Duration : 2 h 7 min
Bit rate : 33.8 kb/s
Count of elements : 3672
Stream size : 30.8 MB (0%)
Language : Spanish
Default : No
Forced : No

Text #6
ID : 14
ID in the original source medium : 4771 (0x12A3)
Format : PGS
Muxing mode : zlib
Codec ID : S_HDMV/PGS
Codec ID/Info : Picture based subtitle format used on BDs/HD-DVDs
Duration : 2 h 7 min
Bit rate : 18.2 kb/s
Count of elements : 3616
Stream size : 16.6 MB (0%)
Language : Korean
Default : No
Forced : No

Text #7
ID : 15
ID in the original source medium : 4772 (0x12A4)
Format : PGS
Muxing mode : zlib
Codec ID : S_HDMV/PGS
Codec ID/Info : Picture based subtitle format used on BDs/HD-DVDs
Duration : 2 h 7 min
Bit rate : 24.6 kb/s
Count of elements : 3642
Stream size : 22.4 MB (0%)
Language : Thai
Default : No
Forced : No

Text #8
ID : 16
ID in the original source medium : 4773 (0x12A5)
Format : PGS
Muxing mode : zlib
Codec ID : S_HDMV/PGS
Codec ID/Info : Picture based subtitle format used on BDs/HD-DVDs
Duration : 2 h 7 min
Bit rate : 20.6 kb/s
Count of elements : 3640
Stream size : 18.8 MB (0%)
Language : Chinese
Default : No
Forced : No

Text #9
ID : 17
ID in the original source medium : 4774 (0x12A6)
Format : PGS
Muxing mode : zlib
Codec ID : S_HDMV/PGS
Codec ID/Info : Picture based subtitle format used on BDs/HD-DVDs
Duration : 2 h 7 min
Bit rate : 23.8 kb/s
Count of elements : 3642
Stream size : 21.7 MB (0%)
Language : Chinese
Default : No
Forced : No

Text #10
ID : 18
ID in the original source medium : 4775 (0x12A7)
Format : PGS
Muxing mode : zlib
Codec ID : S_HDMV/PGS
Codec ID/Info : Picture based subtitle format used on BDs/HD-DVDs
Duration : 1 h 20 min
Bit rate : 416 b/s
Count of elements : 42
Stream size : 246 KiB (0%)
Language : English
Default : No
Forced : No

Text #11
ID : 19
ID in the original source medium : 4776 (0x12A8)
Format : PGS
Muxing mode : zlib
Codec ID : S_HDMV/PGS
Codec ID/Info : Picture based subtitle format used on BDs/HD-DVDs
Duration : 2 h 7 min
Bit rate : 552 b/s
Count of elements : 82
Stream size : 516 KiB (0%)
Language : French
Default : No
Forced : No

Text #12
ID : 20
ID in the original source medium : 4777 (0x12A9)
Format : PGS
Muxing mode : zlib
Codec ID : S_HDMV/PGS
Codec ID/Info : Picture based subtitle format used on BDs/HD-DVDs
Duration : 1 h 20 min
Bit rate : 420 b/s
Count of elements : 42
Stream size : 248 KiB (0%)
Language : Spanish
Default : No
Forced : No

Text #13
ID : 21
ID in the original source medium : 4778 (0x12AA)
Format : PGS
Muxing mode : zlib
Codec ID : S_HDMV/PGS
Codec ID/Info : Picture based subtitle format used on BDs/HD-DVDs
Duration : 1 h 20 min
Bit rate : 305 b/s
Count of elements : 42
Stream size : 180 KiB (0%)
Language : Thai
Default : No
Forced : No

Menu
00:00:00.000 : en:Chapter 01
00:00:53.511 : en:Chapter 02
00:02:09.921 : en:Chapter 03
00:03:52.941 : en:Chapter 04
00:06:00.485 : en:Chapter 05
00:09:27.567 : en:Chapter 06
00:13:15.878 : en:Chapter 07
00:14:14.019 : en:Chapter 08
00:16:12.346 : en:Chapter 09
00:19:45.100 : en:Chapter 10
00:22:43.528 : en:Chapter 11
00:24:37.267 : en:Chapter 12
00:27:00.035 : en:Chapter 13
00:30:02.592 : en:Chapter 14
00:32:54.681 : en:Chapter 15
00:39:09.513 : en:Chapter 16
00:41:59.225 : en:Chapter 17
00:43:20.139 : en:Chapter 18
00:44:32.127 : en:Chapter 19
00:48:03.422 : en:Chapter 20
00:51:58.323 : en:Chapter 21
00:53:17.444 : en:Chapter 22
00:57:23.523 : en:Chapter 23
01:00:16.779 : en:Chapter 24
01:02:40.506 : en:Chapter 25
01:04:51.178 : en:Chapter 26
01:05:29.508 : en:Chapter 27
01:07:12.028 : en:Chapter 28
01:08:05.915 : en:Chapter 29
01:10:00.112 : en:Chapter 30
01:12:44.193 : en:Chapter 31
01:14:40.851 : en:Chapter 32
01:18:30.497 : en:Chapter 33
01:23:15.532 : en:Chapter 34
01:26:32.312 : en:Chapter 35
01:30:33.136 : en:Chapter 36
01:35:19.672 : en:Chapter 37
01:37:04.860 : en:Chapter 38
01:38:52.760 : en:Chapter 39
01:41:18.322 : en:Chapter 40
01:43:02.426 : en:Chapter 41
01:45:27.821 : en:Chapter 42
01:46:32.177 : en:Chapter 43
01:49:45.996 : en:Chapter 44
01:53:33.640 : en:Chapter 45
01:57:13.901 : en:Chapter 46
01:58:55.128 : en:Chapter 47
02:01:34.829 : en:Chapter 48
02:03:20.893 : en:Chapter 49
02:06:09.103 : en:Chapter 50



Screenshots

Solo: A Star Wars Story (2018) [4K, Ultra HD]

Solo: A Star Wars Story (2018) [4K, Ultra HD]

Solo: A Star Wars Story (2018) [4K, Ultra HD]

Solo: A Star Wars Story (2018) [4K, Ultra HD]

Solo: A Star Wars Story (2018) [4K, Ultra HD]

Solo: A Star Wars Story (2018) [4K, Ultra HD]


Come Visit My Blog (•‿•)