Tags
Language
Tags
July 2024
Su Mo Tu We Th Fr Sa
30 1 2 3 4 5 6
7 8 9 10 11 12 13
14 15 16 17 18 19 20
21 22 23 24 25 26 27
28 29 30 31 1 2 3

Prophecy (1979)

Posted By: Tavaz
720p (HD) / BDRip IMDb
Prophecy (1979)

Prophecy (1979)
BDRip | MKV | 1280x544 | English | H264 @ 6461 kbps | FLAC @ 550.835 kbps | 1 h 42 min | 5.04 GiB
Subtitles: English
Genre: Horror, Sci-Fi, Thriller

A government health inspector is dispatched to assess the damage a logging company is causing to a patch of forest claimed by Native Americans, and comes face to face with true terror wreaking havoc in the woods.

Prophecy.1979.720p.BluRay.SHOUT.FLAC.x264-MaG.mkv (5.0 GB)



General
Unique ID : 284238481627314300781107804346959491403 (0xD5D6571EA4885888F50F9443FF57714B)
Complete name : ./Prophecy.1979.720p.BluRay.SHOUT.FLAC.x264-MaG.mkv
Format : Matroska
Format version : Version 4
File size : 5.04 GiB
Duration : 1 h 42 min
Overall bit rate mode : Variable
Overall bit rate : 7 031 kb/s
Encoded date : UTC 2019-12-02 18:13:07
Writing application : mkvmerge v40.0.0 ('Old Town Road + Pony') 64-bit
Writing library : libebml v1.3.9 + libmatroska v1.5.2

Video
ID : 1
Format : AVC
Format/Info : Advanced Video Codec
Format profile : High@L4.1
Format settings : CABAC / 9 Ref Frames
Format settings, CABAC : Yes
Format settings, Reference frames : 9 frames
Codec ID : V_MPEG4/ISO/AVC
Duration : 1 h 42 min
Bit rate : 6 462 kb/s
Width : 1 280 pixels
Height : 544 pixels
Display aspect ratio : 2.35:1
Frame rate mode : Constant
Frame rate : 23.976 (24000/1001) FPS
Color space : YUV
Chroma subsampling : 4:2:0
Bit depth : 8 bits
Scan type : Progressive
Bits/(Pixel*Frame) : 0.387
Stream size : 4.63 GiB (92%)
Writing library : x264 core 157 r2935 545de2f
Encoding settings : cabac=1 / ref=9 / deblock=1:-3:-3 / analyse=0x3:0x133 / me=umh / subme=9 / psy=1 / psy_rd=1.00:0.00 / mixed_ref=1 / me_range=24 / chroma_me=1 / trellis=2 / 8x8dct=1 / cqm=0 / deadzone=21,11 / fast_pskip=0 / chroma_qp_offset=-2 / threads=6 / lookahead_threads=1 / sliced_threads=0 / nr=0 / decimate=1 / interlaced=0 / bluray_compat=0 / constrained_intra=0 / bframes=6 / b_pyramid=2 / b_adapt=2 / b_bias=0 / direct=3 / weightb=1 / open_gop=0 / weightp=2 / keyint=240 / keyint_min=24 / scenecut=40 / intra_refresh=0 / rc_lookahead=60 / rc=crf / mbtree=1 / crf=16.0 / qcomp=0.60 / qpmin=0 / qpmax=69 / qpstep=4 / vbv_maxrate=62500 / vbv_bufsize=78125 / crf_max=0.0 / nal_hrd=none / filler=0 / ip_ratio=1.40 / aq=1:1.00
Default : Yes
Forced : No
Color range : Limited
Color primaries : BT.709
Transfer characteristics : BT.709
Matrix coefficients : BT.709

Audio
ID : 2
Format : FLAC
Format/Info : Free Lossless Audio Codec
Codec ID : A_FLAC
Duration : 1 h 42 min
Bit rate mode : Variable
Bit rate : 551 kb/s
Channel(s) : 2 channels
Channel layout : L R
Sampling rate : 48.0 kHz
Frame rate : 11.719 FPS (4096 SPF)
Bit depth : 16 bits
Compression mode : Lossless
Stream size : 404 MiB (8%)
Title : FLAC 2.0 Audio
Writing library : libFLAC 1.2.1 (UTC 2007-09-17)
Language : English
Default : Yes
Forced : No

Text
ID : 3
Format : PGS
Muxing mode : zlib
Codec ID : S_HDMV/PGS
Codec ID/Info : Picture based subtitle format used on BDs/HD-DVDs
Duration : 1 h 40 min
Bit rate : 26.5 kb/s
Frame rate : 0.303 FPS
Count of elements : 1822
Stream size : 19.0 MiB (0%)
Title : SDH
Language : English
Default : No
Forced : No

Menu
00:00:00.000 : :Chapter 1
00:08:54.117 : :Chapter 2
00:18:23.019 : :Chapter 3
00:25:49.298 : :Chapter 4
00:32:51.136 : :Chapter 5
00:40:31.888 : :Chapter 6
00:48:49.301 : :Chapter 7
00:55:54.393 : :Chapter 8
01:03:14.249 : :Chapter 9
01:11:57.897 : :Chapter 10
01:21:20.751 : :Chapter 11
01:33:00.075 : :Chapter 12
01:42:30.061 : :Chapter 13





Prophecy (1979)


Prophecy (1979)


Prophecy (1979)


Prophecy (1979)


Prophecy (1979)